Планета обезьян война 2017 скачать торрент в хорошем качестве hd 1080


Скачать торрент Планета обезьян: Война / War for the Planet of the Apes (2017) WEBRip 1080p

Информация о фильмеНазвание: Планета обезьян: ВойнаОригинальное название: War for the Planet of the ApesГод выхода: 2017Жанр: фантастика, боевик, триллер

Режиссер: Мэтт Ривз

В ролях: Энди Серкис, Вуди Харрельсон, Стив Зан, Карин Коновал, Амайя Миллер, Терри Нотари, Тай Олссон, Майкл Адамуэйт, Тоби Кеббелл, Гэбриел Чаварриа

О фильме: Армию генетически модифицированных обезьян ожидает новый вызов: они вынуждены вступить в смертельную схватку с армией людей под руководством безжалостного полковника. После невообразимых потерь среди своих воинов вождь обезьян Цезарь начинает личную борьбу с темными инстинктами и собирается отомстить за весь свой вид. В конце концов он и полковник должны будут сойтись в эпической битве, которая решит, кто теперь будет править на Земле — люди или обезьяны.

Страна: США, Канада, Новая ЗеландияПродолжительность: 02:18:15Перевод: Любительское одноголосое (BadBajo) | Исходник

ФайлКодек: x.264Качество: WEBRip 1080pВидео: AVC, x.264, 1920x1080 (16:9), 30.000 fps, 4 661 Kbps (0.075 bit/pixel)Звук 1: AC-3, 48.0 KHz, 2 ch, 192 Kbps, CBR | RUSЗвук 2: AAC, 48.0 KHz, 2 ch, 224 Kbps | ENGСубтитры: Корейские (вшитые), английские

MI

Общее Уникальный идентификатор : 243277909977053350861900934762594863077 (0xB7059F048E6F5049B6BCEE90015887E5) Полное имя : G:War.for.the.Planet.of.the.Apes.2017.1080p.WEBRip.mkv Формат : Matroska Версия формата : Version 4 / Version 2 Размер файла : 4,93 Гбайт Продолжительность : 2 ч. 18 м. Общий поток : 5079 Кбит/сек Дата кодирования : UTC 2017-10-02 08:54:45 Программа кодирования : mkvmerge v8.3.0 ('Over the Horizon') 64bit Библиотека кодирования : libebml v1.3.1 + libmatroska v1.4.2

Видео Идентификатор : 1 Формат : AVC Формат/Информация : Advanced Video Codec Профиль формата : [email protected] Параметр CABAC формата : Да Параметр ReFrames формата : 4 кадра Идентификатор кодека : V_MPEG4/ISO/AVC Продолжительность : 2 ч. 18 м. Битрейт : 4661 Кбит/сек Ширина : 1920 пикселей Высота : 1080 пикселей Соотношение сторон : 16:9 Режим частоты кадров : Постоянный Частота кадров : 30,000 кадров/сек Цветовое пространство : YUV Субдискретизация насыщенности : 4:2:0 Битовая глубина : 8 бит Тип развёртки : Прогрессивная Бит/(Пиксели*Кадры) : 0.075 Размер потока : 4,52 Гбайт (92%) Библиотека кодирования : x264 core 130 r2273 b3065e6 Настройки программы : cabac=1 / ref=1 / deblock=1:0:0 / analyse=0x3:0x113 / me=hex / subme=2 / psy=1 / psy_rd=1.00:0.00 / mixed_ref=0 / me_range=16 / chroma_me=1 / trellis=0 / 8x8dct=1 / cqm=0 / deadzone=21,11 / fast_pskip=1 / chroma_qp_offset=0 / threads=6 / lookahead_threads=2 / sliced_threads=0 / nr=0 / decimate=1 / interlaced=0 / bluray_compat=0 / constrained_intra=0 / bframes=3 / b_pyramid=2 / b_adapt=1 / b_bias=0 / direct=1 / weightb=1 / open_gop=0 / weightp=1 / keyint=300 / keyint_min=30 / scenecut=40 / intra_refresh=0 / rc_lookahead=10 / rc=2pass / mbtree=1 / bitrate=4661 / ratetol=1.0 / qcomp=0.60 / qpmin=0 / qpmax=69 / qpstep=4 / cplxblur=20.0 / qblur=0.5 / vbv_maxrate=62500 / vbv_bufsize=78125 / nal_hrd=none / ip_ratio=1.40 / aq=1:1.00 Язык : English Default : Да Forced : Нет Цветовой диапазон : Limited Основные цвета : BT.709 Характеристики трансфера : BT.709 Коэффициенты матрицы : BT.709

Аудио #1 Идентификатор : 2 Формат : AC-3 Формат/Информация : Audio Coding 3 Параметр Endianness формата : Big Идентификатор кодека : A_AC3 Продолжительность : 2 ч. 18 м. Вид битрейта : Постоянный Битрейт : 192 Кбит/сек Каналы : 2 канала Расположение каналов : Front: L R Частота : 48,0 КГц Частота кадров : 31,250 кадров/сек (1536 spf) Битовая глубина : 16 бит Метод сжатия : С потерями Размер потока : 191 Мбайт (4%) Язык : Russian Default : Да Forced : Нет

Аудио #2 Идентификатор : 3 Формат : AAC Формат/Информация : Advanced Audio Codec Профиль формата : LC Идентификатор кодека : A_AAC Продолжительность : 2 ч. 18 м. Битрейт : 224 Кбит/сек Каналы : 2 канала Расположение каналов : Front: L R Частота : 48,0 КГц Частота кадров : 46,875 кадров/сек (1024 spf) Метод сжатия : С потерями Задержка видео : 19 мс. Размер потока : 222 Мбайт (4%) Язык : English Default : Нет Forced : Нет

Текст Идентификатор : 4 Формат : UTF-8 Идентификатор кодека : S_TEXT/UTF8 Идентификатор кодека/Информация : UTF-8 Plain Text Продолжительность : 2 ч. 10 м. Битрейт : 16 бит/сек ElementCount : 628 Размер потока : 16,2 Кбайт (0%) Язык : English Default : Да Forced : Нет

Источник aRutor.org

zitor.org

Война (2017) скачать торрент в хорошем качестве бесплатно

zona-film.com

Подробнее Проф. (полное дублирование) 27,92 ГиБ 16 окт. 2017 г.
Подробнее Проф. (полное дублирование) 1,46 ГиБ 12 окт. 2017 г.
Подробнее Проф. (полное дублирование) 6,76 ГиБ 12 окт. 2017 г.
Подробнее Проф. (полное дублирование) 10,82 ГиБ 12 окт. 2017 г.
Подробнее Проф. (чистый звук) 1,46 ГиБ 9 окт. 2017 г.
Подробнее Проф. (чистый звук) 4,49 ГиБ 9 окт. 2017 г.
Файл: obeziyany.warrr.2o17.d.web-dl.72op.torrent Видео данные: MPEG-4 AVC, 4150 Кбит/с, 1280x532Аудио данные: AC3, 2 ch, 384 Кбит/сПримечание: Присутствует реклама!
Подробнее Проф. (чистый звук) 5,39 ГиБ 9 окт. 2017 г.
Файл: obeziyany.warrr.2o17.d.web-dl.1o8op.torrent Видео данные: MPEG-4 AVC, 5058 Кбит/с, 1916x796Аудио данные: AC3, 2 ch, 384 Кбит/сПримечание: Присутствует реклама!
Подробнее Проф. (чистый звук) 1,46 ГиБ 6 окт. 2017 г.
Подробнее Проф. (чистый звук) 4,96 ГиБ 6 окт. 2017 г.
Подробнее Проф. (чистый звук) 5,78 ГиБ 6 окт. 2017 г.
Подробнее Любительский (многоголосный) 1,46 ГиБ 3 окт. 2017 г.
Файл: beebeezyanke.2o17.p.hdtvrip.1.46gb.torrent Видео данные: XviD, 1345 Кбит/с, 720x400Аудио данные: AC3, 2 ch, 128 Кбит/сПримечание: Присутствует реклама!
Подробнее Любительский (многоголосный) 4,70 ГиБ 3 окт. 2017 г.
Файл: beebeezyanke.2o17.p.hdtv.72op.torrent Видео данные: MKV, 4402 kb/s, 1280x720Аудио данные: AC3, 2 ch, 384 Кбит/сПримечание: Присутствует реклама!
Подробнее Любительский (одноголосный) 1,49 ГиБ 2 окт. 2017 г.
Подробнее Любительский (одноголосный) 3,49 ГиБ 2 окт. 2017 г.
Подробнее Проф. (полное дублирование) [звук из кинотеатра] 1,37 ГиБ 1 окт. 2017 г.
Подробнее Проф. (полное дублирование) [звук из кинотеатра] 4,57 ГиБ 1 окт. 2017 г.
Подробнее Проф. (полное дублирование) 1,37 ГиБ 14 июл. 2017 г.
Файл: obezyanina.planeta.2o17.d.ts.14oomb.torrent Видео данные: XviD, 1351 Кбит/с, 720x288Аудио данные: AC3, 2 ch, 192 Кбит/сПримечание: Присутствует реклама!
Подробнее Проф. (полное дублирование) 2,05 ГиБ 14 июл. 2017 г.
Файл: obezyanina.planeta.2o17.d.ts.21oomb.torrent Видео данные: XviD, 1942 Кбит/с, 720x288 Аудио данные: AC3, 2 ch, 384 Кбит/сПримечание: Присутствует реклама!
Подробнее Проф. (полное дублирование) 4,50 ГиБ 14 июл. 2017 г.
Файл: obezyanina.planeta.2o17.d.ts.72op.torrent Видео данные: MPEG-4 AVC, 4731 Кбит/с, 1280x504Аудио данные: AC3, 2 ch, 384 Кбит/сПримечание: Присутствует реклама!

Война (2017) смотреть онлайн в хорошем качестве HD 720

the-cinema.net

В подборке: Обезьяны,Будущее

Информация о фильме:Жанр: фантастика, боевик, триллер, драма, приключенияСтрана: США, Канада, Новая ЗеландияГод выпуска: 2017Режиссер: Мэтт РивзПродолжительность: 140 мин.Перевод: Дублированный [ Лицензия! ]В ролях: Энди Серкис, Вуди Харрельсон, Стив Зан, Карин Коновал, Амайя Миллер, Терри Нотари, Тай Олссон, Майкл Адамуэйт, Тоби Кеббелл, Гэбриел ЧаварриаОписание фильма: После того, как основная часть населения планеты погибла от страшного вируса, а интеллектуальное развитие обезьян достигло небывалых высот, прошло полтора десятка лет. За это время противостояние между уцелевшими людьми и племенем разумных обезьян только усилилось. В конце концов главе шимпанзе Цезарю надоедают бесконечные смерти сородичей в боях, и он решает увести обезьян в глубь страны. Но накануне великого отхода жестокий Полковник предпринимает очередную атаку, в ходе которой погибают близкие Цезарю обезьяны. Разъяренный лидер оставляет свою стаю и отправляется на поиски Полковника, но в это время остальных шимпанзе захватывает армия людей. Цезарь узнает, что его соплеменники томятся на базе в горах и теперь ему необходимо сделать выбор – продолжать поиски Полковника, или отказаться от мести за родных чтобы спасти свое племя от неминуемой гибели... @ The-Cinema.net

Оценки зрителей: Также советуем к онлайн просмотру:

8.3

Занимательность:

8.7

Игра актеров: Зарегистрируйтесь, если не хотите видеть этот баннер!

Смотреть Планета обезьян: Война онлайн:

Или:

  Скачать торрент "Планета обезьян: Война" бесплатно:

Торрент №1

Торрент №2 | BDRip 1080p | iTunes, L1

Качество: HDRip (Что такое BDRip или DVDRip?)Видео: XviD, 1834 Кбит/с, 720x304Аудио: AC3, 6 ch, 384 Кбит/сРазмер: 2.18 GBПеревод: Дублированный [iTunes] Качество: BDRip 1080p | iTunes, L1 (Что такое BDRip или DVDRip?)Видео: MPEG-4 AVC, 9647 Кбит/с, 1920х800Аудио: Аудио: Русский, (AC3, 6 ch, 384 Кбит/с), английский (AC3, 6 ch, 640 Кбит/с)Русский, (AC3, 6 ch, 384 Кбит/с), английский (AC3, 6 ch, 640 Кбит/с)Размер: 10.82 GBПеревод: Дублированный [iTunes], Любительский одноголосый (BadBajo)

Ещё никто не оставил рецензию.

ИнформацияПосетители, находящиеся в группе Гости, не могут оставлять комментарии к данной публикации.

Скачать фильм Планета обезьян: Война (2017) через торрент

gig-torrent.net

18 октября 2017 14:06 Планета обезьян: Война (2017) BDRemux 1080p | Лицензия.mkv.torrent   [Информация о файле (нажмите для просмотра)] Продолжительность: 02:20:10Перевод: Дублированный

ФайлКачество: BDRemux 1080pВидео: MPEG-4 AVC, 1920x1080, 23.4 Мbit/s, 23.976 fpsЗвук: Аудио #01: 48 kHz, DTS, 5.1, 768 Kbps | Лицензия | RUS |Аудио #02: 48 kHz, DTS-HD MA, 7.1, 4780 Kbps | Оригинал | ENG |Субтитры: Русские (forced, full), английские

28,3 Gb 348 177
18 октября 2017 14:06 Планета обезьян: Война (2017) BDRip 720p | Лицензия.mkv.torrent   [Информация о файле (нажмите для просмотра)] Продолжительность: 02:20:10Перевод: Дублированный | Лицензия

ФайлКачество: BDRip 720pВидео: MPEG-4 AVC, 1280x534, 4500 Kbit/s, 23.976 fpsЗвук: Аудио #01: 48 kHz, DTS, 5.1, 768 Kbps | Дублированный | RUS |Аудио #02: 48 kHz, AC3, 5.1, 448 Kbps | Дублированный | RUS |Аудио #03: 48 kHz, AC3, 5.1, 640 Kbps | Оригинал | ENG |Субтитры: Русские (forced, full), английские

6,22 Gb 1291 443
18 октября 2017 14:06 Планета обезьян: Война (2017) BDRip 1080p | Лицензия.mkv.torrent   [Информация о файле (нажмите для просмотра)] Продолжительность: 02:20:10Перевод: Дублированный | Лицензия

ФайлКачество: BDRip 1080pВидео: MPEG-4 AVC, 1920x800, 11.0 Мbit/s, 23.976 fpsЗвук: Аудио #01: 48 kHz, DTS, 5.1, 768 Kbps | Дублированный | RUS |Аудио #02: 48 kHz, AC3, 5.1, 448 Kbps | Дублированный | RUS |Аудио #03: 48 kHz, AC3, 5.1, 640 Kbps | Оригинал | ENG |Субтитры: Русские (forced, full), английские

12,58 Gb 2142 798
18 октября 2017 14:06 Планета обезьян: Война (2017) BDRip | Лицензия.torrent   [Информация о файле (нажмите для просмотра)] Продолжительность: 02:20:09Перевод: Дублированный | Лицензия BD EUR

ФайлФормат: AVIКачество: BDRip | BDRemux 1080p |Видео: XviD, 720x304, 23.976 fps, 1769 kbpsЗвук: AC3, 6 ch, 448 kbpsСубтитры: Русские форсированные (отдельно)

2,18 Gb 1376 294
18 октября 2017 14:06 Планета обезьян: Война (2017) BDRip | Лицензия.torrent   [Информация о файле (нажмите для просмотра)] Продолжительность: 02:20:09Перевод: Дублированный | Лицензия BD EUR

ФайлФормат: AVIКачество: BDRip | BDRemux 1080p |Видео: XviD, 720x304, 23.976 fps, 1290 kbpsЗвук: AC3, 2 ch, 192 kbpsСубтитры: Русские форсированные (отдельно)

1,46 Gb 7132 2157
18 октября 2017 14:06 Планета обезьян: Война (2017) HDRip-AVC | Лицензия.mkv.torrent   [Информация о файле (нажмите для просмотра)] Продолжительность: 02:20:10Перевод: Дублированный (Лицензия), любительский одноголосый (BadBajo (полный перевод))Субтитры: Русские (форсированные, полные), украинские (форсированные, полные), английские

ФайлФормат: MKVКачество: HDRip-AVCВидео: MPEG-4 AVC, 1024x426 (2.40:1), 1510 Kbit/s, 23.976 fps, 0,144 bppЗвук:Аудио 1: 48 kHz, AC3, 5.1 ch, 448 Kbps | RUSАудио 2: 48 kHz, AC3, 5.1 ch, 384 Kbps | RUSАудио 3: 48 kHz, AC3, 2.0 ch, 160 Kbps | UKRАудио 4: 48 kHz, AC3, 5.1 ch, 448 Kbps | ENG

2,89 Gb 442 50
18 октября 2017 14:02 Планета обезьян: Война (2017) BDRip 1080p | 3D-Video | halfOU | Лицензия.torrent   [Информация о файле (нажмите для просмотра)] Качество: BDRip (by Ash61)Контейнер: MKVФормат 3D: Half OverUnder / Вертикальная анаморфная стереопараПорядок ракурсов: левый ракурс первый

Видео: AVC / 1920х1080p / 23,976 fps / 10 Mbps

Аудио:#1 - Русский / AC3 / 48 KHz / 5.1 ch / 640 Kbps (Дубляж [BD Eur] + VO [BadBajo]) [монтаж - Ash61]#2 - Русский / AC3 / 48 KHz / 5.1 ch / 640 Kbps (Дубляж - BD 3D Eur)#3 - Украинский / AC3 / 48 KHz / 2 ch / 192 Kbps (Дубляж - iTunes)#4 - Английский / AC3 / 48 KHz / 5.1 ch / 640 Kbps (Original - BD 3D Eur)

Субтитры (SRT):Вшитые (softsub):#1 - Русские Форсированные [для дубляжа с BadBajo] (включены по умолчанию)#2 - Русские Форсированные [для чистого дубляжа]#3 - Русские Полные#4 - Украинские Форсированные#5 - Украинские Полные#6 - English Forced#7 - English Full#8 - English SDH

Внешние (UTF-8):#1 - Русские Форсированные [для дубляжа с BadBajo] (включены по умолчанию)#2 - Русские Форсированные [для чистого дубляжа]#3 - Русские Полные#4 - Украинские Форсированные

11,86 Gb 79 458

Война (2017) HD 1080p скачать торрент в хорошем качестве

Информация о фильмеНазвание: Планета обезьян: ВойнаОригинальное название: War for the Planet of the ApesГод выхода: 2017Жанр: Фантастика, боевик, триллер, приключенияРежиссер: Мэтт РивзВ ролях: Энди Серкис, Вуди Харрельсон, Стив Зан, Карин Коновал, Амайя Миллер, Терри Нотари, Тай Олссон, Майкл Адамуэйт, Тоби Кеббелл, Гэбриел Чаварриа

О фильме: Армию генетически модифицированных обезьян ожидает новый вызов: они вынуждены вступить в смертельную схватку с армией людей под руководством безжалостного полковника. После невообразимых потерь среди своих воинов вождь обезьян Цезарь начинает личную борьбу с темными инстинктами и собирается отомстить за весь свой вид. В конце концов он и полковник должны будут сойтись в эпической битве, которая решит, кто теперь будет править на Земле — люди или обезьяны.

Страна: СШАСтудия: Chernin Entertainment, River Road Entertainment, TSG EntertainmentПродолжительность: 02:20:10Перевод: Дублированный | Лицензия

ФайлКачество: BDRip 1080pВидео: MPEG-4 AVC, 1920x800, 11.0 Мbit/s, 23.976 fpsЗвук: Аудио #01: 48 kHz, DTS, 5.1, 768 Kbps | Дублированный | RUS |Аудио #02: 48 kHz, AC3, 5.1, 448 Kbps | Дублированный | RUS |Аудио #03: 48 kHz, AC3, 5.1, 640 Kbps | Оригинал | ENG |Субтитры: Русские (forced, full), английские

GeneralUnique ID : 211811952056969152697204030575443642896 (0x9F597F83C7D84621897B781E4BE70A10)Complete name : F:War.for.the.Planet.of.the.Apes.2017.DD.BDRip.1080p.ExKinoRay.mkvFormat : MatroskaFormat version : Version 4 / Version 2File size : 12.6 GiBDuration : 2 h 20 minOverall bit rate : 12.9 Mb/sEncoded date : UTC 2017-10-17 00:52:24Writing application : mkvmerge v16.0.0 ('Protest') 64-bitWriting library : libebml v1.3.5 + libmatroska v1.4.8

VideoID : 1Format : AVCFormat/Info : Advanced Video CodecFormat profile : [email protected] settings : CABAC / 4 Ref FramesFormat settings, CABAC : YesFormat settings, RefFrames : 4 framesCodec ID : V_MPEG4/ISO/AVCDuration : 2 h 20 minBit rate : 11.0 Mb/sWidth : 1 920 pixelsHeight : 800 pixelsDisplay aspect ratio : 2.40:1Frame rate mode : ConstantFrame rate : 23.976 (24000/1001) FPSColor space : YUVChroma subsampling : 4:2:0Bit depth : 8 bitsScan type : ProgressiveBits/(Pixel*Frame) : 0.299Stream size : 10.8 GiB (86%)Writing library : x264 core 149 r2771+45 509cceb 7mod [[email protected] X86_64]Encoding settings : cabac=1 / ref=4 / deblock=1:-1:-1 / analyse=0x3:0x133 / me=umh / subme=11 / psy=1 / fade_compensate=0.00 / psy_rd=0.95:0.10 / mixed_ref=1 / me_range=48 / chroma_me=1 / trellis=2 / 8x8dct=1 / cqm=0 / deadzone=21,11 / fast_pskip=0 / chroma_qp_offset=-4 / threads=12 / lookahead_threads=2 / sliced_threads=0 / nr=0 / decimate=1 / interlaced=0 / bluray_compat=0 / constrained_intra=0 / fgo=0 / bframes=9 / b_pyramid=2 / b_adapt=2 / b_bias=0 / direct=3 / weightb=1 / open_gop=0 / weightp=2 / keyint=250 / keyint_min=23 / scenecut=40 / intra_refresh=0 / rc_lookahead=30 / rc=2pass / mbtree=0 / bitrate=11000 / ratetol=1.0 / qcomp=0.70 / qpmin=0:0:0 / qpmax=69:69:69 / qpstep=4 / cplxblur=20.0 / qblur=0.5 / vbv_maxrate=35000 / vbv_bufsize=35000 / nal_hrd=none / filler=0 / ip_ratio=1.40 / pb_ratio=1.30 / aq=3:1.00 / aq-sensitivity=10.00 / aq-factor=1.00:1.00:1.00 / aq2=0 / aq3=2:[0.50:0.50]:[0.50:0.50]:[0.50:0.50]:[0.50:0.50] / aq3-sensitivity=10.00 / aq3-factor=[1.00:1.00]:[1.00:1.00]:[1.00:1.00] / aq3-boundary=192:64:24Language : EnglishDefault : YesForced : No

Audio #1ID : 2Format : DTSFormat/Info : Digital Theater SystemsMode : 16Format settings, Endianness : BigCodec ID : A_DTSDuration : 2 h 20 minBit rate mode : ConstantBit rate : 768 kb/sChannel(s) : 6 channelsChannel positions : Front: L C R, Side: L R, LFESampling rate : 48.0 kHzFrame rate : 93.750 FPS (512 SPF)Bit depth : 24 bitsCompression mode : LossyStream size : 770 MiB (6%)Title : Dub [License]Language : RussianDefault : YesForced : No

Audio #2ID : 3Format : AC-3Format/Info : Audio Coding 3Format settings, Endianness : BigCodec ID : A_AC3Duration : 2 h 20 minBit rate mode : ConstantBit rate : 448 kb/sChannel(s) : 6 channelsChannel positions : Front: L C R, Side: L R, LFESampling rate : 48.0 kHzFrame rate : 31.250 FPS (1536 SPF)Bit depth : 16 bitsCompression mode : LossyStream size : 449 MiB (3%)Title : Dub [License]Language : RussianService kind : Complete MainDefault : NoForced : No

Audio #3ID : 4Format : AC-3Format/Info : Audio Coding 3Format settings, Endianness : BigCodec ID : A_AC3Duration : 2 h 20 minBit rate mode : ConstantBit rate : 640 kb/sChannel(s) : 6 channelsChannel positions : Front: L C R, Side: L R, LFESampling rate : 48.0 kHzFrame rate : 31.250 FPS (1536 SPF)Bit depth : 16 bitsCompression mode : LossyStream size : 642 MiB (5%)Title : OriginalLanguage : EnglishService kind : Complete MainDefault : NoForced : No

Text #1ID : 5Format : UTF-8Codec ID : S_TEXT/UTF8Codec ID/Info : UTF-8 Plain TextDuration : 2 h 18 minBit rate : 8 b/sCount of elements : 220Stream size : 8.96 KiB (0%)Title : ForcedLanguage : RussianDefault : YesForced : No

Text #2ID : 6Format : UTF-8Codec ID : S_TEXT/UTF8Codec ID/Info : UTF-8 Plain TextDuration : 2 h 18 minBit rate : 28 b/sCount of elements : 797Stream size : 28.5 KiB (0%)Title : FullLanguage : RussianDefault : NoForced : No

Text #3ID : 7Format : UTF-8Codec ID : S_TEXT/UTF8Codec ID/Info : UTF-8 Plain TextDuration : 2 h 8 minBit rate : 16 b/sCount of elements : 748Stream size : 15.5 KiB (0%)Title : FullLanguage : EnglishDefault : NoForced : No

Text #4ID : 8Format : UTF-8Codec ID : S_TEXT/UTF8Codec ID/Info : UTF-8 Plain TextDuration : 2 h 9 minBit rate : 20 b/sCount of elements : 1010Stream size : 19.8 KiB (0%)Title : SDHLanguage : EnglishDefault : NoForced : No

Menu00:00:00.000 : en:00:00:00.00000:05:05.889 : en:00:05:05.88900:09:06.713 : en:00:09:06.71300:12:14.108 : en:00:12:14.10800:18:21.017 : en:00:18:21.01700:25:04.503 : en:00:25:04.50300:30:17.399 : en:00:30:17.39900:34:13.093 : en:00:34:13.09300:37:46.347 : en:00:37:46.34700:42:54.447 : en:00:42:54.44700:49:31.802 : en:00:49:31.80200:54:14.626 : en:00:54:14.62600:58:49.818 : en:00:58:49.81801:05:24.129 : en:01:05:24.12901:10:18.381 : en:01:10:18.38101:14:53.823 : en:01:14:53.82301:18:59.193 : en:01:18:59.19301:25:35.672 : en:01:25:35.67201:29:37.372 : en:01:29:37.37201:34:22.824 : en:01:34:22.82401:39:27.712 : en:01:39:27.71201:43:48.222 : en:01:43:48.22201:48:45.394 : en:01:48:45.39401:55:20.580 : en:01:55:20.58001:58:04.703 : en:01:58:04.70302:02:33.930 : en:02:02:33.93002:05:54.797 : en:02:05:54.79702:12:51.213 : en:02:12:51.213

rutorg2.ru


Смотрите также