Персональный покупатель скачать торрент в хорошем качестве


Скачать торрент Персональный покупатель / Personal Shopper (2016) WEB-DL 1080p от ExKinoRay

Информация о фильмеНазвание: Персональный покупательОригинальное название: Personal ShopperГод выхода: 2016Жанр: Триллер, драма, детективРежиссер: Оливье АссайасВ ролях: Кристен Стюарт, Ларс Айдингер, Сигрид Буази, Андерс Даниелсен Лье, Хамму Грайа, Нора фон Вальдштеттен, Бенжамин Биолэй, Одри Бонне, Паскаль Рамберт

О фильме:Живущая в Париже американка Морин работает «персональным покупателем» у некой знаменитости Киры, в силу своей постоянной занятости, не имеющей возможности заниматься пополнением собственного гардероба. В обязанности шоп-ассистентки входит посещение дорогих бутиков и покупка стильной одежды, обуви и аксессуаров для своей именитой хозяйки. Казалось бы, такая приятная и хорошо оплачиваемая работа должна приносить удовлетворение, но в действительности всё обстоит иначе. Жизнь девушки намного сложнее, чем может показаться с первого взгляда – она обладает не только великолепным вкусом, но и способностями медиума. Морин живет в доме, в котором три месяца назад умер её любимый брат–близнец и ждет знака посланного им из потустороннего мира. Получив долгожданную весточку, она «отпустит» его и начнет «жить дальше». Но так ли уж просто осуществить это человеку, умеющему общаться с душами умерших

Страна: Франция, ГерманияСтудия: Arte France, arte France Cinéma, Canal+ [fr]Продолжительность: 01:45:12Перевод: Профессиональный многоголосый | iTunes

ФайлКачество: WEB-DL 1080pВидео: MPEG-4 AVC, 1920x800, 4614 Kbit/s, 24.000 fpsЗвук: Аудио #01: 48 kHz, AC3, 5.1, 384 Kbps | Дублированный | iTunes | RUS |Аудио #02: 48 kHz, AC3, 5.1, 384 Kbps | Оригинал | ENG |

MI

General Unique ID : 199870022215522871138474257728582470159 (0x965D90EA6C777546BD9FAB33846C4A0F) Complete name : C:UsersbattiDesktopPersonal.Shopper.2016.WEB-DL.1080p.ExKinoRay.mkv Format : Matroska Format version : Version 4 / Version 2 File size : 3.96 GiB Duration : 1 h 45 min Overall bit rate : 5 384 kb/s Encoded date : UTC 2017-04-14 23:49:35 Writing application : mkvmerge v10.0.0 ('To Drown In You') 64bit Writing library : libebml v1.3.4 + libmatroska v1.4.5

Video ID : 1 Format : AVC Format/Info : Advanced Video Codec Format profile : [email protected] Format settings, CABAC : Yes Format settings, ReFrames : 5 frames Codec ID : V_MPEG4/ISO/AVC Duration : 1 h 45 min Bit rate : 4 614 kb/s Width : 1 920 pixels Height : 800 pixels Display aspect ratio : 2.40:1 Frame rate mode : Constant Frame rate : 24.000 FPS Color space : YUV Chroma subsampling : 4:2:0 Bit depth : 8 bits Scan type : Progressive Bits/(Pixel*Frame) : 0.125 Stream size : 3.39 GiB (86%) Language : English Default : Yes Forced : No Color range : Limited Color primaries : BT.709 Transfer characteristics : BT.709 Matrix coefficients : BT.709

Audio #1 ID : 2 Format : AC-3 Format/Info : Audio Coding 3 Format settings, Endianness : Big Codec ID : A_AC3 Duration : 1 h 45 min Bit rate mode : Constant Bit rate : 384 kb/s Channel(s) : 6 channels Channel positions : Front: L C R, Side: L R, LFE Sampling rate : 48.0 kHz Frame rate : 31.250 FPS (1536 spf) Bit depth : 16 bits Compression mode : Lossy Stream size : 289 MiB (7%) Title : iTunes Language : Russian Service kind : Complete Main Default : Yes Forced : No

Audio #2 ID : 3 Format : AC-3 Format/Info : Audio Coding 3 Format settings, Endianness : Big Codec ID : A_AC3 Duration : 1 h 45 min Bit rate mode : Constant Bit rate : 384 kb/s Channel(s) : 6 channels Channel positions : Front: L C R, Side: L R, LFE Sampling rate : 48.0 kHz Frame rate : 31.250 FPS (1536 spf) Bit depth : 16 bits Compression mode : Lossy Stream size : 289 MiB (7%) Title : Original Language : English Service kind : Complete Main Default : No Forced : No

Menu 00:00:00.000 : en:Chapitre 01 00:10:00.000 : en:Chapitre 02 00:20:00.000 : en:Chapitre 03 00:30:00.000 : en:Chapitre 04 00:40:00.000 : en:Chapitre 05 00:50:00.000 : en:Chapitre 06 01:00:00.000 : en:Chapitre 07 01:10:00.000 : en:Chapitre 08 01:20:00.000 : en:Chapitre 09 01:30:00.000 : en:Chapitre 10

Релиз от: Автор релиза: Подпишись на меня:

krutor.org

Скачать фильм Персональный покупатель через торрент в хорошем качестве бесплатно WEB-DLRip

Раздают: 7 [ 0 KB/s ]
Размер: 1.37 GB | Добавлен: 6 мес. назад | Торрент скачан:347 раз
Реклама Дарим 3000 рублей за регистрацию, не упусти свой шанс получить шикарный бонус!!!

15-04-2017 05:16 Персональный покупатель Скачать торрент  

Персональный покупатель / Personal Shopper

Год выпуска: 2016Страна: Франция, ГерманияЖанр: триллер, мистика, драма, детективПродолжительность: 01:45:00Перевод: Профессиональный многоголосый - [iTunes]Субтитры: отсутствуют

Режиссер: Оливье Ассайас

В ролях:

Кристен Стюарт, Ларс Айдингер, Сигрид Буази, Андерс Даниелсен Лье, Хамму Грайа, Нора фон Вальдштеттен, Бенжамин Биолэй, Одри Бонне, Паскаль Рамберт

Описание:

Живущая в Париже американка Морин работает «персональным покупателем» у некой знаменитости Киры, в силу своей постоянной занятости, не имеющей возможности заниматься пополнением собственного гардероба. В обязанности шоп-ассистентки входит посещение дорогих бутиков и покупка стильной одежды, обуви и аксессуаров для своей именитой хозяйки. Казалось бы, такая приятная и хорошо оплачиваемая работа должна приносить удовлетворение, но в действительности всё обстоит иначе. Жизнь девушки намного сложнее, чем может показаться с первого взгляда – она обладает не только великолепным вкусом, но и способностями медиума. Морин живет в доме, в котором три месяца назад умер её любимый брат–близнец и ждет знака посланного им из потустороннего мира. Получив долгожданную весточку, она «отпустит» его и начнет «жить дальше». Но так ли уж просто осуществить это человеку, умеющему общаться с душами умерших?

Качество: WEB-DLRipФормат: AVIВидео кодек: XviDАудио кодек: AC3

Видео: 720x304 (2.37:1), 23,976 fps, XviD build 50 ~1469 kbps avg, 0.26 bit/pixelАудио#1: 48 kHz, AC3 Dolby Digital, 3/2 (L,C,R,l,r) + LFE ch, ~384 kbps

Скачать Персональный покупатель через торрент http://pic1.pb.wtf/images/11/2a5bo.jpg Скачать фильм Персональный покупатель через торрент бесплантно в хорошем качестве Описание: Живущая в Париже американка Морин работает «персональным покупателем» у некой знаменитости Киры, в силу своей постоянной ... 2017-04-15 05:16 9.9 10 14

Loading...

Loading...

Рекламный пират

15-04-2017 14:06 Персональный покупатель Скачать торрент  

Сиськи есть качать можно)

17-04-2017 05:28 Персональный покупатель Скачать торрент  

kirya007 писал(а):

Сиськи есть качать можно)

И не просто сиськи а сиськи вампирские!!!

20-04-2017 09:33 Персональный покупатель Скачать торрент  

Смотрели, смотрели мы этот фильм....... итак и не поняли, что мы посмотрели.......

Дорогой пользователь! Огромная просьба, поблагодарите релизера, оцените раздачу и оставьте свои комментарий, если Вы скачали Персональный покупатель через торрент бесплатно! Внесите свою лепту в развитие PiratBit!

Комментировать посты могут только пользователи прошедшие не сложную регистрацию

Персональный покупатель через торрент Скачать бесплатно Персональный покупатель Персональный покупатель скачать торрент Персональный покупатель смотреть онлайн Cкачать фильм Персональный покупатель бесплатно Персональный покупатель скачать торрент в хорошем качестве Персональный покупатель смотреть онлайн бесплатно в хорошем качестве

Вы не можете начинать темыВы не можете отвечать на сообщенияВы не можете редактировать свои сообщенияВы не можете удалять свои сообщенияВы не можете голосовать в опросахВы не можете прикреплять файлы к сообщениямВы можете скачивать файлы

piratbit.ru

Скачать фильм Персональный покупатель через торрент в хорошем качестве бесплатно BDRip от Twi7ter

Раздают: 5 [ 6 KB/s ]
Размер: 1.41 GB | Добавлен: 6 мес. назад | Торрент скачан:273 раза
Реклама Дарим 3000 рублей за регистрацию, не упусти свой шанс получить шикарный бонус!!!

24-04-2017 17:38 Персональный покупатель Скачать торрент  

Персональный покупатель / Personal Shopper

Год выпуска: 2016Страна: Франция, ГерманияЖанр: триллер, драма, детективПродолжительность: 01:45:14Перевод: Профессиональный (многоголосый, закадровый) [iTunes]Субтитры: НетРежиссер: Оливье АссайасВ ролях: Кристен Стюарт (Maureen Cartwright), Ларс Айдингер (Ingo), Сигрид Буази (Lara), Андерс Даниелсен Лье (Erwin), Ty Olwin (Gary), Хамму Грайа (Police Officer), Нора фон Вальдштеттен (Kyra), Бенжамин Биолэй (Victor Hugo), Одри Бонне (Cassandre), Паскаль Рамберт (Jérôme), Орелия Пети (Chanel Press Attache), Оливия Росс (Attachée de presse maison de couture Londres)Описание: Молодая американка Морин, переехавшая в Париж, помогает знаменитостям подбирать наряды. С миром высокой моды она на ты. Её жизнь кажется мечтой, но всё усложняет паранормальная особенность - Морин умеет общаться с призраками.Рейтинг:

MPAA: R - Лицам до 17 лет обязательно присутствие взрослого

Качество: BDRip | исх. PERSONAL_SHOPPER_REMUX_HDCLUB |Формат: AVIВидео кодек: XviDАудио кодек: AC3Видео: 720x304 (2.37:1), 23.976 fps, XviD build 73 ~1530 kbps avg, 0.29 bit/pixelАудио: 48 kHz, AC3 Dolby Digital, 3/2 (L,C,R,l,r) + LFE ch, ~384 kbps

Релиз: &

Скачать Персональный покупатель через торрент http://s018.radikal.ru/i512/1704/57/d83ddb730ac3.png Скачать фильм Персональный покупатель через торрент бесплантно в хорошем качестве Описание: Молодая американка Морин, переехавшая в Париж, помогает знаменитостям подбирать наряды. С миром высокой моды она на ты. Её жизнь ... 2017-04-24 17:38 8.2 10 14

Loading...

Loading...

Рекламный пират

24-04-2017 17:57 Персональный покупатель Скачать торрент  

4 скрин, тема сисек разкрыта... Все что с данной актрисой выходит, не вызывает никакого желания смотреть, хз.

24-04-2017 19:53 Персональный покупатель Скачать торрент  

Ворон писал(а):

4 скрин, тема сисек разкрыта... Все что с данной актрисой выходит, не вызывает никакого желания смотреть, хз.Потому как они отсуцтвуют на проч у неЁ

25-04-2017 09:35 Персональный покупатель Скачать торрент  

Поддержую,не нравится эта актриска

Дорогой пользователь! Огромная просьба, поблагодарите релизера, оцените раздачу и оставьте свои комментарий, если Вы скачали Персональный покупатель через торрент бесплатно! Внесите свою лепту в развитие PiratBit!

Комментировать посты могут только пользователи прошедшие не сложную регистрацию

Персональный покупатель через торрент Скачать бесплатно Персональный покупатель Персональный покупатель скачать торрент Персональный покупатель смотреть онлайн Cкачать фильм Персональный покупатель бесплатно Персональный покупатель скачать торрент в хорошем качестве Персональный покупатель смотреть онлайн бесплатно в хорошем качестве

Вы не можете начинать темыВы не можете отвечать на сообщенияВы не можете редактировать свои сообщенияВы не можете удалять свои сообщенияВы не можете голосовать в опросахВы не можете прикреплять файлы к сообщениямВы можете скачивать файлы

piratbit.ru

Скачать фильм Персональный покупатель через торрент в хорошем качестве бесплатно 720p

GeneralUnique ID : 196841993106193283608795743692403322893 (0x9416638DE04BCFA39E965F316F55300D)Complete name : H:\Download\Кино\Personal Shopper.2016.WEB-DL.720p.mkvFormat : MatroskaFormat version : Version 2File size : 3.57 GiBDuration : 1 h 45 minOverall bit rate : 4 861 kb/sEncoded date : UTC 2017-04-14 19:53:05Writing application : mkvmerge v4.0.0 ('The Stars were mine') сборка от Jun 6 2010 16:18:42Writing library : libebml v1.0.0 + libmatroska v1.0.0

VideoID : 1Format : AVCFormat/Info : Advanced Video CodecFormat profile : [email protected] settings, CABAC : NoFormat settings, ReFrames : 2 framesCodec ID : V_MPEG4/ISO/AVCDuration : 1 h 45 minBit rate : 3 996 kb/sWidth : 1 280 pixelsHeight : 538 pixelsDisplay aspect ratio : 2.40:1Frame rate mode : ConstantFrame rate : 24.000 FPSColor space : YUVChroma subsampling : 4:2:0Bit depth : 8 bitsScan type : ProgressiveBits/(Pixel*Frame) : 0.242Stream size : 2.93 GiB (82%)Language : EnglishDefault : NoForced : NoColor range : LimitedColor primaries : BT.709Transfer characteristics : BT.709Matrix coefficients : BT.709

Audio #1ID : 2Format : AC-3Format/Info : Audio Coding 3Mode extension : CM (complete main)Format settings, Endianness : BigCodec ID : A_AC3Duration : 1 h 45 minBit rate mode : ConstantBit rate : 384 kb/sChannel(s) : 6 channelsChannel positions : Front: L C R, Side: L R, LFESampling rate : 48.0 kHzFrame rate : 31.250 FPS (1536 spf)Compression mode : LossyStream size : 289 MiB (8%)Language : RussianDefault : YesForced : No

Audio #2ID : 3Format : AC-3Format/Info : Audio Coding 3Mode extension : CM (complete main)Format settings, Endianness : BigCodec ID : A_AC3Duration : 1 h 45 minBit rate mode : ConstantBit rate : 384 kb/sChannel(s) : 6 channelsChannel positions : Front: L C R, Side: L R, LFESampling rate : 48.0 kHzFrame rate : 31.250 FPS (1536 spf)Compression mode : LossyStream size : 289 MiB (8%)Language : EnglishDefault : NoForced : No

piratbit.ru


Смотрите также