Падение олимпа скачать бесплатно в хорошем качестве через торрент


Скачать фильм Падение Олимпа через торрент в хорошем качестве бесплатно BDRip

Размер: 2.18 GB | Добавлен: 4 года 3 мес. назад | Торрент скачан:2028 раз
Реклама Дарим 3000 рублей за регистрацию, не упусти свой шанс получить шикарный бонус!!!

20-07-2013 09:35 Падение Олимпа Скачать торрент  

Падение Олимпа / Olympus Has Fallen
  • Год выпуска
  • :2013
  • Страна: США
  • Жанр:боевик, триллер
  • Продолжительность: 01:59:09
  • Перевод:Профессиональный (полное дублирование)[лицензия]
  • Субтитры: Нет
    • Режиссер
    • : Антуан Фукуа / Antoine Fuqua
    • Продюсер: Дэнни Лернер / Danny Lerner, Алан Сигел / Alan Siegel, Джерард Батлер / Gerard Butler, Эд Кэйтелл III / Ed Cathell III, Антуан Фукуа / Antoine Fuqua
    • Сценарий:Крейгтон Ротенбергер / Creighton Rothenberger, Кэтрин Бенедикт / Katrin Benedikt
  • В ролях
  • :Джерард Батлер (Mike Banning), Аарон Экхарт (President Benjamin Asher), Морган Фриман (Speaker Trumbull), Рик Юн (Kang), Финли Якобсен (Connor), Анджела Бассетт (Secret Service Director Lynn Jacobs), Рада Митчелл (Leah), Роберт Форстер (General Edward Clegg), Дилан МакДермотт (Forbes), Эшли Джадд (Margaret Asher), Мелисса Лео (Secretary of Defense Ruth McMillan), Коул Хаузер (Roma)
    • Описание
    • :Когда на Белый Дом нападают террористы, а президента берут в заложники, дискредитированный бывший охранник главы государства Майк Бэннинг оказывается внутри захваченного здания. И теперь он единственный, кто сможет спасти президента...
  • Рейтингkinopoisk.ru: 6.670 (6515)imdb.com: 6.80 (35 693)MPAA: R - Лицам до 17 лет обязательно присутствие взрослого
    • Качество
    • : BDRip /исходник: Olympus.Has.Fallen.2013.BluRay.1080p.AVC.DTS-HD.MA5.1-nLiBRA/
    • Формат
    : AVI
  • Видео кодек
  • : XviD
  • Аудио кодек
  • : AC3
  • Видео: XviD, 720x304 (2.37:1), ~1711 kbps avg, 24,000 fps
  • Аудио: : AC3 Dolby Digital, 48 KHz, ~448 kbps, 3/2 (L,C,R,l,r) + LFE ch /RUS/
  • Аудио 2: : AC3 Dolby Digital, 48 KHz, ~448 kbps, 3/2 (L,C,R,l,r) + LFE ch /ENG ОбщееПолное имя : D:ТорентыPadenie.Olimpa.2013.DUAL.BDRip.XviD.AC3.-HQ-ViDEO.aviФормат : AVIФормат/Информация : Audio Video InterleaveПрофиль формата : OpenDMLРазмер файла : 2,18 ГбайтПродолжительность : 1 ч. 59 м.Общий поток : 2625 Кбит/секНазвание фильма : Olympus Has Fallen (2013)Режиссёр : VaipppЖанр : Action/ThrillerПрограмма кодирования : VirtualDubModRus 1.5.10.2 (build 2542/release)Библиотека кодирования : VirtualDubMod build 2542/releaseФормат оригинала/Имя : MovieПравообладатель : HQ-ViDEOПримечание : BDRip

    ВидеоИдентификатор : 0Формат : MPEG-4 VisualПрофиль формата : Advanced [email protected]Параметр BVOP формата : 1Параметр QPel формата : НетПараметр GMC формата : Без точки переходаПараметр матрицы формата : ВыборочнаяИдентификатор кодека : XVIDИдентификатор кодека/Подсказка : XviDПродолжительность : 1 ч. 59 м.Битрейт : 1711 Кбит/секШирина : 720 пикселейВысота : 304 пикселяСоотношение сторон : 2,35:1Частота кадров : 24,000 кадра/секЦветовое пространство : YUVСубдискретизация насыщенности : 4:2:0Битовая глубина : 8 битТип развёртки : ПрогрессивнаяМетод сжатия : С потерямиБит/(Пиксели*Кадры) : 0.326Размер потока : 1,42 Гбайт (65%)Библиотека кодирования : XviD 73

    Аудио #1Идентификатор : 1Формат : AC-3Формат/Информация : Audio Coding 3Расширение режима : CM (complete main)Параметр Endianness формата : BigИдентификатор кодека : 2000Продолжительность : 1 ч. 59 м.Вид битрейта : ПостоянныйБитрейт : 448 Кбит/секКаналы : 6 каналовРасположение каналов : Front: L C R, Side: L R, LFEЧастота : 48,0 КГцБитовая глубина : 16 битМетод сжатия : С потерямиРазмер потока : 382 Мбайт (17%)Выравнивание : Разделение по промежуткамПродолжительность промежутка : 42 мс. (1,00 видеокадр)Время предзагрузки промежутка : 500 мс.

    Аудио #2Идентификатор : 2Формат : AC-3Формат/Информация : Audio Coding 3Расширение режима : CM (complete main)Параметр Endianness формата : BigИдентификатор кодека : 2000Продолжительность : 1 ч. 59 м.Вид битрейта : ПостоянныйБитрейт : 448 Кбит/секКаналы : 6 каналовРасположение каналов : Front: L C R, Side: L R, LFEЧастота : 48,0 КГцБитовая глубина : 16 битМетод сжатия : С потерямиРазмер потока : 382 Мбайт (17%)Выравнивание : Разделение по промежуткамПродолжительность промежутка : 42 мс. (1,00 видеокадр)Время предзагрузки промежутка : 500 мс.

    • Выбор Северной Кореи в качестве злодея в этом фильме стал некоторого рода провидением. В 2013 году появилась некая напряженность в отношениях между КНДР и США. Для сценария этот выбор был сделан годами ранее. Режиссер Антуан Фукуа сказал в интервью, что не хотел, чтобы злодеями были люди с Ближнего Востока, потому что это уже избитая тема. И Северная Корея была интересна ему, потому что эта страна полностью закрыта от внешнего мира и создает такое впечатление, как будто никто не может предположить, что они хотят или на что способны.
    • Морган Фриман снимался в сцене в комнате кризисных ситуаций в самый разгар интернет-слуха о его смерти. Он часто начинал съемочный день, напевая остальным актерам старые джаз-песни, и этим умилял ничего не подозревающую съемочную группу.
    • Во время съемок сцен в Белом доме в Луизиане было настолько жарко, что представитель общества защиты животных настоял на том, чтобы немецких овчарок, которых снимали в качестве сторожевых псов К-9, помещали в вагон с кондиционированием воздуха в промежутках между дублями.
    • Изначально в роли первой леди студия хотела видеть Вайнону Райдер.
    • Джерард Батлер однажды уже рассматривался на роль агента ЦРУ, Митча Раппа, в так и не вышедшей экранизации романа Финса Флинна (Vince Flynn) «Согласие на убийство» (Consent to Kill). Первый роман, в котором появляется персонаж Митч Рапп, - это Transfer of Power, сюжет которого чрезвычайно похож на сюжет фильма «Падение Олимпа» (2013). В нем террористы захватывают контроль над Белым домом, и Рапп должен добраться до президента, укрывающегося в бункере, раньше террористов.
    • Это четвертый фильм, в котором Морган Фриман и Эшли Джадд снялись вместе, но это первый раз, когда их персонажи не появляются вместе на экране. Первыми тремя их совместными фильмами были «Целуя девушек» (1997), «Особо тяжкие преступления» (2002) и «История дельфина» (2011).
    • Роль начальника Секретной службы первоначально писалась под мужчину. Затем режиссер Антуан Фукуа убедил Анджелу Бассетт пройти прослушивание, после чего роль переписали под женщину.
    • Это второй раз, когда Дилан МакДермотт сыграл агента Секретной службы. Аналогичную роль он исполнил в фильме «На линии огня» (1993).
    • еще 5 фактов
    • Белый дом на самом деле не такого ярко-белого цвета, как показано в фильме. А лужайка гораздо длиннее.
    • В начале фильма, после того как лимузин с первой леди в нем падает в реку с моста, он разбивается о замерзшую поверхность реки и не тонет. Спустя секунду, когда камера меняет ракурс, видно лишь отверстие во льду, а самого лимузина нет.
    • После того как Майк Беннинг выходит из кафе с начальником Секретной службы Линн Якобс, он выглядит чисто побритым, затем он звонит жене (все еще побритый), но на его звонок никто не отвечает. Тогда он оставляет сообщение, и в этом моменте очевидно, что он уже выглядит небритым.
    • В фильме есть несколько моментов, когда в новостях неправильно отображается название Белого дома: Whitehouse вместо White House.
    • Слишком невероятным выглядит тот факт, что, после того как Майк 18 месяцев не был в Белом доме, все коды блокировки остались такими же, какими он их помнит.
    • Когда Майк и Кан говорят друг с другом через веб-камеру, со стороны Кана видно, что Майк смотрит прямо на экран, но со стороны Майка заметно, что его голова повернута так, чтобы смотреть прямо в камеру.
    • После того как оружие было уничтожено, в новостях не было видно дыма над зданием. А в более поздней сцене заметно, что он прямо валит из него.
    • еще 4 ошибки
    Сценарий: Крейгтон Ротенбергер / Creighton Rothenberger, Кэтрин Бенедикт / Katrin BenediktПродюсер: Дэнни Лернер / Danny Lerner, Алан Сигел / Alan Siegel, Джерард Батлер / Gerard Butler, Эд Кэйтелл III / Ed Cathell III, Антуан Фукуа / Antoine FuquaОператор: Конрад У. Холл / Conrad W. HallКомпозитор: Тревор Моррис / Trevor Morris

    Бюджет: $70 000 000Сборы в США: $98 667 852Сборы в России: $4 908 002Сборы в мире: $160 767 852

    Мировая премьера: 20 марта 2013Релиз на DVD: 30 июля 2013, «Парадиз / Активижен»Релиз на Blu-ray: 30 июля 2013, «Парадиз / Активижен»

  •         © Оформление&Постер by Vetal Скачать Падение Олимпа через торрент http://pic.pb.wtf/images/3/fs3biezcfm.png Скачать фильм Падение Олимпа через торрент бесплантно в хорошем качестве Описание:Когда на Белый Дом нападают террористы, а президента берут в заложники, дискредитированный бывший охранник главы государства Майк ... 2013-07-20 09:35 9.7 10 39

    Loading...

    Loading...

    Рекламный пират

    20-07-2013 09:37 Падение Олимпа Скачать торрент  

    https://disk.yandex.ua/public/?hash=zmiA/0QhH6Eb8qICEfn4KjLewFv3gSnxaIvYAiinMDk%3D

    Дорогой пользователь! Огромная просьба, поблагодарите релизера, оцените раздачу и оставьте свои комментарий, если Вы скачали Падение Олимпа через торрент бесплатно! Внесите свою лепту в развитие PiratBit!

    Комментировать посты могут только пользователи прошедшие не сложную регистрацию

    Падение Олимпа через торрент Скачать бесплатно Падение Олимпа Падение Олимпа скачать торрент Падение Олимпа смотреть онлайн Cкачать фильм Падение Олимпа бесплатно Падение Олимпа скачать торрент в хорошем качестве Падение Олимпа смотреть онлайн бесплатно в хорошем качестве

    Вы не можете начинать темыВы не можете отвечать на сообщенияВы не можете редактировать свои сообщенияВы не можете удалять свои сообщенияВы не можете голосовать в опросахВы не можете прикреплять файлы к сообщениямВы можете скачивать файлы

    piratbit.ru

    Падение Олимпа (2013) скачать торрент в хорошем качестве бесплатно. Скачать Падение Олимпа (2013) через торрент фильм в HD качестве

    Название: Падение ОлимпаОригинальное название: Olympus Has FallenГод выпуска: 2013Выпущено: СШАЖанр: боевик, триллер, крутые парниПродолжительность:  01:49:52Перевод: Дублированный

    Качество видео: HDRip (лицензия)Формат видео: AVIРазмер: 1,37Gb

    Режиссер: Антуан ФукуаВ ролях: Джерард Батлер, Аарон Экхарт, Морган Фриман, Эшли Джадд, Мелисса Лео, Финли Якобсен, Дилан МакДермотт и др.

    Описание: Главной ключевой фигурой в этом фильме является бывший агент спецслужб, при президенте Соединенных Штатов Америки, настоящий патриот своей страны. Когда он еще работал в охране семьи президента, случилось негаданное: сопровождая первую леди домой, их автомобиль подорвали террористы, заложив на дороге не большую бомбу. Всеми возможными силами он пытался её спасти, но машина падает с моста и первая леди погибает. После этого, посчитав действия агента непрофессиональными, в этот же день, его навсегда лишают права работать на правительство. Никто даже не думал, что в ближайшем времени, именно этот парень будет единственным шансом в спасении жизни главы государства и чести Америки. Ясным днем, на самое неприступное здание Америки - пентагон,  нападают террористы, и мало того, умудряются взять в заложники самого главу государства. Противник особо опасен, очень хорошо подготовлен и для него нет ни каких преград. Спецслужбы даже опомниться не смогли, успели сказать два слова «Падение Олимпа», а самое укрепленное здание страны уже захвачено, жители города шокированы происходящим. При отсутствии главы государства, страной берется управлять спикер, он посылает туда отряд самых лучших спецназовцев, из сорока человек, но с ними очень легко расправляются. Кажется, выхода нет, и тут вступает в игру наш герой, случайно оказавшийся в пентагоне, только он может дать отпор террористам, спасти президента, отвоевать гармонию Америки, только это все будет не так легко....

    Рецензия от сайта Igrhost.ruГолливуд, судя по всему, был крайне удивлен полным провалом фильма «Крепкий орешек 4» на большом экране и, именно поэтому, видимо решил переснять первую часть. Разумеется, «Падение Олимпа» - это совершенно новая кинолента, она не является продолжением одного из самых известных боевиков и не имеет никакого отношения к нему. Однако по своему сценарию, по развитию событий и, наконец, по идеологии, боевик 2013 года напоминает «Крепкий орешек 1». Пускай и не точь в точь, но отдаленно уж точно.Судите сами, корейские террористы захватывают Белый дом, берут в заложники президента и угрожают миру во всем мире. Внутри здания оказывается бывший секретный агент, которые на протяжении нескольких лет верой и правдой служил Соединенным Штатам, но был несправедливо дискредитирован и отправлен в отставку. Теперь судьба президента, Америки и всего мира находится именно в его руках. Антуан Фукуа (режиссер фильма) сделал все возможное, что бы привнести в картину максимально глубокий смысл и идейную линию. Но, «Падение Олимпа» - это не та кинолента, которую Вы будете смотреть в поисках глубоких мыслей или в поисках ответов на вечные вопросы. Нет, «Падение Олимпа» - это очередной традиционный американский боевик, в котором есть пафос, сердобольные разговоры, которые утверждают, что американцы – лучшая нация на Земле, патриотизм, героизм, преданность, нечеловеческие способности главного героя.Такую картину стоит смотреть в качестве «отдыха для мозга», для расслабления, для получения удовольствия от того, как на экране условно-хороший парень с непростой судьбой, пытается победить условно-плохих парней, которые угрожают всему миру. Учитывая этот факт, на первый план выходит не идейная составляющая, а скорее спецэффекты, игра актеров (хотя и этот факт здесь не столь важен, в сравнении с актерским составом, ведь куда приятнее наблюдать за работой настоящих звезд кино). А в этих показателях фильм весьма и весьма не плох.Спецэффекты ничем не удивили, но все взрывы, стрельба и разрушения выглядят реалистично и, по крайне мере, точно не «напрягают» при просмотре. Актерский состав, так же весьма хорош. Присутствие в киноленте Джерарда Батлера и Моргана Фримана изначально привлекает внимание, делая фильм «Падение Олимпа» едва ли не обязательным к просмотру всеми любителями классических американских боевиков. В общем и целом все очень динамично, быстро и красиво.Лично мне фильм понравился, не более, не менее. При желании, конечно, придраться можно ко множеству мелочей, начиная от нереалистично медлительного и, уж простите, глуповатого спецназа и, заканчивая, неуязвимостью главного героя. Но, как говориться, из песни слов не выкинешь. Подобные атрибуты это классика, без которой американский боевик не был бы таковым. Именно поэтому, картина идеально подойдет для всех любителей жанра, в частности для семейного просмотра, хотя детям, конечно, смотреть некоторые сцены все-таки не стоит: крови многовато.

    Для того чтобы скачать фильм Падение Олимпа (2013) через торрент, Вам необходимо нажать на кнопку скачать торрент, которая находится над постером сверху, или на текстовую ссылку с надписью - Падение Олимпа (2013) скачать торрент в хорошем качестве.

    igrhost.ru

    Скачать фильм Падение Олимпа через торрент в хорошем качестве бесплатно BDRip-AVC

    GeneralUnique ID : 235806340488340768939103256734855947823 (0xB166A6336E89873FB44E8E03F98D662F)Complete name : D:\Падение Олимпа BDRip-AVC 60fps R.G. HD-Films.mkvFormat : MatroskaFormat version : Version 4 / Version 2File size : 3.63 GiBDuration : 1h 59mnOverall bit rate : 4 342 KbpsMovie name : Tiberiumsun69Encoded date : UTC 2016-02-07 07:51:16Writing application : mkvmerge v8.3.0 ('Over the Horizon') 64bitWriting library : libebml v1.3.1 + libmatroska v1.4.2Attachment : Yes

    VideoID : 1Format : AVCFormat/Info : Advanced Video CodecFormat profile : [email protected]rmat settings, CABAC : YesFormat settings, ReFrames : 4 framesCodec ID : V_MPEG4/ISO/AVCDuration : 1h 59mnBit rate : 3 700 KbpsWidth : 1 024 pixelsHeight : 424 pixelsDisplay aspect ratio : 2.40:1Frame rate : 59.940 fpsColor space : YUVChroma subsampling : 4:2:0Bit depth : 8 bitsScan type : ProgressiveBits/(Pixel*Frame) : 0.142Stream size : 3.02 GiB (83%)Title : Tiberiumsun69Writing library : x264 core 146 r2538 121396cEncoding settings : cabac=1 / ref=3 / deblock=1:0:0 / analyse=0x3:0x113 / me=umh / subme=9 / psy=1 / psy_rd=1.00:0.10 / mixed_ref=1 / me_range=32 / chroma_me=1 / trellis=2 / 8x8dct=1 / cqm=0 / deadzone=21,11 / fast_pskip=0 / chroma_qp_offset=-3 / threads=12 / lookahead_threads=3 / sliced_threads=0 / nr=0 / decimate=1 / interlaced=0 / bluray_compat=0 / constrained_intra=0 / bframes=16 / b_pyramid=2 / b_adapt=2 / b_bias=0 / direct=3 / weightb=1 / open_gop=0 / weightp=2 / keyint=250 / keyint_min=25 / scenecut=40 / intra_refresh=0 / rc_lookahead=40 / rc=2pass / mbtree=1 / bitrate=3700 / ratetol=1.0 / qcomp=0.60 / qpmin=0 / qpmax=69 / qpstep=4 / cplxblur=20.0 / qblur=0.5 / vbv_maxrate=14000 / vbv_bufsize=14000 / nal_hrd=none / filler=0 / ip_ratio=1.40 / aq=1:1.00Language : EnglishDefault : YesForced : No

    AudioID : 2Format : AC-3Format/Info : Audio Coding 3Mode extension : CM (complete main)Codec ID : A_AC3Duration : 1h 59mnBit rate mode : ConstantBit rate : 640 KbpsChannel(s) : 6 channelsChannel positions : Front: L C R, Side: L R, LFESampling rate : 48.0 KHzBit depth : 16 bitsCompression mode : LossyStream size : 547 MiB (15%)Title : ДубляжLanguage : RussianDefault : YesForced : No

    Text #1ID : 3Format : UTF-8Codec ID : S_TEXT/UTF8Codec ID/Info : UTF-8 Plain TextTitle : ПолныеLanguage : RussianDefault : NoForced : No

    Text #2ID : 4Format : UTF-8Codec ID : S_TEXT/UTF8Codec ID/Info : UTF-8 Plain TextTitle : ПолныеLanguage : EnglishDefault : NoForced : No

    Menu00:00:00.000 : en:Chapter 100:09:36.033 : en:Chapter 200:14:49.805 : en:Chapter 300:21:41.258 : en:Chapter 400:28:13.566 : en:Chapter 500:33:38.850 : en:Chapter 600:41:56.639 : en:Chapter 700:51:06.563 : en:Chapter 800:58:52.320 : en:Chapter 901:07:20.244 : en:Chapter 1001:15:17.554 : en:Chapter 1101:20:13.141 : en:Chapter 1201:27:11.434 : en:Chapter 1301:34:38.714 : en:Chapter 1401:42:19.174 : en:Chapter 1501:47:23.186 : en:Chapter 16

    piratbit.ru

    Скачать фильм Падение Олимпа (2013) через торрент

    1 февраля 2016 08:27 Падение Олимпа / Olympus Has Fallen (2013) HDRip | A | RUS Transfer .torrent   [Информация о файле (нажмите для просмотра)] Перевод: Авторский (одноголосый закадровый)А.Гаврилов, авторский (одноголосый закадровый) Л.ВолодарскийКачество: HDRipВидео: XviD, 1358 Кбит/с, 720x304Аудио #1: AC-3, 48.0 KHz, 2 ch, 192 Kbps, CBR - А. ГавриловАудио #2: AC-3, 48.0 KHz, 2 ch, 192 Kbps, CBR - Л. Володарский 1,46 Gb 20 2 1 февраля 2016 08:27 Падение Олимпа / Olympus Has Fallen (2013) BDRip 720p | D, A | RUS Transfer .torrent   [Информация о файле (нажмите для просмотра)] Перевод: Дублированный, авторский (одноголосый закадровый)А.Гаврилов, авторский (одноголосый закадровый) Л.ВолодарскийКачество: BDRip (720p)Видео: MPEG-4 AVC, 4037 Кбит/с, 1280x536, 24.000 кадр/сАудио 1: AC3 Dolby Digital, 48 KHz, ~448 kbps, 3.2 (L,C,R,l,r) + LFE ch - ДубляжАудио 2: AC3 Dolby Digital, 48 KHz, ~448 kbps, 3.2 (L,C,R,l,r) + LFE ch - ГавриловАудио 3: AC3 Dolby Digital, 48 KHz, ~448 kbps, 3.2 (L,C,R,l,r) + LFE ch - Володарский 4,57 Gb 6 1 1 февраля 2016 08:27 Падение Олимпа / Olympus Has Fallen (2013) BDRip 1080p .torrent   [Информация о файле (нажмите для просмотра)] Перевод: Дублированный + ОригиналКодек: x264Качество: BDRip (источник: Blu-ray Disc)Видео: 1920x800 (2,40:1), 24.000 fps (True24p), 8038 kbpsАудио #1: AC-3, 6 ch, 640 kbps (Rus)Аудио #2: AC-3, 6 ch, 640 kbps (Eng)Субтитры: Русские (voronine), АнглийскиеВидео: Идентификатор : 1 Формат : AVC Формат/Информация : Advanced Video Codec Профиль формата : [email protected] Параметр CABAC формата : Да Параметр ReFrames формата : 5 кадров Идентификатор кодека : V_MPEG4/ISO/AVC Продолжительность : 1 ч. 59 м. Битрейт : 8038 Кбит/сек Ширина : 1920 пикселей Высота : 800 пикселей Соотношение сторон : 2,40:1 Режим частоты кадров : Постоянный Частота кадров : 24,000 кадра/сек Цветовое пространство : YUV Субдискретизация насыщенности : 4:2:0 Битовая глубина : 8 бит Тип развёртки : Прогрессивная Бит/(Пиксели*Кадры) : 0.218 Размер потока : 6,54 Гбайт (84%) Заголовок : Release by N1NT3NDO Библиотека кодирования : x264 core 135 r2345 f0c1c53 Настройки программы : cabac=1 / ref=5 / deblock=1:-3:-3 / analyse=0x3:0x133 / me=umh / subme=11 / psy=1 / psy_rd=1.00:0.00 / mixed_ref=1 / me_range=32 / chroma_me=1 / trellis=2 / 8x8dct=1 / cqm=0 / deadzone=21,11 / fast_pskip=0 / chroma_qp_offset=-2 / threads=12 / lookahead_threads=1 / sliced_threads=0 / nr=0 / decimate=0 / interlaced=0 / bluray_compat=0 / constrained_intra=0 / bframes=6 / b_pyramid=2 / b_adapt=2 / b_bias=0 / direct=3 / weightb=1 / open_gop=0 / weightp=2 / keyint=240 / keyint_min=24 / scenecut=40 / intra_refresh=0 / rc=2pass / mbtree=0 / bitrate=8038 / ratetol=1.0 / qcomp=0.60 / qpmin=0 / qpmax=69 / qpstep=4 / cplxblur=20.0 / qblur=0.5 / ip_ratio=1.40 / pb_ratio=1.30 / aq=1:0.70 Язык : English Default : Да Forced : НетАудио #1: Идентификатор : 2 Формат : AC-3 Формат/Информация : Audio Coding 3 Расширение режима : CM (complete main) Параметр Endianness формата : Big Идентификатор кодека : A_AC3 Продолжительность : 1 ч. 59 м. Вид битрейта : Постоянный Битрейт : 640 Кбит/сек Каналы : 6 каналов Расположение каналов : Front: L C R, Side: L R, LFE Частота : 48,0 КГц Битовая глубина : 16 бит Метод сжатия : С потерями Размер потока : 545 Мбайт (7%) Заголовок : Rus Язык : Russian Default : Да Forced : НетАудио #2: Идентификатор : 3 Формат : AC-3 Формат/Информация : Audio Coding 3 Расширение режима : CM (complete main) Параметр Endianness формата : Big Идентификатор кодека : A_AC3 Продолжительность : 1 ч. 59 м. Вид битрейта : Постоянный Битрейт : 640 Кбит/сек Каналы : 6 каналов Расположение каналов : Front: L C R, Side: L R, LFE Частота : 48,0 КГц Битовая глубина : 16 бит Метод сжатия : С потерями Размер потока : 545 Мбайт (7%) Заголовок : Eng Язык : English Default : Нет Forced : Нет 7,76 Gb 62 10 1 февраля 2016 08:27 Падение Олимпа / Olympus Has Fallen (2013) BDRip 720p от Leonardo and Scarabey | Лицензия .torrent   [Информация о файле (нажмите для просмотра)] Перевод: Профессиональный (полное дублирование) ЛицензияФормат: MKVВидео кодек: MPEG-4 AVC Аудио кодек: AC3Видео: AVC, 1280x538 (2.40:1) at 24.000 fps, AVC at 3412 kbps avg, 0.206 bit/pixelАудио: 48 kHz, AC3 Dolby Digital, 3/2 (L,C,R,l,r) + LFE ch, 640.00 kbps - RussianСубтитры: Русские, английские 3,44 Gb 74 9 1 февраля 2016 08:27 Падение Олимпа / Olympus Has Fallen (2013) BDRip-AVC от MediaClub | D, A .torrent   [Информация о файле (нажмите для просмотра)] Перевод: Дублированный, авторский одноголосыйКачество: BDRip (AVC)Видео: MPEG-4 AVC, 2000 Кбит/с, 1024x430, 23.976 кадр/сАудио #1: Русский (AC3, 6 ch, 448 Кбит/с) / ДублированныйАудио #2: Русский (AC3, 6 ch, 448 Кбит/с) / Авторский одноголосый (А. Гаврилов)Аудио #3: Английский (AC3, 6 ch, 448 Кбит/с)Субтитры: Английские, русскиеВидео: Идентификатор : 1 Формат : AVC Формат/Информация : Advanced Video Codec Профиль формата : [email protected] Параметр CABAC формата : Да Параметр ReFrames формата : 9 кадров Идентификатор кодека : V_MPEG4/ISO/AVC Продолжительность : 1 ч. 59 м. Битрейт : 2000 Кбит/сек Ширина : 1024 пикселя Высота : 430 пикселей Соотношение сторон : 2,40:1 Режим частоты кадров : Постоянный Частота кадров : 24,000 кадра/сек Цветовое пространство : YUV Субдискретизация насыщенности : 4:2:0 Битовая глубина : 8 бит Тип развёртки : Прогрессивная Бит/(Пиксели*Кадры) : 0.189 Размер потока : 1,61 Гбайт (58%) Заголовок : Падение Олимпа (MediaClub-kaspr) Библиотека кодирования : x264 core 133 r2334 a3ac64b Настройки программы : cabac=1 / ref=9 / deblock=1:-3:-3 / analyse=0x3:0x133 / me=umh / subme=11 / psy=1 / psy_rd=1.00:0.10 / mixed_ref=1 / me_range=32 / chroma_me=1 / trellis=2 / 8x8dct=1 / cqm=0 / deadzone=21,11 / fast_pskip=0 / chroma_qp_offset=-3 / threads=12 / lookahead_threads=3 / sliced_threads=0 / nr=0 / decimate=0 / interlaced=0 / bluray_compat=0 / constrained_intra=0 / bframes=10 / b_pyramid=2 / b_adapt=2 / b_bias=0 / direct=3 / weightb=1 / open_gop=0 / weightp=2 / keyint=240 / keyint_min=22 / scenecut=40 / intra_refresh=0 / rc=2pass / mbtree=0 / bitrate=2000 / ratetol=1.0 / qcomp=0.60 / qpmin=0 / qpmax=69 / qpstep=4 / cplxblur=20.0 / qblur=0.5 / ip_ratio=1.40 / pb_ratio=1.30 / aq=1:1.00 Default : Да Forced : ДаАудио #1: Идентификатор : 2 Формат : AC-3 Формат/Информация : Audio Coding 3 Расширение режима : CM (complete main) Параметр Endianness формата : Big Идентификатор кодека : A_AC3 Продолжительность : 1 ч. 59 м. Вид битрейта : Постоянный Битрейт : 448 Кбит/сек Каналы : 6 каналов Расположение каналов : Front: L C R, Side: L R, LFE Частота : 48,0 КГц Битовая глубина : 16 бит Метод сжатия : С потерями Размер потока : 382 Мбайт (13%) Заголовок : Дубляж (лицензия) Язык : Russian Default : Да Forced : ДаАудио #2: Идентификатор : 3 Формат : AC-3 Формат/Информация : Audio Coding 3 Расширение режима : CM (complete main) Параметр Endianness формата : Big Идентификатор кодека : A_AC3 Продолжительность : 1 ч. 59 м. Вид битрейта : Постоянный Битрейт : 448 Кбит/сек Каналы : 6 каналов Расположение каналов : Front: L C R, Side: L R, LFE Частота : 48,0 КГц Битовая глубина : 16 бит Метод сжатия : С потерями Размер потока : 382 Мбайт (13%) Заголовок : Гаврилов Язык : Russian Default : Нет Forced : НетАудио #3: Идентификатор : 4 Формат : AC-3 Формат/Информация : Audio Coding 3 Расширение режима : CM (complete main) Параметр Endianness формата : Big Идентификатор кодека : A_AC3 Продолжительность : 1 ч. 59 м. Вид битрейта : Постоянный Битрейт : 448 Кбит/сек Каналы : 6 каналов Расположение каналов : Front: L C R, Side: L R, LFE Частота : 48,0 КГц Битовая глубина : 16 бит Метод сжатия : С потерями Размер потока : 382 Мбайт (13%) Заголовок : Оригинал Язык : English Default : Нет Forced : Нет 2,78 Gb 42 5 1 февраля 2016 08:27 Падение Олимпа / Olympus Has Fallen (2013) BDRip 720p от HELLYWOOD .torrent   [Информация о файле (нажмите для просмотра)] Перевод: Профессиональный (полное дублирование) + Оригинальная звуковая дорожкаСубтитры: Русские, АнглийскиеФормат: MKVКачество: BDRip 720p (Исходник: Womanizer0/ Blu-Ray Remux /1080p)Видео: 1280x538 (2.40:1), 24.000 fps, [email protected] ~6162 kbps avg, 0.373 bit/pixelАудио #1: 48 kHz, AC3 Dolby Digital, 3/2 (L,C,R,l,r) + LFE ch, ~640 kbps|DUB|Аудио #2: 48 kHz, AC3 Dolby Digital, 3/2 (L,C,R,l,r) + LFE ch, ~640 kbps|ENG| 6,32 Gb 12 1 1 февраля 2016 08:27 Падение Олимпа / Olympus Has Fallen (2013) BDRip от New Team .torrent   [Информация о файле (нажмите для просмотра)] Перевод: Профессиональный (полное дублирование)Качество: BDRip |SampleКонтейнер: AVIВидео: XviD, 720x304 (2.35:1), 1291 kbps, 23,976 fps, 0,246 bppАудио: AC3 / 5.1 / 48 kHz / 448 kbps / 16 bit 1,46 Gb 358 11 1 февраля 2016 08:27 Падение Олимпа / Olympus Has Fallen (2013) BDRip от HELLYWOOD .torrent   [Информация о файле (нажмите для просмотра)] Перевод: Профессиональный (полное дублирование) + Оригинальная звуковая дорожкаСубтитры: Русские, Английские(*.srt)Формат: AVIКачество: BDRip (Исходник: Womanizer0 /Blu-Ray Remux /1080p)Видео: 720x304 (2.37:1), 24 fps, XviD build 65 ~1719 kbps avg, 0.33 bit/pixelАудио #1: 48 kHz, AC3 Dolby Digital, 3/2 (L,C,R,l,r) + LFE ch, ~448 kbps|DUB|Аудио #2: 48 kHz, AC3 Dolby Digital, 3/2 (L,C,R,l,r) + LFE ch, ~448 kbps|ENG| 2,18 Gb 30 1 1 февраля 2016 08:27 Падение Олимпа / Olympus Has Fallen (2013) BDRip 720p от New Team .torrent   [Информация о файле (нажмите для просмотра)] Перевод: Профессиональный (полное дублирование)Качество: BDRip |SampleКонтейнер: MKVВидео: AVC, 1280x544 (2.35:1), 5500 kbps, 23,976 fps, 0,329 bppАудио: русский / AC3 / 5.1 / 48 kHz / 640 kbps / 16 bit|| 5,11 Gb 15 2 1 февраля 2016 08:27 Падение Олимпа / Olympus Has Fallen (2013) BDRip от HQCLUB | Лицензия .torrent   [Информация о файле (нажмите для просмотра)] Перевод: Профессиональный (полное дублирование) R5 +Оригинальная звуковая дорожкаСубтитры: Русские (voronine), Английские (внешние srt*)Формат: AVIКачество: BDRip (источник / Blu-ray / 1080p)Видео: 720x304 (2.37:1), 24 fps, XviD build 65 ~2163 kbps avg, 0.41 bit/pixelАудио #1: 48 kHz, AC3 Dolby Digital, 3/2 (L,C,R,l,r) + LFE ch, ~448.00 kbps avgАудио #2: 48 kHz, AC3 Dolby Digital, 3/2 (L,C,R,l,r) + LFE ch, ~448.00 kbps avg(отдельно, http) 2,18 Gb 244 8 1 февраля 2016 08:27 Падение Олимпа / Olympus Has Fallen (2013) HDRip от Generalfilm | КПК | D | Лицензия .torrent   [Информация о файле (нажмите для просмотра)] Качество: HDRip | КПКВидео: кодеккодек: x264,формат: mp4,размер кадра: 480х208, битрейт: 350 кб/сАудио: языкрусский, перевод: Дублированный (Лицензия), 408,99 Mb 15 1 1 февраля 2016 08:27 Падение Олимпа / Olympus Has Fallen (2013) HDRip-AVC | D | Лицензия .torrent   [Информация о файле (нажмите для просмотра)] Перевод: Профессиональный (полное дублирование)ЛицензияКодек: H.264Качество: HDRip-AVC -[BDRip 720p]Видео: 800x336 (2.40:1), 24 fps, x264 ~801 kbps avg, 0.124 bit/pixelЗвук: 48.0 KHz / 24.0 KHz, AAC-HE, 2 ch, (L R) ~72 kbps avg 744,9 Mb 20 1 1 февраля 2016 08:27 Падение Олимпа / Olympus Has Fallen (2013) HDRip от Scarabey | Лицензия .torrent   [Информация о файле (нажмите для просмотра)] Перевод: Профессиональный (дублированный) - ЛицензияВидео: 720x304 (2.37:1), 24 fps, XviD build 73 ~1779 kbps avg, 0.34 bit/pixelАудио №1: 48 kHz, AC3 Dolby Digital, 3/2 (L,C,R,l,r) + LFE ch, ~448 kbpsАудио №2: 48 kHz, AC3 Dolby Digital, 3/2 (L,C,R,l,r) + LFE ch, ~448 kbps - оригинал 2,23 Gb 10 2 1 февраля 2016 08:27 Падение Олимпа / Olympus Has Fallen (2013) HDRip от Scarabey | Лицензия .torrent   [Информация о файле (нажмите для просмотра)] Перевод: Профессиональный (дублированный) - ЛицензияВидео: 720x304 (2.37:1), 24 fps, XviD build 73 ~1347 kbps avg, 0.26 bit/pixelАудио: 48 kHz, AC3 Dolby Digital, 3/2 (L,C,R,l,r) + LFE ch, ~448 kbps 1,5 Gb 144 8 1 февраля 2016 08:27 Падение Олимпа / Olympus Has Fallen (2013) HDRip от Scarabey | Лицензия .torrent   [Информация о файле (нажмите для просмотра)] Перевод: Профессиональный (дублированный) - ЛицензияВидео: 688x288 (2.39:1), 24 fps, XviD build 73 ~738 kbps avg, 0.16 bit/pixelАудио: 48 kHz, MPEG Layer 3, 2 ch, ~128.00 kbps avg 746,82 Mb 28 8 1 февраля 2016 08:27 Падение Олимпа / Olympus Has Fallen (2013) DVD5 R5 от New-Team .torrent   [Информация о файле (нажмите для просмотра)] Перевод: Профессиональный (дублированный)Качество: DVD5 R5Формат: DVD VideoВидео: PAL 16x9 (720х576) VBR ~ 4423 kbps, Auto LetterboxedАудио 1: 48 kHz, Dolby AC3, 6 ch, 384 kbps,русскийАудио 2: 48 kHz, Dolby AC3, 2 ch, 192 kbps,русский 4,17 Gb 12 5 1 февраля 2016 08:27 Падение Олимпа / Olympus Has Fallen (2013) BDRip-AVC от potroks | D | Лицензия .torrent   [Информация о файле (нажмите для просмотра)] Перевод: Профессиональный (полное дублирование)Субтитры: Английские, русскиеКачество: BDRip-AVC [Olympus.Has.Fallen.2013.1080p.BluRay.AVC.DTS-HD.MA5.1-nLiBRA [PublicHD]]Формат: MKVВидео: H.264, 1112x468 (2.40:1), 24,000 fps, 2449 Кbps, 0.196 bit/pixelАудио#1: 48 kHz, AC3 Dolby Digital, 3/2 (L,C,R,l,r) + LFE ch, 448.00 kbps |RUSАудио#2: 48 kHz, AC3 Dolby Digital, 3/2 (L,C,R,l,r) + LFE ch, 448.00 kbps |ENGВидео: Идентификатор : 1 Формат : AVC Формат/Информация : Advanced Video Codec Профиль формата : [email protected] Параметр CABAC формата : Да Параметр ReFrames формата : 14 кадров Идентификатор кодека : V_MPEG4/ISO/AVC Продолжительность : 1 ч. 59 м. Битрейт : 2449 Кбит/сек Ширина : 1112 пикселей Высота : 468 пикселей Соотношение сторон : 2,40:1 Режим частоты кадров : Постоянный Частота кадров : 24,000 кадра/сек Цветовое пространство : YUV Субдискретизация насыщенности : 4:2:0 Битовая глубина : 8 бит Тип развёртки : Прогрессивная Бит/(Пиксели*Кадры) : 0.196 Размер потока : 1,98 Гбайт (71%) Заголовок : Olympus Has Fallen Библиотека кодирования : x264 core 125 r2208 d9d2288 Настройки программы : cabac=1 / ref=14 / deblock=1:-3:-2 / analyse=0x3:0x133 / me=umh / subme=11 / psy=1 / psy_rd=1.07:0.02 / mixed_ref=1 / me_range=32 / chroma_me=1 / trellis=2 / 8x8dct=1 / cqm=0 / deadzone=21,11 / fast_pskip=0 / chroma_qp_offset=-3 / threads=9 / lookahead_threads=1 / sliced_threads=0 / nr=0 / decimate=1 / interlaced=0 / bluray_compat=0 / constrained_intra=0 / bframes=15 / b_pyramid=2 / b_adapt=2 / b_bias=0 / direct=3 / weightb=1 / open_gop=0 / weightp=2 / keyint=240 / keyint_min=23 / scenecut=40 / intra_refresh=0 / rc_lookahead=150 / rc=2pass / mbtree=1 / bitrate=2449 / ratetol=1.0 / qcomp=0.70 / qpmin=0 / qpmax=69 / qpstep=4 / cplxblur=20.0 / qblur=0.5 / vbv_maxrate=20000 / vbv_bufsize=25000 / nal_hrd=none / ip_ratio=1.35 / aq=1:0.80 Язык : English Default : Да Forced : НетАудио #1: Идентификатор : 2 Формат : AC-3 Формат/Информация : Audio Coding 3 Расширение режима : CM (complete main) Параметр Endianness формата : Big Идентификатор кодека : A_AC3 Продолжительность : 1 ч. 59 м. Вид битрейта : Постоянный Битрейт : 448 Кбит/сек Каналы : 6 каналов Расположение каналов : Front: L C R, Side: L R, LFE Частота : 48,0 КГц Битовая глубина : 16 бит Метод сжатия : С потерями Размер потока : 382 Мбайт (13%) Заголовок : Dub | DD 5.1 @ 448 kbps Язык : Russian Default : Да Forced : ДаАудио #2: Идентификатор : 3 Формат : AC-3 Формат/Информация : Audio Coding 3 Расширение режима : CM (complete main) Параметр Endianness формата : Big Идентификатор кодека : A_AC3 Продолжительность : 1 ч. 59 м. Вид битрейта : Постоянный Битрейт : 448 Кбит/сек Каналы : 6 каналов Расположение каналов : Front: L C R, Side: L R, LFE Частота : 48,0 КГц Битовая глубина : 16 бит Метод сжатия : С потерями Размер потока : 382 Мбайт (13%) Заголовок : Original | DD 5.1 @ 448 kbps Язык : English Default : Нет Forced : Нет 2,78 Gb 1 3 1 февраля 2016 08:27 Падение Олимпа / Olympus Has Fallen (2013) BDRip 1080p | Лицензия .torrent   [Информация о файле (нажмите для просмотра)] Перевод: Дублированный[Лицензия]Кодек: AVCКачество: BDRip 1080pВидео: 1920x808, 24 fps, 15 MbpsАудио 1: АС3, 48 kHz, 6 ch, 640 Kbps[Russian]Аудио 2: АС3, 48 kHz, 6 ch, 640 Kbps[English]Субтитры: Russian, English 13,84 Gb 8 3 1 февраля 2016 08:27 Падение Олимпа / Olympus Has Fallen (2013) BDRip-AVC от potroks | D | Лицензия .torrent   [Информация о файле (нажмите для просмотра)] Перевод: Профессиональный (полное дублирование)Субтитры: Английские, русскиеКачество: BDRip-AVC [Olympus.Has.Fallen.2013.1080p.BluRay.AVC.DTS-HD.MA5.1-nLiBRA [PublicHD]]Формат: MKVВидео: H.264, 1036x436 (2.40:1), 24,000 fps, 2182 Кbps, 0.201 bit/pixelАудио: 48 kHz, AC3 Dolby Digital, 3/2 (L,C,R,l,r) + LFE ch, 448.00 kbpsВидео: Идентификатор : 1 Формат : AVC Формат/Информация : Advanced Video Codec Профиль формата : [email protected] Параметр CABAC формата : Да Параметр ReFrames формата : 10 кадров Идентификатор кодека : V_MPEG4/ISO/AVC Продолжительность : 1 ч. 59 м. Битрейт : 2182 Кбит/сек Ширина : 1036 пикселей Высота : 436 пикселей Соотношение сторон : 2,40:1 Режим частоты кадров : Постоянный Частота кадров : 24,000 кадра/сек Цветовое пространство : YUV Субдискретизация насыщенности : 4:2:0 Битовая глубина : 8 бит Тип развёртки : Прогрессивная Бит/(Пиксели*Кадры) : 0.201 Размер потока : 1,77 Гбайт (81%) Заголовок : Olympus Has Fallen Библиотека кодирования : x264 core 125 r2208 d9d2288 Настройки программы : cabac=1 / ref=10 / deblock=1:-2:-2 / analyse=0x3:0x133 / me=umh / subme=11 / psy=1 / psy_rd=1.04:0.03 / mixed_ref=1 / me_range=48 / chroma_me=1 / trellis=2 / 8x8dct=1 / cqm=0 / deadzone=21,11 / fast_pskip=0 / chroma_qp_offset=-3 / threads=9 / lookahead_threads=1 / sliced_threads=0 / nr=0 / decimate=1 / interlaced=0 / bluray_compat=0 / constrained_intra=0 / bframes=11 / b_pyramid=2 / b_adapt=2 / b_bias=0 / direct=3 / weightb=1 / open_gop=0 / weightp=2 / keyint=240 / keyint_min=23 / scenecut=40 / intra_refresh=0 / rc_lookahead=150 / rc=2pass / mbtree=1 / bitrate=2182 / ratetol=1.0 / qcomp=0.70 / qpmin=0 / qpmax=69 / qpstep=4 / cplxblur=20.0 / qblur=0.5 / vbv_maxrate=20000 / vbv_bufsize=20000 / nal_hrd=none / ip_ratio=1.35 / aq=1:0.80 Язык : English Default : Да Forced : НетАудио: Идентификатор : 2 Формат : AC-3 Формат/Информация : Audio Coding 3 Расширение режима : CM (complete main) Параметр Endianness формата : Big Идентификатор кодека : A_AC3 Продолжительность : 1 ч. 59 м. Вид битрейта : Постоянный Битрейт : 448 Кбит/сек Каналы : 6 каналов Расположение каналов : Front: L C R, Side: L R, LFE Частота : 48,0 КГц Битовая глубина : 16 бит Метод сжатия : С потерями Размер потока : 382 Мбайт (17%) Заголовок : Dub | DD 5.1 @ 448 kbps Язык : Russian Default : Да Forced : Да 2,19 Gb 4 2 1 февраля 2016 08:27 Падение Олимпа / Olympus Has Fallen (2013) BDRip-AVC от Stalker oK | D | Лицензия .torrent   [Информация о файле (нажмите для просмотра)] Перевод: Профессиональный (полное дублирование) [Лицензия]Качество: ВDRip-AVCФормат: MKVВидео: 1360 Кбит/сек, 1036*436 (2,35:1), в 24,000 кадр/сек, AVCАудио: Russian, 384 Кбит/сек, 48,0 КГц, 16 бит, 6 канала(ов), AC-3Видео: Идентификатор : 1 Формат : AVC Формат/Информация : Advanced Video Codec Профиль формата : [email protected] Параметр CABAC формата : Да Параметр ReFrames формата : 11 кадры Идентификатор кодека : V_MPEG4/ISO/AVC Продолжительность : 1 ч. 59 м. Битрейт : 1360 Кбит/сек Ширина : 1036 пикс. Высота : 436 пикс. Соотношение сторон : 2,35:1 Частота кадров : 24,000 кадр/сек Цветовое пространство : YUV Подвыборка цветности : 4:2:0 Битовая глубина : 8 бит Тип развёртки : Прогрессивная Бит/(Пиксели*Кадры) : 0.125 Размер потока : 1,10 Гбайт (76%) Библиотека кодирования : x264 core 130 r2273 b3065e6 Настройки программы : cabac=1 / ref=11 / deblock=1:-3:-2 / analyse=0x3:0x133 / me=umh / subme=11 / psy=1 / psy_rd=1.00:0.10 / mixed_ref=1 / me_range=32 / chroma_me=1 / trellis=2 / 8x8dct=1 / cqm=0 / deadzone=21,11 / fast_pskip=0 / chroma_qp_offset=-3 / threads=6 / lookahead_threads=1 / sliced_threads=0 / nr=0 / decimate=0 / interlaced=0 / bluray_compat=0 / constrained_intra=0 / bframes=14 / b_pyramid=2 / b_adapt=2 / b_bias=0 / direct=1 / weightb=1 / open_gop=0 / weightp=1 / keyint=240 / keyint_min=24 / scenecut=40 / intra_refresh=0 / rc_lookahead=60 / rc=2pass / mbtree=1 / bitrate=1360 / ratetol=1.0 / qcomp=0.60 / qpmin=0 / qpmax=69 / qpstep=4 / cplxblur=20.0 / qblur=0.5 / vbv_maxrate=50000 / vbv_bufsize=50000 / nal_hrd=none / ip_ratio=1.40 / aq=1:1.00 Язык : EnglishАудио: Идентификатор : 2 Формат : AC-3 Формат/Информация : Audio Coding 3 Расширение режима : CM (complete main) Идентификатор кодека : A_AC3 Продолжительность : 1 ч. 59 м. Вид битрейта : Постоянный Битрейт : 384 Кбит/сек Канал(ы) : 6 канала(ов) Расположение каналов : Front: L C R, Side: L R, LFE Частота : 48,0 КГц Битовая глубина : 16 бит Метод сжатия : С потерями Размер потока : 327 Мбайт (22%) Язык : Russian 1,45 Gb 80 8 1 февраля 2016 08:27 Падение Олимпа / Olympus Has Fallen (2013) BDRip 720p от HQ-ViDEO | Лицензия .torrent   [Информация о файле (нажмите для просмотра)] Перевод: Профессиональный дублированный /Лицензия/Субтитры: Русские, Английские| отключаемые *.srt|Видео: x.264, 1280x538 (2.40:1), ~6421 kbps avg, 24,000 fpsАудио #1: AC3 Dolby Digital, 48 KHz, ~640 kbps, 3/2 (L,C,R,l,r) + LFE ch/RUS/Аудио #2: AC3 Dolby Digital, 48 KHz, ~640 kbps, 3/2 (L,C,R,l,r) + LFE ch/ENG 6,41 Gb 26 4 1 февраля 2016 08:27 Падение Олимпа / Olympus Has Fallen (2013) BDRip от HQ-ViDEO | Лицензия .torrent   [Информация о файле (нажмите для просмотра)] Перевод: Профессиональный дублированный /Лицензия/Субтитры: Русские, АнглийскиеВидео: XviD, 720x304 (2.37:1), ~1711 kbps avg, 24,000 fpsАудио #1: AC3 Dolby Digital, 48 KHz, ~448 kbps, 3/2 (L,C,R,l,r) + LFE ch/RUS/Аудио #2: AC3 Dolby Digital, 48 KHz, ~448 kbps, 3/2 (L,C,R,l,r) + LFE ch/ENG 2,18 Gb 189 4 1 февраля 2016 08:27 Падение Олимпа / Olympus Has Fallen (2013) BDRemux 1080p от New-Team .torrent   [Информация о файле (нажмите для просмотра)] Перевод: Профессиональный (дублированный)Качество: BDRemux 1080pФормат: MKVВидео: 1920x1080, MPEG-4 AVC Video 19858 kbps 1080p / 23,976 fps / 16:9 / High Profile 4.1Аудио: DTS-HD Master Audio Russian 2089 kbps 5.1 / 48 kHz / 2089 kbps / 16-bit (DTS Core: 5.1 / 48 kHz / 1509 kbps / 16-bit) Dolby Digital Audio Russian 192 kbps 2.0 / 48 kHz / 192 kbpsВидео: Идентификатор : 1 Формат : AVC Формат/Информация : Advanced Video Codec Профиль формата : [email protected] Параметр CABAC формата : Да Параметр ReFrames формата : 4 кадра Идентификатор кодека : V_MPEG4/ISO/AVC Продолжительность : 1 ч. 59 м. Вид битрейта : Переменный Максимальный битрейт : 37,0 Мбит/сек Ширина : 1920 пикселей Высота : 1080 пикселей Соотношение сторон : 16:9 Режим частоты кадров : Постоянный Частота кадров : 23,976 кадра/сек Стандарт вещания : NTSC Цветовое пространство : YUV Субдискретизация насыщенности : 4:2:0 Битовая глубина : 8 бит Тип развёртки : Прогрессивная Default : Да Forced : Нет Основные цвета : BT.709 Характеристики трансфера : BT.709 Коэффициенты матрицы : BT.709Аудио #1: Идентификатор : 2 Формат : DTS Формат/Информация : Digital Theater Systems Профиль формата : MA / Core Режим : 16 Параметр Endianness формата : Big Идентификатор кодека : A_DTS Продолжительность : 1 ч. 59 м. Вид битрейта : Переменный Битрейт : Неизвестно / 1509 Кбит/сек Каналы : 6 каналов Расположение каналов : Front: L C R, Side: L R, LFE Частота : 48,0 КГц Битовая глубина : 16 бит Метод сжатия : Без потерь / Lossy Язык : Russian Default : Да Forced : НетАудио #2: Идентификатор : 3 Формат : AC-3 Формат/Информация : Audio Coding 3 Расширение режима : CM (complete main) Параметр Endianness формата : Big Идентификатор кодека : A_AC3 Продолжительность : 1 ч. 59 м. Вид битрейта : Постоянный Битрейт : 192 Кбит/сек Каналы : 2 канала Расположение каналов : Front: L R Частота : 48,0 КГц Битовая глубина : 16 бит Метод сжатия : С потерями Размер потока : 164 Мбайт (1%) Язык : Russian Default : Нет Forced : Нет 18,44 Gb 20 5 1 февраля 2016 08:27 Падение Олимпа / Olympus Has Fallen (2013) Blu-ray 1080p от New-Team и HDCLUB .torrent   [Информация о файле (нажмите для просмотра)] Перевод: Профессиональный (дублированный)Качество: Blu-ray 1080pФормат: BDAVВидео: 1920x1080, MPEG-4 AVC Video 19858 kbps 1080p / 23,976 fps / 16:9 / High Profile 4.1Аудио: DTS-HD Master Audio Russian 2089 kbps 5.1 / 48 kHz / 2089 kbps / 16-bit (DTS Core: 5.1 / 48 kHz / 1509 kbps / 16-bit) Dolby TrueHD Audio Russian 1741 kbps 5.1 / 48 kHz / 1741 kbps / 16-bit (AC3 Embedded: 5.1 / 48 kHz / 448 kbps) Dolby Digital Audio Russian 192 kbps 2.0 / 48 kHz / 192 kbps 22,64 Gb 10 3

    gig-torrent.net

    Скачать фильм Падение Олимпа через торрент в хорошем качестве бесплатно 1080p

    ОбщееУникальный идентификатор : 211989688557308257148452991638513690184 (0x9F7BBA99CE2FCE479DB034C88444A648)Полное имя : D:\РЕМУКС. НР\Падение Олимпа. BDRemux..mkvФормат : MatroskaВерсия формата : Version 2Размер файла : 33,4 ГбайтПродолжительность : 1 ч. 59 м.Режим общего битрейта : ПеременныйОбщий поток : 40,1 Мбит/секНазвание фильма : GORESEWAGEДата кодирования : UTC 2015-06-22 09:01:39Программа кодирования : mkvmerge v5.0.1 ('Es ist Sommer') built on Oct 9 2011 11:55:43Библиотека кодирования : libebml v1.2.2 + libmatroska v1.3.0

    ВидеоИдентификатор : 1Формат : AVCФормат/Информация : Advanced Video CodecПрофиль формата : [email protected]Параметр CABAC формата : ДаПараметр ReFrames формата : 4 кадраИдентификатор кодека : V_MPEG4/ISO/AVCПродолжительность : 1 ч. 59 м.Вид битрейта : ПеременныйМаксимальный битрейт : 35,0 Мбит/секШирина : 1920 пикселейВысота : 1080 пикселейСоотношение сторон : 16:9Режим частоты кадров : ПостоянныйЧастота кадров : 24,000 кадра/секСтандарт вещания : NTSCЦветовое пространство : YUVСубдискретизация насыщенности : 4:2:0Битовая глубина : 8 битТип развёртки : ПрогрессивнаяЯзык : EnglishDefault : ДаForced : НетОсновные цвета : BT.709Характеристики трансфера : BT.709Коэффициенты матрицы : BT.709

    Аудио #1Идентификатор : 2Формат : DTSФормат/Информация : Digital Theater SystemsПрофиль формата : MA / CoreРежим : 16Параметр Endianness формата : BigИдентификатор кодека : A_DTSПродолжительность : 1 ч. 59 м.Вид битрейта : ПеременныйБитрейт : Неизвестно / 1509 Кбит/секКаналы : 6 каналовРасположение каналов : Front: L C R, Side: L R, LFEЧастота : 48,0 КГцБитовая глубина : 16 битМетод сжатия : Без потерь / LossyЗаголовок : DTS-HD M A / 2089 kbps - ДубляжЯзык : RussianDefault : ДаForced : Нет

    Аудио #2Идентификатор : 3Формат : DTSФормат/Информация : Digital Theater SystemsПрофиль формата : MA / CoreРежим : 16Параметр Endianness формата : BigИдентификатор кодека : A_DTSПродолжительность : 1 ч. 59 м.Вид битрейта : ПеременныйБитрейт : Неизвестно / 1509 Кбит/секКаналы : 6 каналовРасположение каналов : Front: L C R, Side: L R, LFEЧастота : 48,0 КГцБитовая глубина : 24 битМетод сжатия : Без потерь / LossyЗаголовок : DTS-HD M A/ 3850 kbps - ОригиналЯзык : EnglishDefault : НетForced : Нет

    Аудио #3Идентификатор : 4Формат : DTSФормат/Информация : Digital Theater SystemsРежим : 16Параметр Endianness формата : BigИдентификатор кодека : A_DTSПродолжительность : 1 ч. 59 м.Вид битрейта : ПостоянныйБитрейт : 1509 Кбит/секКаналы : 6 каналовРасположение каналов : Front: L C R, Side: L R, LFEЧастота : 48,0 КГцБитовая глубина : 24 битМетод сжатия : С потерямиРазмер потока : 1,26 Гбайт (4%)Заголовок : DTS / 1536 kbps - ГавриловЯзык : RussianDefault : НетForced : Нет

    Аудио #4Идентификатор : 5Формат : AC-3Формат/Информация : Audio Coding 3Расширение режима : CM (complete main)Параметр Endianness формата : BigИдентификатор кодека : A_AC3Продолжительность : 1 ч. 59 м.Вид битрейта : ПостоянныйБитрейт : 640 Кбит/секКаналы : 6 каналовРасположение каналов : Front: L C R, Side: L R, LFEЧастота : 48,0 КГцБитовая глубина : 16 битМетод сжатия : С потерямиРазмер потока : 545 Мбайт (2%)Заголовок : АСЗ 640 -АП ГавриловЯзык : RussianDefault : НетForced : Нет

    Текст #1Идентификатор : 6Формат : UTF-8Идентификатор кодека : S_TEXT/UTF8Идентификатор кодека/Информация : UTF-8 Plain TextЗаголовок : Full VoronineЯзык : RussianDefault : НетForced : Нет

    Текст #2Идентификатор : 7Формат : UTF-8Идентификатор кодека : S_TEXT/UTF8Идентификатор кодека/Информация : UTF-8 Plain TextЗаголовок : FullЯзык : EnglishDefault : НетForced : Нет

    Меню00:00:00.000 : en:00:00:00.00000:09:19.542 : en:00:09:19.54200:17:49.750 : en:00:17:49.75000:27:52.417 : en:00:27:52.41700:38:11.708 : en:00:38:11.70800:46:51.833 : en:00:46:51.83300:57:37.000 : en:00:57:37.00001:07:31.708 : en:01:07:31.70801:19:48.875 : en:01:19:48.87501:28:46.208 : en:01:28:46.20801:38:14.125 : en:01:38:14.12501:50:14.625 : en:01:50:14.625

    piratbit.ru

    Скачать фильм Падение Олимпа через торрент в хорошем качестве бесплатно 2013

    Размер: 30.2 GB | Добавлен: 4 года 3 мес. назад | Торрент скачан:417 раз
    Реклама Дарим 3000 рублей за регистрацию, не упусти свой шанс получить шикарный бонус!!!

    30-06-2013 14:33 Падение Олимпа Скачать торрент  

    Падение Олимпа / Olympus Has Fallen
  • Год выпуска
  • :2013
  • Страна: США
  • Жанр:боевик, триллер
  • Продолжительность: 01:59:09
  • Перевод:Профессиональный (полное дублирование)
  • Субтитры: Английский (*.pgs) [Вшитые отключаемые]
    • Режиссер
    • : Антуан Фукуа / Antoine Fuqua
    • Продюсер: Дэнни Лернер / Danny Lerner, Алан Сигел / Alan Siegel, Джерард Батлер / Gerard Butler, Эд Кэйтелл III / Ed Cathell III, Антуан Фукуа / Antoine Fuqua
    • Сценарий:Крейгтон Ротенбергер / Creighton Rothenberger, Кэтрин Бенедикт / Katrin Benedikt
  • В ролях
  • :Джерард Батлер (Mike Banning), Аарон Экхарт (President Benjamin Asher), Морган Фриман (Speaker Trumbull), Рик Юн (Kang), Финли Якобсен (Connor), Анджела Бассетт (Secret Service Director Lynn Jacobs), Рада Митчелл (Leah), Роберт Форстер (General Edward Clegg), Дилан МакДермотт (Forbes), Эшли Джадд (Margaret Asher), Мелисса Лео (Secretary of Defense Ruth McMillan), Коул Хаузер (Roma)
    • Описание
    • :Когда на Белый Дом нападают террористы, а президента берут в заложники, дискредитированный бывший охранник главы государства Майк Бэннинг оказывается внутри захваченного здания. И теперь он единственный, кто сможет спасти президента...
  • Рейтингkinopoisk.ru: 6.642 (7079)imdb.com: 6.80 (35 693)MPAA: R - Лицам до 17 лет обязательно присутствие взрослого
    • Качество
    • : BD Remux
    • Формат
    : MKV
  • Видео кодек
  • : AVC
  • Аудио кодек
  • : DTS-AC3
  • Видео: AVC, 1920x1080 (16:9), 32496 kbps, 24 fps, 0,653 bpp
  • Аудио №1: русский / AC3 / 5.1 / 48 kHz / 384 kbps / 16 bit || Аудио №2: английский / DTS-HD / 5.1 / 48 kHz / 2682 kbps / 24 bit (Core: 5.1 / 48 kHz / 1510 kbps / 24 bit)GeneralUnique ID : 234730373173349153887951407824501071517 (0xB0976CEAA15BBA4A9405A6ABB605DE9D)Complete name : D:ТорентыПадение.Олимпа-Olympus.Has.Fallen.(2013).BDRemux.[1080p].nnm-club.ru.mkvFormat : MatroskaFormat version : Version 2File size : 30.2 GiBDuration : 1h 59mnOverall bit rate mode : VariableOverall bit rate : 36.3 MbpsMovie name : Lelya_K for NNM-Club.ruEncoded date : UTC 2013-06-29 09:50:15Writing application : mkvmerge v5.7.0 ('The Whirlwind') built on Aug 7 2012 14:11:40Writing library : libebml v1.2.3 + libmatroska v1.3.0

    VideoID : 1Format : AVCFormat/Info : Advanced Video CodecFormat profile : [email protected] settings, CABAC : YesFormat settings, ReFrames : 4 framesCodec ID : V_MPEG4/ISO/AVCDuration : 1h 59mnBit rate mode : VariableBit rate : 32.5 MbpsMaximum bit rate : 35.0 MbpsWidth : 1 920 pixelsHeight : 1 080 pixelsDisplay aspect ratio : 16:9Frame rate : 24.000 fpsStandard : NTSCColor space : YUVChroma subsampling : 4:2:0Bit depth : 8 bitsScan type : ProgressiveBits/(Pixel*Frame) : 0.653Stream size : 27.0 GiB (90%)Title : Падение.Олимпа-Olympus.Has.Fallen.(2013).BDRemux.[1080p]Language : EnglishDefault : YesForced : NoColor primaries : BT.709-5, BT.1361, IEC 61966-2-4, SMPTE RP177Transfer characteristics : BT.709-5, BT.1361Matrix coefficients : BT.709-5, BT.1361, IEC 61966-2-4 709, SMPTE RP177

    Audio #1ID : 2Format : AC-3Format/Info : Audio Coding 3Mode extension : CM (complete main)Codec ID : A_AC3Duration : 1h 59mnBit rate mode : ConstantBit rate : 384 KbpsChannel(s) : 6 channelsChannel positions : Front: L C R, Side: L R, LFESampling rate : 48.0 KHzBit depth : 16 bitsCompression mode : LossyStream size : 327 MiB (1%)Title : AC3 5.1 / 384 kbpsLanguage : RussianDefault : YesForced : No

    Audio #2ID : 3Format : DTSFormat/Info : Digital Theater SystemsFormat profile : MA / CoreCodec ID : A_DTSDuration : 1h 59mnBit rate mode : VariableBit rate : 2 683 Kbps / 1 510 KbpsChannel(s) : 6 channelsChannel positions : Front: L C R, Side: L R, LFESampling rate : 48.0 KHzBit depth : 24 bitsCompression mode : Lossless / LossyTitle : DTS-HD MA 5.1 / 3850 kbpsLanguage : EnglishDefault : NoForced : No

    TextID : 4Format : PGSCodec ID : S_HDMV/PGSCodec ID/Info : The same subtitle format used on BDs/HD-DVDsLanguage : EnglishDefault : NoForced : No

    Menu00:00:00.000 : en:Chapter 100:09:19.541 : en:Chapter 200:17:49.750 : en:Chapter 300:27:52.416 : en:Chapter 400:38:11.708 : en:Chapter 500:46:51.833 : en:Chapter 600:57:37.000 : en:Chapter 701:07:31.708 : en:Chapter 801:19:48.875 : en:Chapter 901:28:46.208 : en:Chapter 1001:38:14.125 : en:Chapter 1101:50:14.625 : en:Chapter 12

    • Выбор Северной Кореи в качестве злодея в этом фильме стал некоторого рода провидением. В 2013 году появилась некая напряженность в отношениях между КНДР и США. Для сценария этот выбор был сделан годами ранее. Режиссер Антуан Фукуа сказал в интервью, что не хотел, чтобы злодеями были люди с Ближнего Востока, потому что это уже избитая тема. И Северная Корея была интересна ему, потому что эта страна полностью закрыта от внешнего мира и создает такое впечатление, как будто никто не может предположить, что они хотят или на что способны.
    • Это четвертый фильм, в котором Морган Фриман и Эшли Джадд снялись вместе, но это первый раз, когда их персонажи не появляются вместе на экране. Первыми тремя их совместными фильмами были «Целуя девушек» (1997), «Особо тяжкие преступления» (2002) и «История дельфина» (2011).
    • Изначально в роли первой леди студия хотела видеть Вайнону Райдер.
    • Во время съемок сцен в Белом доме в Луизиане было настолько жарко, что представитель общества защиты животных настоял на том, чтобы немецких овчарок, которых снимали в качестве сторожевых псов К-9, помещали в вагон с кондиционированием воздуха в промежутках между дублями.
    • Морган Фриман снимался в сцене в комнате кризисных ситуаций в самый разгар интернет-слуха о его смерти. Он часто начинал съемочный день, напевая остальным актерам старые джаз-песни, и этим умилял ничего не подозревающую съемочную группу.
    • Джерард Батлер однажды уже рассматривался на роль агента ЦРУ, Митча Раппа, в так и не вышедшей экранизации романа Финса Флинна (Vince Flynn) «Согласие на убийство» (Consent to Kill). Первый роман, в котором появляется персонаж Митч Рапп, - это Transfer of Power, сюжет которого чрезвычайно похож на сюжет фильма «Падение Олимпа» (2013). В нем террористы захватывают контроль над Белым домом, и Рапп должен добраться до президента, укрывающегося в бункере, раньше террористов.
    • Роль начальника Секретной службы первоначально писалась под мужчину. Затем режиссер Антуан Фукуа убедил Анджелу Бассетт пройти прослушивание, после чего роль переписали под женщину.
    • Это второй раз, когда Дилан МакДермотт сыграл агента Секретной службы. Аналогичную роль он исполнил в фильме «На линии огня» (1993).
    • еще 5 фактов
    • Когда Майк и Кан говорят друг с другом через веб-камеру, со стороны Кана видно, что Майк смотрит прямо на экран, но со стороны Майка заметно, что его голова повернута так, чтобы смотреть прямо в камеру.
    • Слишком невероятным выглядит тот факт, что, после того как Майк 18 месяцев не был в Белом доме, все коды блокировки остались такими же, какими он их помнит.
    • В фильме есть несколько моментов, когда в новостях неправильно отображается название Белого дома: Whitehouse вместо White House.
    • После того как Майк Беннинг выходит из кафе с начальником Секретной службы Линн Якобс, он выглядит чисто побритым, затем он звонит жене (все еще побритый), но на его звонок никто не отвечает. Тогда он оставляет сообщение, и в этом моменте очевидно, что он уже выглядит небритым.
    • В начале фильма, после того как лимузин с первой леди в нем падает в реку с моста, он разбивается о замерзшую поверхность реки и не тонет. Спустя секунду, когда камера меняет ракурс, видно лишь отверстие во льду, а самого лимузина нет.
    • Белый дом на самом деле не такого ярко-белого цвета, как показано в фильме. А лужайка гораздо длиннее.
    • После того как оружие было уничтожено, в новостях не было видно дыма над зданием. А в более поздней сцене заметно, что он прямо валит из него.
    • еще 4 ошибки
    Сценарий: Крейгтон Ротенбергер / Creighton Rothenberger, Кэтрин Бенедикт / Katrin BenediktПродюсер: Дэнни Лернер / Danny Lerner, Алан Сигел / Alan Siegel, Джерард Батлер / Gerard Butler, Эд Кэйтелл III / Ed Cathell III, Антуан Фукуа / Antoine FuquaОператор: Конрад У. Холл / Conrad W. HallКомпозитор: Тревор Моррис / Trevor Morris

    Бюджет: $70 000 000Сборы в США: $98 667 852Сборы в России: $4 908 002Сборы в мире: $160 767 852

    Мировая премьера: 20 марта 2013Релиз на DVD: 30 июля 2013, «Парадиз / Активижен»Релиз на Blu-ray: 30 июля 2013, «Парадиз / Активижен»

  • © Оформление by Vetal Скачать Падение Олимпа через торрент http://i3.imageban.ru/out/2013/06/30/2881c111c33a7a8255bc000b3fa25cdd.jpg Скачать фильм Падение Олимпа через торрент бесплантно в хорошем качестве Описание:Когда на Белый Дом нападают террористы, а президента берут в заложники, дискредитированный бывший охранник главы государства Майк ... 2013-06-30 14:33 9.9 10 18

    Loading...

    Loading...

    Последний раз редактировалось: Ворон (2013-08-12 16:57), всего редактировалось 1 раз

    Рекламный пират

    01-07-2013 09:21 Падение Олимпа Скачать торрент  

    просто супер фильм!!!!!!

    01-07-2013 17:59 Падение Олимпа Скачать торрент  

    у меня выдает ошибку невозможно загрузить торрент неверно закодирован, что за?

    01-07-2013 18:04 Падение Олимпа Скачать торрент  

    а все ок, поехало

    01-07-2013 19:32 Падение Олимпа Скачать торрент  

    ну не жадничайте скорости :jest3: :jest3:

    01-07-2013 19:39 Падение Олимпа Скачать торрент  

    Vetаl писал(а):

    Раздают: 38 [ 25 MB/s ] Качают: 42 [ 30 KB/s ]

    03-07-2013 13:44 Падение Олимпа Скачать торрент  

    10-03-2015 20:48 Падение Олимпа Скачать торрент  

    25-10-2017 15:42 Падение Олимпа Скачать торрент  

    Pекламный агент PB

    Дорогой пользователь! Огромная просьба, поблагодарите релизера, оцените раздачу и оставьте свои комментарий, если Вы скачали Падение Олимпа через торрент бесплатно! Внесите свою лепту в развитие PiratBit!

    Комментировать посты могут только пользователи прошедшие не сложную регистрацию

    Падение Олимпа через торрент Скачать бесплатно Падение Олимпа Падение Олимпа скачать торрент Падение Олимпа смотреть онлайн Cкачать фильм Падение Олимпа бесплатно Падение Олимпа скачать торрент в хорошем качестве Падение Олимпа смотреть онлайн бесплатно в хорошем качестве

    Вы можете начинать темыВы можете отвечать на сообщенияВы не можете редактировать свои сообщенияВы не можете удалять свои сообщенияВы не можете голосовать в опросахВы не можете прикреплять файлы к сообщениямВы можете скачивать файлы

    piratbit.ru


    Смотрите также