Открытие скачать торрент в хорошем качестве


Скачать торрент Открытие / The Discovery (2017) WEBRip 720p

krutor.org

Информация о фильмеНазвание: ОткрытиеОригинальное название: The DiscoveryГод выхода: 2017 Жанр: фантастика, триллер, драма, мелодрама, детективРежиссер: Чарли МакДауэлл В ролях: Джейсон Сигел, Руни Мара, Роберт Редфорд, Мэри Стинберген, Брайан МакКарти, Джесси Племонс, Рон Кэнада, Райли Кио, Коннор Рэтлифф, М.Дж. Карми

О фильме: Учёный Томас Харпер совершил открытие — научно доказал, что смертью жизнь не заканчивается, что после смерти есть что-то ещё. Миллионы людей на Земле стали совершать самоубийства, полагая, что таким образом смогут попасть в лучшее место.

Страна: США / Endgame Entertainment, Netflix, Protagonist PicturesПродолжительность: 01:42:01 Перевод: Профессиональный (многоголосый, закадровый) [NewStudio ]

ФайлКачество: WEBRip 720pФормат: MKVВидео: AVC MPEG-4, 2990 kbps, 1280x534Звук: Русский: AC3, 384 kbps (6 ch), Английский: AC3, 384 kbps (6 ch)Субтитры: нет

MediaInfo:

Формат : Matroska Версия формата : Version 2 Размер файла : 2,73 Гбайт Продолжительность : 1 ч. 42 м. Общий поток : 3458 Кбит/сек Дата кодирования : UTC 2017 -04-02 22:24:06 Программа кодирования : mkvmerge v5.8.0 ('No Sleep / Pillow') built on Sep 2 2012 15:37:04 Библиотека кодирования : libebml v1.2.3 + libmatroska v1.3.0

Видео Идентификатор : 1 Формат : AVC Формат/Информация : Advanced Video Codec Профиль формата : [email protected] Параметр CABAC формата : Да Параметр ReFrames формата : 4 кадра Идентификатор кодека : V_MPEG4/ISO/AVC Продолжительность : 1 ч. 42 м. Битрейт : 2990 Кбит/сек Ширина : 1280 пикселей Высота : 534 пикселей Соотношение сторон : 2,40:1 Режим частоты кадров : Постоянный Частота кадров : 23,976 кадра/сек Цветовое пространство : YUV Субдискретизация насыщенности : 4:2:0 Битовая глубина : 8 бит Тип развёртки : Прогрессивная Бит/(Пиксели*Кадры) : 0.157 Размер потока : 2,18 Гбайт (80%) Библиотека кодирования : x264 core 148 r2744kMod b97ae06 Настройки программы : cabac=1 / ref=4 / deblock=1:-3:-3 / analyse=0x3:0x133 / me=umh / subme=10 / psy=1 / fade_compensate=0.00 / psy_rd=0.65:0.00 / mixed_ref=1 / me_range=24 / chroma_me=1 / trellis=2 / 8x8dct=1 / cqm=0 / deadzone=21,11 / fast_pskip=0 / chroma_qp_offset=-2 / threads=6 / lookahead_threads=1 / sliced_threads=0 / nr=0 / decimate=0 / interlaced=0 / bluray_compat=0 / constrained_intra=0 / bframes=8 / b_pyramid=2 / b_adapt=2 / b_bias=0 / direct=3 / weightb=1 / open_gop=0 / weightp=2 / keyint=250 / keyint_min=23 / scenecut=40 / intra_refresh=0 / rc=crf / mbtree=0 / crf=17.0000 / qcomp=0.65 / qpmin=0 / qpmax=69 / qpstep=4 / ip_ratio=1.30 / pb_ratio=1.20 / aq=3:1.00 Язык : English Default : Да Forced : Нет

Аудио #1 Идентификатор : 2 Формат : AC-3 Формат/Информация : Audio Coding 3 Расширение режима : CM (complete main) Параметр Endianness формата : Big Идентификатор кодека : A_AC3 Продолжительность : 1 ч. 42 м. Вид битрейта : Постоянный Битрейт : 384 Кбит/сек Каналы : 6 каналов Расположение каналов : Front: L C R, Side: L R, LFE Частота : 48,0 КГц Частота кадров : 31,250 кадров/сек (1536 spf) Метод сжатия : С потерями Размер потока : 281 Мбайт (10%) Язык : Russian Default : Да Forced : Нет

Аудио #2 Идентификатор : 3 Формат : AC-3 Формат/Информация : Audio Coding 3 Расширение режима : CM (complete main) Параметр Endianness формата : Big Идентификатор кодека : A_AC3 Продолжительность : 1 ч. 42 м. Вид битрейта : Постоянный Битрейт : 384 Кбит/сек Каналы : 6 каналов Расположение каналов : Front: L C R, Side: L R, LFE Частота : 48,0 КГц Частота кадров : 31,250 кадров/сек (1536 spf) Метод сжатия : С потерями Размер потока : 281 Мбайт (10%) Язык : English Default : Нет Forced : Нет

Скачать фильм Открытие через торрент в хорошем качестве бесплатно WEBRip

piratbit.ru

Раздают: 10 [ 0 KB/s ]
Размер: 1.19 GB | Добавлен: 6 мес. назад | Торрент скачан:1055 раз
Реклама Дарим 3000 рублей за регистрацию, не упусти свой шанс получить шикарный бонус!!!

23-04-2017 15:11 Открытие Скачать торрент  

Открытие / The Discovery Год выхода: 2017Жанр: Фантастика, триллер, драма, мелодрама, детективСтрана: СШАСтудия: Endgame Entertainment, Netflix, Protagonist PicturesПродолжительность: 01:42:07Перевод: Профессиональный (многоголосый, закадровый) [AlexFilm]

Режиссер: Чарли МакДауэлл

В ролях: Джейсон Сигел, Руни Мара, Роберт Редфорд, Мэри Стинберген, Брайан МакКарти, Джесси Племонс, Рон Кэнада, Райли Кио, Коннор Рэтлифф, М.Дж. Карми

О фильме: Учёный Томас Харпер совершил открытие — научно доказал, что смертью жизнь не заканчивается, что после смерти есть что-то ещё. Миллионы людей на Земле стали совершать самоубийства, полагая, что таким образом смогут попасть в лучшее место.Релиз от:

Перевод: Наталия МосковскихМонтаж и сведение звука: Михаил СусловОзвучание:Маргарита КоршЕкатерина МуравицкаяКирилл ПатриноСтанислав ЧерсковМихаил Суслов

Качество: WEBRipФормат: AVIВидео: 720x296 (2.43:1), 23.976 fps, XviD MPEG-4 ~1402 kbps avg, 0.27 bit/pixelЗвук: 48 kHz, MPEG Layer 3, 2 ch, ~128.00 kbps avg [AlexFilm]Звук: 48 kHz, MPEG Layer 3, 2 ch, ~128.00 kbps avg [Eng]Субтитры: Отсутствуют

Скачать Открытие через торрент http://i89.fastpic.ru/big/2017/0423/8a/84f3e9b2318e6653588f2d68707a4b8a.jpg Скачать фильм Открытие через торрент бесплантно в хорошем качестве О фильме: Учёный Томас Харпер совершил открытие — научно доказал, что смертью жизнь не заканчивается, что после смерти есть что-то ещё. ... 2017-04-23 15:11 9.4 10 14

Loading...

Loading...

% Раздел Тема Автор DL S | L
T Фильмы 2017 [DVDrip, WEB-DLRip, HDrip] (DUB, MVO) [ 1.34 GB ] Открытие / The Discovery [2017 WEBRip] MVO [NewStudio] bober100 Скачать
T Фильмы (WEB-DL 720p, 1080p) [ 4.42 GB ] Открытие / The Discovery [2017 WEBRip 1080p] MVO [NewStudio] SEVMASH Скачать
T Фильмы 2017 [DVDrip, WEB-DLRip, HDrip] (DUB, MVO) [ 2.73 GB ] Открытие / The Discovery [2017 WEBRip 720p] MVO [NewStudio] bober100 Скачать
T Фильмы 2017 [DVDrip, WEB-DLRip, HDrip] (DUB, MVO) [ 1.37 GB ] Открытие / The Discovery [2017 WEBRip Любительский ] [Синема УС] oleg8 Скачать

Рекламный пират

23-04-2017 18:28 Открытие Скачать торрент  

Фильм нормуль, глянуть можно. Концовка огонь.

Дорогой пользователь! Огромная просьба, поблагодарите релизера, оцените раздачу и оставьте свои комментарий, если Вы скачали Открытие через торрент бесплатно! Внесите свою лепту в развитие PiratBit!

Комментировать посты могут только пользователи прошедшие не сложную регистрацию

Открытие через торрент Скачать бесплатно Открытие Открытие скачать торрент Открытие смотреть онлайн Cкачать фильм Открытие бесплатно Открытие скачать торрент в хорошем качестве Открытие смотреть онлайн бесплатно в хорошем качестве

Вы не можете начинать темыВы не можете отвечать на сообщенияВы не можете редактировать свои сообщенияВы не можете удалять свои сообщенияВы не можете голосовать в опросахВы не можете прикреплять файлы к сообщениямВы можете скачивать файлы

Скачать фильм Открытие через торрент в хорошем качестве бесплатно 1080p

GeneralUnique ID : 232915024061998496571135791201412539099 (0xAF39CD4B89B718B69C52ED8F73DD62DB)Complete name : The.Discovery.HD1080p.NewStudio.(qqss44).mkvFormat : MatroskaFormat version : Version 2File size : 4.42 GiBDuration : 1 h 42 minOverall bit rate : 6 175 kb/sEncoded date : UTC 2017-04-02 19:44:58Writing application : mkvmerge v5.8.0 ('No Sleep / Pillow') built on Sep 2 2012 15:37:04Writing library : libebml v1.2.3 + libmatroska v1.3.0

VideoID : 1Format : AVCFormat/Info : Advanced Video CodecFormat profile : [email protected] settings, CABAC : YesFormat settings, ReFrames : 4 framesCodec ID : V_MPEG4/ISO/AVCDuration : 1 h 42 minBit rate : 5 284 kb/sWidth : 1 920 pixelsHeight : 800 pixelsDisplay aspect ratio : 2.40:1Frame rate mode : ConstantFrame rate : 23.976 FPSColor space : YUVChroma subsampling : 4:2:0Bit depth : 8 bitsScan type : ProgressiveBits/(Pixel*Frame) : 0.143Stream size : 3.78 GiB (86%)Writing library : x264 core 148 r2744kMod b97ae06Encoding settings : cabac=1 / ref=4 / deblock=1:-3:-3 / analyse=0x3:0x133 / me=umh / subme=11 / psy=1 / fade_compensate=0.00 / psy_rd=0.65:0.00 / mixed_ref=1 / me_range=32 / chroma_me=1 / trellis=2 / 8x8dct=1 / cqm=0 / deadzone=21,11 / fast_pskip=0 / chroma_qp_offset=-2 / threads=6 / lookahead_threads=1 / sliced_threads=0 / nr=0 / decimate=0 / interlaced=0 / bluray_compat=0 / constrained_intra=0 / bframes=8 / b_pyramid=2 / b_adapt=2 / b_bias=0 / direct=3 / weightb=1 / open_gop=0 / weightp=2 / keyint=250 / keyint_min=23 / scenecut=40 / intra_refresh=0 / rc=crf / mbtree=0 / crf=17.0000 / qcomp=0.65 / qpmin=0 / qpmax=69 / qpstep=4 / ip_ratio=1.30 / pb_ratio=1.20 / aq=3:1.00Language : EnglishDefault : YesForced : No

Audio #1ID : 2Format : AC-3Format/Info : Audio Coding 3Mode extension : CM (complete main)Format settings, Endianness : BigCodec ID : A_AC3Duration : 1 h 42 minBit rate mode : ConstantBit rate : 384 kb/sChannel(s) : 6 channelsChannel positions : Front: L C R, Side: L R, LFESampling rate : 48.0 kHzFrame rate : 31.250 FPS (1536 spf)Compression mode : LossyStream size : 281 MiB (6%)Language : RussianDefault : YesForced : No

Audio #2ID : 3Format : AC-3Format/Info : Audio Coding 3Mode extension : CM (complete main)Format settings, Endianness : BigCodec ID : A_AC3Duration : 1 h 42 minBit rate mode : ConstantBit rate : 384 kb/sChannel(s) : 6 channelsChannel positions : Front: L C R, Side: L R, LFESampling rate : 48.0 kHzFrame rate : 31.250 FPS (1536 spf)Compression mode : LossyStream size : 281 MiB (6%)Language : EnglishDefault : NoForced : No

piratbit.ru

Скачать торрент Открытие / The Discovery (2017) WEBRip от Portablius

Информация о фильмеНазвание: ОткрытиеОригинальное название: The DiscoveryГод выхода: 2017Жанр: фантастика, триллер, драма, мелодрама, детективРежиссер: Чарли МакДауэллВ ролях: Джейсон Сигел, Руни Мара, Роберт Редфорд, Мэри Стинберген, Брайан МакКарти, Джесси Племонс, Рон Кэнада, Райли Кио, Коннор Рэтлифф, М.Дж. Карми

О фильме: Учёный Томас Харпер совершил открытие — научно доказал, что смертью жизнь не заканчивается, что после смерти есть что-то ещё. Миллионы людей на Земле стали совершать самоубийства, полагая, что таким образом смогут попасть в лучшее место.

Страна: СШАСтудия: Endgame Entertainment, Netflix, Protagonist PicturesПродолжительность: 01:42:01Перевод: Профессиональный (многоголосый, закадровый) [NewStudio]Субтитры: Нет

ПРИСУТСТВУЕТ НЕНОРМАТИВНАЯ ЛЕКСИКА!

Семпл

ФайлКодек: XviDКачество: WEBRipВидео: 688x288 (2.39:1), 23.976 fps, XviD build 73 ~756 kbps avg, 0.16 bit/pixelЗвук: 48 kHz, MPEG Layer 3, 2 ch, ~192.00 kbps avg

MediaInfo

Общее Полное имя : The.Discovery.2017.WEBRip.ot.Portablius.avi Формат : AVI Формат/Информация : Audio Video Interleave Размер файла : 700 Мбайт Продолжительность : 1 ч. 42 м. Общий поток : 958 Кбит/сек Программа кодирования : VirtualDubMod 1.5.10.3 | www.virtualdub-fr.org || (build 2550/release) Библиотека кодирования : VirtualDubMod build 2550/release

Видео Идентификатор : 0 Формат : MPEG-4 Visual Профиль формата : Advanced [email protected] Параметр BVOP формата : 1 Параметр QPel формата : Нет Параметр GMC формата : Без точки перехода Параметр матрицы формата : Выборочная Идентификатор кодека : XVID Идентификатор кодека/Подсказка : XviD Продолжительность : 1 ч. 42 м. Битрейт : 757 Кбит/сек Ширина : 688 пикселей Высота : 288 пикселей Соотношение сторон : 2,40:1 Частота кадров : 23,976 (24000/1001) кадра/сек Частота кадров в оригинале : 23,976 (23976/1000) кадра/сек Цветовое пространство : YUV Субдискретизация насыщенности : 4:2:0 Битовая глубина : 8 бит Тип развёртки : Прогрессивная Метод сжатия : С потерями Бит/(Пиксели*Кадры) : 0.159 Размер потока : 553 Мбайт (79%) Библиотека кодирования : XviD 73

Аудио Идентификатор : 1 Формат : MPEG Audio Версия формата : Version 1 Профиль формата : Layer 3 Идентификатор кодека : 55 Идентификатор кодека/Подсказка : MP3 Продолжительность : 1 ч. 42 м. Вид битрейта : Постоянный Битрейт : 192 Кбит/сек Каналы : 2 канала Частота : 48,0 КГц Метод сжатия : С потерями Размер потока : 140 Мбайт (20%) Выравнивание : Соединение по промежуткам Продолжительность промежутка : 42 мс. (1,00 видеокадр) Время предзагрузки промежутка : 504 мс. Библиотека кодирования : LAME3.99r Настройки программы : -m s -V 4 -q 2 -lowpass 18.6 -b 192

mrutor.org

Скачать фильм Открытие через торрент в хорошем качестве бесплатно WEBRip

piratbit.ru

Раздают: 5 [ 50 KB/s ]
Размер: 1.37 GB | Добавлен: 6 мес. назад | Торрент скачан:908 раз
Реклама Дарим 3000 рублей за регистрацию, не упусти свой шанс получить шикарный бонус!!!

02-04-2017 03:39 Открытие Скачать торрент  

Открытие / The Discovery

Год выпуска: 2017Страна: США / Endgame Entertainment, NetFlix, Protagonist PicturesЖанр: фантастика, триллер, драма, мелодрама, детективПродолжительность: 01:42:58Перевод: Любительский (многоголосый) [Синема УС]Субтитры: нет

Режиссер: Чарли МакДауэлл

В ролях: Руни Мара, Райли Кио, Роберт Редфорд, Джейсон Сигел, Джесси Племонс, Катери ДеМартино, Рон Кэнада, Anastasia Tsikhanava, Марк Бузенски, Брайан МакКарти

Описание: В далеком будущем ученым удается официально подтвердить существование жизни после смерти. Миллионы людей на Земле решили совершить самоубийство, полагая, что, таким образом, перезагрузят свою жизнь.

Качество: WEBRipФормат: AVIВидео кодек: XviDАудио кодек: AC3Видео: 720x304 (2.37:1), 23.976 fps, XviD ~1510 kbpsАудио: 48 kHz, AC3 , 2/0 (L,R) ch, ~384 kbps

Дополнительно Есть реклама.

GeneralComplete name : H:\релизы.торрентфайл\The.Discovery.2017.P.WEB-DLRip.14OOMB_KOSHARA.aviFormat : AVIFormat/Info : Audio Video InterleaveFile size : 1.37 GiBDuration : 1h 42mnOverall bit rate : 1 904 KbpsWriting application : VirtualDubMod 1.5.10.2 (build 2540/release)Writing library : VirtualDubMod build 2540/release

VideoID : 0Format : MPEG-4 VisualFormat profile : Advanced [email protected] settings, BVOP : 2Format settings, QPel : NoFormat settings, GMC : No warppointsFormat settings, Matrix : Default (MPEG)Codec ID : XVIDCodec ID/Hint : XviDDuration : 1h 42mnBit rate : 1 511 KbpsWidth : 720 pixelsHeight : 304 pixelsDisplay aspect ratio : 2.35:1Frame rate : 23.976 fpsColor space : YUVChroma subsampling : 4:2:0Bit depth : 8 bitsScan type : ProgressiveCompression mode : LossyBits/(Pixel*Frame) : 0.288Stream size : 1.09 GiB (79%)Writing library : XviD 1.2.1 (UTC 2008-12-04)

AudioID : 1Format : AC-3Format/Info : Audio Coding 3Mode extension : CM (complete main)Format settings, Endianness : BigCodec ID : 2000Duration : 1h 42mnBit rate mode : ConstantBit rate : 384 KbpsChannel(s) : 2 channelsChannel positions : Front: L RSampling rate : 48.0 KHzBit depth : 16 bitsCompression mode : LossyStream size : 283 MiB (20%)Alignment : Split accross interleavesInterleave, duration : 42 ms (1.00 video frame)Interleave, preload duration : 500 ms

Скачать Открытие через торрент http://i91.fastpic.ru/big/2017/0401/d0/f62aa2880e9b14b7be56786e027681d0.jpg Скачать фильм Открытие через торрент бесплантно в хорошем качестве Описание: В далеком будущем ученым удается официально подтвердить существование жизни после смерти. Миллионы людей на Земле решили ... 2017-04-02 03:39 9.2 10 15

Loading...

Loading...

% Раздел Тема Автор DL S | L
T Фильмы 2017 [DVDrip, WEB-DLRip, HDrip] (DUB, MVO) [ 1.19 GB ] Открытие / The Discovery [2017 WEBRip] [MVO] killermax2013 Скачать
T Фильмы 2017 [DVDrip, WEB-DLRip, HDrip] (DUB, MVO) [ 1.34 GB ] Открытие / The Discovery [2017 WEBRip] MVO [NewStudio] bober100 Скачать
T Фильмы (WEB-DL 720p, 1080p) [ 4.42 GB ] Открытие / The Discovery [2017 WEBRip 1080p] MVO [NewStudio] SEVMASH Скачать
T Фильмы 2017 [DVDrip, WEB-DLRip, HDrip] (DUB, MVO) [ 2.73 GB ] Открытие / The Discovery [2017 WEBRip 720p] MVO [NewStudio] bober100 Скачать

Рекламный пират

02-04-2017 07:50 Открытие Скачать торрент  

более 100 скачиваний и не одного коммента.как фильм то?

02-04-2017 10:25 Открытие Скачать торрент  

все кто смотрел наверное жизнь перезагружают

02-04-2017 12:57 Открытие Скачать торрент  

den4ik58 писал(а):

Зачем качать пиратские фильмы с дерьмовым качеством, когда можно посмотреть их на нормальном сайте и с качеством, кому интересно смотрите здесь newkino2017.tk

ХАХАХА пришли смс... забаньте этого лохотронщика!!!!!!!!

02-04-2017 15:36 Открытие Скачать торрент  

пойдем перезагрузимся :)

03-04-2017 04:15 Открытие Скачать торрент  

гребаные идиоты. такую шикарную идею превратили в унылый артхаус. смотреть можно, поклонникам 12 обезьян (к таковым себя отношу тоже)) возможно понравится.зы. не, ну и уроды же. блин так запоганить.. во всем лсд виноват, ну или обдолбаный сценарист-адаптатор. истину вам говорю))

Дорогой пользователь! Огромная просьба, поблагодарите релизера, оцените раздачу и оставьте свои комментарий, если Вы скачали Открытие через торрент бесплатно! Внесите свою лепту в развитие PiratBit!

Комментировать посты могут только пользователи прошедшие не сложную регистрацию

Открытие через торрент Скачать бесплатно Открытие Открытие скачать торрент Открытие смотреть онлайн Cкачать фильм Открытие бесплатно Открытие скачать торрент в хорошем качестве Открытие смотреть онлайн бесплатно в хорошем качестве

Вы не можете начинать темыВы не можете отвечать на сообщенияВы не можете редактировать свои сообщенияВы не можете удалять свои сообщенияВы не можете голосовать в опросахВы не можете прикреплять файлы к сообщениямВы можете скачивать файлы

Скачать фильм Открытие через торрент в хорошем качестве бесплатно WEBRip

piratbit.ru

Раздают: 4 [ 0 KB/s ]
Размер: 1.34 GB | Добавлен: 6 мес. назад | Торрент скачан:1012 раз
Реклама Дарим 3000 рублей за регистрацию, не упусти свой шанс получить шикарный бонус!!!

03-04-2017 11:12 Открытие Скачать торрент  

Открытие / The Discovery

Год выпуска: 2017Страна: СШАЖанр: фантастика, триллер, драма, мелодрама, детективПродолжительность: 01:42:04Перевод: Профессиональный многоголосый - Субтитры: отсутствуют

Режиссер: Чарли МакДауэлл

В ролях:

Руни Мара, Роберт Редфорд, Джейсон Сигел, Джесси Племонс, Райли Кио, Катери ДеМартино, Рон Кэнада, Марк Бузенски, Брайан МакКартиОписание:

Учёный Томас Харпер совершил открытие — научно доказал, что смертью жизнь не заканчивается, что после смерти есть что-то ещё. Миллионы людей на Земле стали совершать самоубийства, полагая, что таким образом смогут попасть в лучшее место.Качество: WEBRipФормат: AVIВидео кодек: XviDАудио кодек: AC3

Видео: 720x304 (2.35:1), 23.976 fps, XviD build 50 ~1488 kbps avg, 0.26 bit/pixelАудио#1: 48 kHz, AC3 Dolby Digital, 3/2 (L,C,R,l,r) + LFE ch, ~384 kbps

Скачать Открытие через торрент http://s008.radikal.ru/i305/1704/a6/0e7ad0710ee0.png Скачать фильм Открытие через торрент бесплантно в хорошем качестве Описание: Учёный Томас Харпер совершил открытие — научно доказал, что смертью жизнь не заканчивается, что после смерти есть что-то ещё. ... 2017-04-03 11:12 10 10 21

Loading...

Loading...

% Раздел Тема Автор DL S | L
T Фильмы 2017 [DVDrip, WEB-DLRip, HDrip] (DUB, MVO) [ 1.19 GB ] Открытие / The Discovery [2017 WEBRip] [MVO] killermax2013 Скачать
T Фильмы (WEB-DL 720p, 1080p) [ 4.42 GB ] Открытие / The Discovery [2017 WEBRip 1080p] MVO [NewStudio] SEVMASH Скачать
T Фильмы 2017 [DVDrip, WEB-DLRip, HDrip] (DUB, MVO) [ 2.73 GB ] Открытие / The Discovery [2017 WEBRip 720p] MVO [NewStudio] bober100 Скачать
T Фильмы 2017 [DVDrip, WEB-DLRip, HDrip] (DUB, MVO) [ 1.37 GB ] Открытие / The Discovery [2017 WEBRip Любительский ] [Синема УС] oleg8 Скачать

Рекламный пират

03-04-2017 15:57 Открытие Скачать торрент  

04-04-2017 13:56 Открытие Скачать торрент  

dom1no98 писал(а):

Как фильм?

нудный

05-04-2017 21:02 Открытие Скачать торрент  

короче засыпал два раза,какая то нудная шляпа

Дорогой пользователь! Огромная просьба, поблагодарите релизера, оцените раздачу и оставьте свои комментарий, если Вы скачали Открытие через торрент бесплатно! Внесите свою лепту в развитие PiratBit!

Комментировать посты могут только пользователи прошедшие не сложную регистрацию

Открытие через торрент Скачать бесплатно Открытие Открытие скачать торрент Открытие смотреть онлайн Cкачать фильм Открытие бесплатно Открытие скачать торрент в хорошем качестве Открытие смотреть онлайн бесплатно в хорошем качестве

Вы не можете начинать темыВы не можете отвечать на сообщенияВы не можете редактировать свои сообщенияВы не можете удалять свои сообщенияВы не можете голосовать в опросахВы не можете прикреплять файлы к сообщениямВы можете скачивать файлы


Смотрите также