Отец молодец скачать через торрент в хорошем качестве


Скачать фильм Отец-молодец через торрент в хорошем качестве бесплатно 1080p

piratbit.ru

Размер: 32.17 GB | Добавлен: 3 года 7 мес. назад | Торрент скачан:28 раз
Реклама Дарим 3000 рублей за регистрацию, не упусти свой шанс получить шикарный бонус!!!

14-03-2014 19:43 Отец-молодец Скачать торрент  

Отец-молодец / Delivery Man

«Тебе от 17 до 23? Ты уверен, что это не твой отец?» Страна: США / DreamWorks SKG

Жанр: комедия, драмаГод выпуска: 2013 Продолжительность: 1:44:47Перевод: Профессиональный дублированныйCубтитры: русский, английскийОригинальная аудиодорожка: английский

Режиссер: Кен Скотт / Ken ScottВ ролях: Винс Вон, Крис Прэтт, Коби Смолдерс, Анджей Блюменфельд, Саймон Делани, Бобби Мойнахан, Дэйв Паттен, Адам Чанлер-Берат, Бритт Робертсон, Джек Рейнор...Роли дублировали: Валерий Смекалов

Описание:

Жизнь бруклинского работяги Дэвида Возняка не похожа на праздник: у него кризис среднего возраста, он должен денег подпольному ростовщику, девушка собирается его бросить, а родной отец грозит увольнением с работы. А в довершение всех бед к нему приходит адвокат с известием о том, что в результате ошибки, которую двадцать лет назад совершили в банке спермы, который Дэвид посещал в студенческие годы, он является биологическим отцом 533 детей. И 142 из них обратились в суд с требованием раскрыть имя своего родителя. Вначале Дэвид не знает, что делать в такой ситуации, но постепенно любопытство перевешивает, и он решает — инкогнито — узнать поближе хотя бы некоторых из своих нежданных потомков…

Качество: Blu-ray 1080pФормат: BDAVВидео кодек: MPEG-4 AVC VideoАудио кодек: AC3/DTSВидео 1920x1080, MPEG-4 AVC Video 29994 kbps 1080p / 23,976 fps / 16:9 / High Profile 4.1Аудио#1: English(DTS, 5.1 ch,3539 Кбит/с, 48,0 КГц)Аудио#2: Russian (AC3, 5.1 ch, 640 Кбит/с, 48,0 КГц) - Дубляж, BD RUSАудио#3: Russian (AC3, 2 ch, 320 Кбит/с, 48,0 КГц)

DISC INFO:

Disc Title: DELIVERY_MAN_HDCLUBDisc Size: 34 538 555 701 bytesProtection: AACSBD-Java: YesBDInfo: 0.5.8

PLAYLIST REPORT:

Name: 00100.MPLSLength: 1:44:47.322 (h:m:s.ms)Size: 28 787 589 120 bytesTotal Bitrate: 36,63 Mbps

VIDEO:

Codec Bitrate Deion----- ------- -----------MPEG-4 AVC Video 29994 kbps 1080p / 23,976 fps / 16:9 / High Profile 4.1

AUDIO:

Codec Language Bitrate Deion----- -------- ------- -----------DTS-HD Master Audio English 3539 kbps 5.1 / 48 kHz / 3539 kbps / 24-bit (DTS Core: 5.1 / 48 kHz / 1509 kbps / 24-bit)Dolby Digital Audio Russian 640 kbps 5.1 / 48 kHz / 640 kbpsDolby Digital Audio English 320 kbps 2.0 / 48 kHz / 320 kbps / Dolby Surround

SUBTITLES:

Codec Language Bitrate Deion----- -------- ------- -----------Presentation Graphics English 73,260 kbpsPresentation Graphics English 65,754 kbpsPresentation Graphics Russian 63,618 kbpsPresentation Graphics Russian 0,709 kbps

FILES:

Name Time In Length Size Total Bitrate---- ------- ------ ---- -------------00006.M2TS 0:00:00.000 0:04:12.335 1 158 340 608 36 72400008.M2TS 0:04:12.335 1:40:34.987 27 629 248 512 36 625

Скачать Отец-молодец через торрент http://youpicture.org/images/2014/03/14/vbpnvfojik76cfsk1hb65si0w.jpg Скачать фильм Отец-молодец через торрент бесплантно в хорошем качестве Описание: Жизнь бруклинского работяги Дэвида Возняка не похожа на праздник: у него кризис среднего возраста, он должен денег подпольному ... 2014-03-14 19:43 10 10 3

Loading...

Loading...

% Раздел Тема Автор DL S | L
Фильмы 2013 [DVDrip, WEB-DLRip, HDrip] [ 2.05 GB ] Отец-молодец / Delivery Man [2013 HDRip ] Neftannik Скачать
Фильмы 2013 [DVDrip, WEB-DLRip, HDrip] [ 2.18 GB ] Отец-молодец / Delivery Man [2013 BDRip-AVC] DUB potroks Скачать
Фильмы 2013 [DVDrip, WEB-DLRip, HDrip] [ 1.47 GB ] Отец-молодец / Delivery Man [2013 BDRip ] coc900 Скачать
Фильмы (DVD фильмы) [ 5.47 GB ] Отец-молодец / Delivery Man [2013 DVD9] R5 voovaz Скачать
Фильмы (Blu-ray, BD-Remux, HDDVD) [ 25.2 GB ] Отец-молодец / Delivery Man [ 2013 BDRemux ] Ворон Скачать
Фильмы 2013 [DVDrip, WEB-DLRip, HDrip] [ 1.46 GB ] Отец-молодец / Delivery Man [2013 HDRip /] MihailHD Скачать
Фильмы [HD 720p, 1080p] (Хороший звук DUB, MVO) [ 9.01 GB ] Отец-молодец / Delivery Man [2013 BDRip 1080p + Оригинал] Бумер Скачать

Последний раз редактировалось: Haswell (2014-03-14 21:50), всего редактировалось 13 раз(а)

Рекламный пират

Дорогой пользователь! Огромная просьба, поблагодарите релизера, оцените раздачу и оставьте свои комментарий, если Вы скачали Отец-молодец через торрент бесплатно! Внесите свою лепту в развитие PiratBit!

Комментировать посты могут только пользователи прошедшие не сложную регистрацию

Отец-молодец через торрент Скачать бесплатно Отец-молодец Отец-молодец скачать торрент Отец-молодец смотреть онлайн Cкачать фильм Отец-молодец бесплатно Отец-молодец скачать торрент в хорошем качестве Отец-молодец смотреть онлайн бесплатно в хорошем качестве

Вы не можете начинать темыВы не можете отвечать на сообщенияВы не можете редактировать свои сообщенияВы не можете удалять свои сообщенияВы не можете голосовать в опросахВы не можете прикреплять файлы к сообщениямВы можете скачивать файлы

Скачать фильм Отец-молодец через торрент в хорошем качестве бесплатно 1080p

ОбщееУникальный идентификатор : 198546516043589944565012608654600120251 (0x955EAB05FE76446388349679ED3D27BB)Полное имя : C:Delivery.Man.1080.CMEGRoup.mkvФормат : MatroskaВерсия формата : Version 2Размер файла : 9,01 ГбайтПродолжительность : 1 ч. 44 м.Общий поток : 12,3 Мбит/секНазвание фильма : Rip by CMEGRoupДата кодирования : UTC 2014-03-10 19:50:29Программа кодирования : mkvmerge v6.7.0 ('Back to the Ground') 64bit built on Jan 8 2014 15:10:52Библиотека кодирования : libebml v1.3.0 + libmatroska v1.4.1

ВидеоИдентификатор : 1Формат : AVCФормат/Информация : Advanced Video CodecПрофиль формата : [email protected]Параметр CABAC формата : ДаПараметр ReFrames формата : 5 кадровИдентификатор кодека : V_MPEG4/ISO/AVCПродолжительность : 1 ч. 44 м.Битрейт : Мбит/секШирина : 1920 пикселейВысота : 798 пикселейСоотношение сторон : 2,40:1Режим частоты кадров : ПостоянныйЧастота кадров : 23,976 кадра/секЦветовое пространство : YUVСубдискретизация насыщенности : 4:2:0Битовая глубина : 8 битТип развёртки : ПрогрессивнаяБит/(Пиксели*Кадры) : 0.275Размер потока : 7,21 Гбайт (80%)Заголовок : CMEGRoupБиблиотека кодирования : x264 core 138 r2358 9e941d1Настройки программы : cabac=1 / ref=5 / deblock=1:-3:-3 / analyse=0x3:0x113 / me=umh / subme=11 / psy=1 / psy_rd=1.00:0.00 / mixed_ref=1 / me_range=32 / chroma_me=1 / trellis=2 / 8x8dct=1 / cqm=0 / deadzone=21,11 / fast_pskip=1 / chroma_qp_offset=-2 / threads=12 / lookahead_threads=1 / sliced_threads=0 / nr=0 / decimate=1 / interlaced=0 / bluray_compat=0 / constrained_intra=0 / bframes=5 / b_pyramid=2 / b_adapt=1 / b_bias=0 / direct=2 / weightb=1 / open_gop=0 / weightp=2 / keyint=240 / keyint_min=23 / scenecut=40 / intra_refresh=0 / rc_lookahead=40 / rc=2pass / mbtree=1 / bitrate=10100 / ratetol=1.0 / qcomp=0.60 / qpmin=10 / qpmax=51 / qpstep=4 / cplxblur=20.0 / qblur=0.5 / vbv_maxrate=62500 / vbv_bufsize=78125 / nal_hrd=none / ip_ratio=1.40 / aq=1:1.00 / zones=143880,150743,q=40Язык : EnglishDefault : ДаForced : Нет

Аудио #1Идентификатор : 2Формат : AC-3Формат/Информация : Audio Coding 3Расширение режима : CM (complete main)Параметр Endianness формата : BigИдентификатор кодека : A_AC3Продолжительность : 1 ч. 44 м.Вид битрейта : ПостоянныйБитрейт : 384 Кбит/секКаналы : 6 каналовРасположение каналов : Front: L C R, Side: L R, LFEЧастота : 48,0 КГцБитовая глубина : 16 битМетод сжатия : С потерямиРазмер потока : 288 Мбайт (3%)Язык : RussianDefault : ДаForced : Нет

Аудио #2Идентификатор : 3Формат : DTSФормат/Информация : Digital Theater SystemsРежим : 16Параметр Endianness формата : BigИдентификатор кодека : A_DTSПродолжительность : 1 ч. 44 м.Вид битрейта : ПостоянныйБитрейт : 1509 Кбит/секКаналы : 6 каналовРасположение каналов : Front: L C R, Side: L R, LFEЧастота : 48,0 КГцБитовая глубина : 24 битМетод сжатия : С потерямиРазмер потока : 1,11 Гбайт (12%)Заголовок : original 1536 kbsЯзык : EnglishDefault : НетForced : Нет

Аудио #3Идентификатор : 4Формат : AC-3Формат/Информация : Audio Coding 3Профиль формата : Dolby DigitalРасширение режима : CM (complete main)Параметр Endianness формата : BigИдентификатор кодека : A_AC3Продолжительность : 1 ч. 44 м.Вид битрейта : ПостоянныйБитрейт : 320 Кбит/секКаналы : 2 каналаРасположение каналов : Front: L RЧастота : 48,0 КГцБитовая глубина : 16 битМетод сжатия : С потерямиРазмер потока : 240 Мбайт (3%)Заголовок : CommentaryЯзык : EnglishDefault : НетForced : Нет

ТекстИдентификатор : 5Формат : UTF-8Идентификатор кодека : S_TEXT/UTF8Идентификатор кодека/Информация : UTF-8 Plain TextЯзык : EnglishDefault : НетForced : Нет

Меню00:00:00.000 : en:00:00:00.00000:04:12.335 : en:00:04:12.33500:10:42.392 : en:00:10:42.39200:15:03.861 : en:00:15:03.86100:21:04.054 : en:00:21:04.05400:27:42.494 : en:00:27:42.49400:35:00.557 : en:00:35:00.55700:40:03.401 : en:00:40:03.40100:45:06.287 : en:00:45:06.28700:51:59.116 : en:00:51:59.11600:58:35.011 : en:00:58:35.01101:04:47.217 : en:01:04:47.21701:07:59.325 : en:01:07:59.32501:15:05.126 : en:01:15:05.12601:20:11.223 : en:01:20:11.22301:24:59.678 : en:01:24:59.67801:30:48.318 : en:01:30:48.31801:39:56.490 : en:01:39:56.490

piratbit.ru

Скачать Отец-молодец через торрент - фильм в хорошем качестве

Категория: Фильмы 1585 0 Торрент добавлен: 19-04-2015 Рейтинг:

2013 / комедия / 106 мин.Оригинальное название: Delivery ManРежиссер: Кен СкоттВ ролях: Коби Смолдерс, Винс Вон, Крис Прэтт, Бриттани Робертсон, Джек Рейнор, Бобби Мойнихэн мл., Саймон Делани, Джорджи Лалов, Стивен Вайз, Питер Й. Ким

Дэвид Возняк проживает в Бруклине, работая на фирме своего отца, но его жизнь совсем не сахар: он изрядно задолжал серьезному человеку, девушка грозит ему расставанием, а отец хочет уволить с работы. Но вершиной всех неудач стало знакомство с адвокатом, который ему сообщил, что из-за ошибки работников банка спермы, в котором он был еще, будучи студентом, у него сейчас 533 детей, причем 142 подростка подали в суд с законным требованием раскрыть имя своего биологического папы. Сначала Дэвид впадает в панику из-за сложившейся ситуации, но позже его любопытство берет вверх и он решает познакомиться хотя бы с некоторыми родственниками, но сделать это инкогнито.

Трейлер к фильму Отец-молодец

Отец-молодец скачать торрент

Качество: Blu-ray 1080pФормат: BDAVВидео: 1920x1080, MPEG-4 AVC Video 29994 kbps 1080p / 23,976 fps / 16:9 / High Profile 4.1Аудио: DTS-HD Master Audio English 3539 kbps 5.1 / 48 kHz / 3539 kbpsПрофессиональный дублированный

32,17 Gb

Кодек: x264Качество: BDRip 1080pВидео: 1920x800, 9322 Kbps, 23.976 fpsАудио #1: AC-3, 6 ch, 640 kbps (Rus)Дублированный + Оригинал

7,76 Gb

Формат: MKV Качество: BDRip 720pВидео: 4200 kb/s, 1280x532Аудио: Russian: AC3, 384 Kb/s (6 ch) / English: DTS, 1510 Kb/s (6 ch)Дублированное [iTunes]

4,70 Gb

Качество видео: HDRip Формат видео: AVIВидео: 720x304 (2.37:1), 23.976 fps, XviD build 73 ~1582 kbps avg, 0.30 bit/pixelАудио: 48 kHz, AC3 Dolby Digital, 3/2 (L,C,R,l,r) + LFE ch, ~384 kbpsПрофессиональный (дублированный) [Лицензия]

Вы находитесь на странице, где можете совершенно бесплатно скачать фильм Отец-молодец в хорошем качестве через торрент, в любом формате, который больше всего вам на данный момент подходит. Скачивание осуществляется через торрент, что означает максимально высокую скорость загрузки. Желаем Вам приятного просмотра!. Не забудь поделиться своими впечатлениями после того как посмотришь фильм Отец-молодец.

Информация Посетители, находящиеся в группе Гости, не могут оставлять комментарии к данной публикации.

psp-gu.ru

Скачать фильм Отец-молодец через торрент в хорошем качестве бесплатно 720p

ОбщееКол-во : 279Кол-во потоков такого типа : 1Тип потока : GeneralТип потока : ОбщееИдентификатор типа потока : 0Inform : Matroska: 4,70 Гбайт, 1 ч. 44 м.Уникальный идентификатор : 181600853513346490135796608428754890322Уникальный идентификатор : 181600853513346490135796608428754890322 (0x889F0D5B102A98FFB4289B1E5B006E52)Кол-во видеопотоков : 1Кол-во аудиопотоков : 3Кол-во текстовых потоков : 1Кол-во потоков меню : 1Video_Format_List : AVCVideo_Format_WithHint_List : AVCВидеокодеки : AVCVideo_Language_List : EnglishAudio_Format_List : AC-3 / DTS / AC-3Audio_Format_WithHint_List : AC-3 / DTS / AC-3Аудиокодеки : AC3 / DTS / AC3Audio_Language_List : Russian / English / EnglishText_Format_List : UTF-8Text_Format_WithHint_List : UTF-8Текстовые кодеки : UTF-8Text_Language_List : EnglishПолное имя : D:ФильмыОтец-молодец.mkvИмя папки : D:ФильмыИмя файла : Отец-молодецРасширение : mkvФормат : MatroskaФормат : MatroskaФормат/Ссылка : http://packs.matroska.org/Формат/Используется в : mkv mk3d mka mksКоммерческое название : MatroskaВерсия формата : Version 2Кодек : MatroskaКодек : MatroskaКодек/Ссылка : http://packs.matroska.org/Кодек/Используется в : mkv mk3d mka mksРазмер файла : 5043643079Размер файла : 4,70 ГбайтРазмер файла : 5 ГбайтРазмер файла : 4,7 ГбайтРазмер файла : 4,70 ГбайтРазмер файла : 4,697 ГбайтПродолжительность : 6296171Продолжительность : 1 ч. 44 м.Продолжительность : 1 ч. 44 м. 56 с. 171 мс.Продолжительность : 1 ч. 44 м.Продолжительность : 01:44:56.171Общий поток : 6408521Общий поток : 6409 Кбит/секРазмер потока : 100368480Размер потока : 95,7 Мбайт (2%)Размер потока : 96 МбайтРазмер потока : 96 МбайтРазмер потока : 95,7 МбайтРазмер потока : 95,72 МбайтРазмер потока : 95,7 Мбайт (2%)Пропорции потока : 0.01990Заголовок : Rip by CMEGRoupНазвание фильма : Rip by CMEGRoupДата кодирования : UTC 2014-03-10 19:48:05Дата файла : UTC 2014-03-11 01:04:02.897Дата файла (местная) : 2014-03-11 08:04:02.897Дата изменения файла : UTC 2014-03-11 00:49:14.502Дата изменения файла (местная) : 2014-03-11 07:49:14.502Программа кодирования : mkvmerge v6.7.0 ('Back to the Ground') 64bit built on Jan 8 2014 15:10:52Библиотека кодирования : libebml v1.3.0 + libmatroska v1.4.1Библиотека кодирования : libebml v1.3.0 + libmatroska v1.4.1

ВидеоКол-во : 248Кол-во потоков такого типа : 1Тип потока : VideoТип потока : ВидеоИдентификатор типа потока : 0StreamOrder : 0Inform : English, 4200 Кбит/сек, 1280*532 (2,40:1), в 23,976 кадра/сек, AVC ([email protected]) (CABAC / 12 Ref Frames)Идентификатор : 1Идентификатор : 1Уникальный идентификатор : 1Формат : AVCФормат/Информация : Advanced Video CodecФормат/Ссылка : http://developers.videolan.org/x264.htmlКоммерческое название : AVCПрофиль формата : [email protected]Настройки формата : CABAC / 12 Ref FramesПараметр CABAC формата : YesПараметр CABAC формата : ДаПараметр ReFrames формата : 12Параметр ReFrames формата : 12 кадровИнтернет-тип носителя : video/h364Идентификатор кодека : V_MPEG4/ISO/AVCИдентификатор кодека/Ссылка : http://ffdshow-tryout.sourceforge.net/Кодек : V_MPEG4/ISO/AVCКодек : AVCКодек/Семейство : AVCКодек/Информация : Advanced Video CodecКодек/Ссылка : http://ffdshow-tryout.sourceforge.net/Профиль кодека : [email protected]Настройки кодека : CABAC / 12 Ref FramesПараметр CABAC кодека : YesCodec_Settings_RefFrames : 12Продолжительность : 6296171Продолжительность : 1 ч. 44 м.Продолжительность : 1 ч. 44 м. 56 с. 171 мс.Продолжительность : 1 ч. 44 м.Продолжительность : 01:44:56.171Битрейт : 4200000Битрейт : 4200 Кбит/секШирина : 1280Ширина : 1280 пикселейВысота : 532Высота : 532 пикселяПропорции пикселя : 1.000Соотношение сторон : 2.406Соотношение сторон : 2,40:1Режим частоты кадров : CFRРежим частоты кадров : ПостоянныйЧастота кадров : 23.976Частота кадров : 23,976 кадра/секСчётчик кадров : 150957Разрешение : 8Разрешение : 8 битКолориметрия : 4:2:0Цветовое пространство : YUVСубдискретизация насыщенности : 4:2:0Битовая глубина : 8Битовая глубина : 8 битТип развёртки : ProgressiveТип развёртки : ПрогрессивнаяПереплетение : PPFПереплетение : ПрогрессивнаяБит/(Пиксели*Кадры) : 0.257Задержка : 0Задержка : 00:00:00.000Задержка в оригинале : ContainerЗадержка в оригинале : КонтейнерРазмер потока : 3201006031Размер потока : 2,98 Гбайт (63%)Размер потока : 3 ГбайтРазмер потока : 3,0 ГбайтРазмер потока : 2,98 ГбайтРазмер потока : 2,981 ГбайтРазмер потока : 2,98 Гбайт (63%)Пропорции потока : 0.63466Заголовок : CMEGRoupБиблиотека кодирования : x264 - core 138 r2358 9e941d1Библиотека кодирования : x264 core 138 r2358 9e941d1Библиотека кодирования/Имя : x264Библиотека кодирования/Version : core 138 r2358 9e941d1Настройки программы : cabac=1 / ref=12 / deblock=1:-3:-3 / analyse=0x3:0x113 / me=umh / subme=11 / psy=1 / psy_rd=1.00:0.00 / mixed_ref=1 / me_range=48 / chroma_me=1 / trellis=2 / 8x8dct=1 / cqm=0 / deadzone=21,11 / fast_pskip=1 / chroma_qp_offset=-2 / threads=6 / lookahead_threads=1 / sliced_threads=0 / nr=0 / decimate=1 / interlaced=0 / bluray_compat=0 / constrained_intra=0 / bframes=5 / b_pyramid=2 / b_adapt=1 / b_bias=0 / direct=2 / weightb=1 / open_gop=0 / weightp=2 / keyint=240 / keyint_min=23 / scenecut=40 / intra_refresh=0 / rc_lookahead=40 / rc=2pass / mbtree=1 / bitrate=4200 / ratetol=1.0 / qcomp=0.60 / qpmin=0 / qpmax=69 / qpstep=4 / cplxblur=20.0 / qblur=0.5 / vbv_maxrate=62500 / vbv_bufsize=78125 / nal_hrd=none / ip_ratio=1.40 / aq=1:1.00 / zones=144467,150743,q=40Язык : enЯзык : EnglishЯзык : EnglishЯзык : enЯзык : engЯзык : enDefault : YesDefault : ДаForced : NoForced : Нет

Аудио #1Кол-во : 236Кол-во потоков такого типа : 3Тип потока : AudioТип потока : АудиоИдентификатор типа потока : 0Позиция идентификатора типа потока : 1StreamOrder : 1Inform : Russian, 384 Кбит/сек, 48,0 КГц, 16 бит, 6 каналов, AC-3Идентификатор : 2Идентификатор : 2Уникальный идентификатор : 1546226033320467587Формат : AC-3Формат/Информация : Audio Coding 3Коммерческое название : AC-3Расширение режима : CM (complete main)Параметр Endianness формата : BigИдентификатор кодека : A_AC3Кодек : AC3Кодек : AC3Кодек/Семейство : AC3Кодек/Информация : Dolby AC3Продолжительность : 6296171Продолжительность : 1 ч. 44 м.Продолжительность : 1 ч. 44 м. 56 с. 171 мс.Продолжительность : 1 ч. 44 м.Продолжительность : 01:44:56.171Вид битрейта : CBRВид битрейта : ПостоянныйБитрейт : 384000Битрейт : 384 Кбит/секКаналы : 6Каналы : 6 каналовРасположение каналов : Front: L C R, Side: L R, LFEРасположение каналов : 3/2/0.1Частота : 48000Частота : 48,0 КГцКоличество образцов : 302216208Разрешение : 16Разрешение : 16 битБитовая глубина : 16Битовая глубина : 16 битМетод сжатия : LossyМетод сжатия : С потерямиЗадержка : 0Задержка : 00:00:00.000Задержка в оригинале : ContainerЗадержка в оригинале : КонтейнерЗадержка видео : 0Задержка видео : 0Размер потока : 302216208Размер потока : 288 Мбайт (6%)Размер потока : 288 МбайтРазмер потока : 288 МбайтРазмер потока : 288 МбайтРазмер потока : 288,2 МбайтРазмер потока : 288 Мбайт (6%)Пропорции потока : 0.05992Язык : ruЯзык : RussianЯзык : RussianЯзык : ruЯзык : rusЯзык : ruDefault : YesDefault : ДаForced : NoForced : Нетdialnorm : -27dialnorm/String : -27 dBcompr : -0.28compr/String : -0.28 dBbsid : 8dialnorm_Average : -27dialnorm_Average/String : -27 dBdialnorm_Minimum : -27dialnorm_Minimum/String : -27 dBdialnorm_Maximum : -27dialnorm_Maximum/String : -27 dBdialnorm_Count : 2compr_Average : -0.28compr_Average/String : -0.28 dBcompr_Minimum : -0.28compr_Minimum/String : -0.28 dBcompr_Maximum : -0.28compr_Maximum/String : -0.28 dBcompr_Count : 2

Аудио #2Кол-во : 217Кол-во потоков такого типа : 3Тип потока : AudioТип потока : АудиоИдентификатор типа потока : 1Позиция идентификатора типа потока : 2StreamOrder : 2Inform : English, 1510 Кбит/сек, 48,0 КГц, 24 бит, 6 каналов, DTSИдентификатор : 3Идентификатор : 3Уникальный идентификатор : 3274248347999219875Формат : DTSФормат/Информация : Digital Theater SystemsКоммерческое название : DTSИдентификатор кодека : A_DTSКодек : DTSКодек : DTSКодек/Семейство : DTSПродолжительность : 6296171Продолжительность : 1 ч. 44 м.Продолжительность : 1 ч. 44 м. 56 с. 171 мс.Продолжительность : 1 ч. 44 м.Продолжительность : 01:44:56.171Вид битрейта : CBRВид битрейта : ПостоянныйБитрейт : 1509750Битрейт : 1510 Кбит/секКаналы : 6Каналы : 6 каналовРасположение каналов : Front: L C R, Side: L R, LFEРасположение каналов : 3/2/0.1Частота : 48000Частота : 48,0 КГцКоличество образцов : 302216208Разрешение : 24Разрешение : 24 битБитовая глубина : 24Битовая глубина : 24 битМетод сжатия : LossyМетод сжатия : С потерямиЗадержка : 0Задержка : 00:00:00.000Задержка в оригинале : ContainerЗадержка в оригинале : КонтейнерЗадержка видео : 0Задержка видео : 0Размер потока : 1188205520Размер потока : 1,11 Гбайт (24%)Размер потока : 1 ГбайтРазмер потока : 1,1 ГбайтРазмер потока : 1,11 ГбайтРазмер потока : 1,107 ГбайтРазмер потока : 1,11 Гбайт (24%)Пропорции потока : 0.23558Заголовок : original 1536 kbsЯзык : enЯзык : EnglishЯзык : EnglishЯзык : enЯзык : engЯзык : enDefault : NoDefault : НетForced : NoForced : Нет

Аудио #3Кол-во : 247Кол-во потоков такого типа : 3Тип потока : AudioТип потока : АудиоИдентификатор типа потока : 2Позиция идентификатора типа потока : 3StreamOrder : 3Идентификатор : 4Идентификатор : 4Уникальный идентификатор : 955533613932831883Формат : AC-3Формат/Информация : Audio Coding 3Коммерческое название : AC-3Профиль формата : Dolby DigitalРасширение режима : CM (complete main)Параметр Endianness формата : BigИдентификатор кодека : A_AC3Кодек : AC3Кодек : AC3Кодек/Семейство : AC3Кодек/Информация : Dolby AC3Профиль кодека : Dolby DigitalПродолжительность : 6296171Продолжительность : 1 ч. 44 м.Продолжительность : 1 ч. 44 м. 56 с. 171 мс.Продолжительность : 1 ч. 44 м.Продолжительность : 01:44:56.171Вид битрейта : CBRВид битрейта : ПостоянныйБитрейт : 320000Битрейт : 320 Кбит/секКаналы : 2Каналы : 2 каналаРасположение каналов : Front: L RРасположение каналов : 2/0/0Частота : 48000Частота : 48,0 КГцКоличество образцов : 302216208Разрешение : 16Разрешение : 16 битБитовая глубина : 16Битовая глубина : 16 битМетод сжатия : LossyМетод сжатия : С потерямиЗадержка : 0Задержка : 00:00:00.000Задержка в оригинале : ContainerЗадержка в оригинале : КонтейнерЗадержка видео : 0Задержка видео : 0Размер потока : 251846840Размер потока : 240 Мбайт (5%)Размер потока : 240 МбайтРазмер потока : 240 МбайтРазмер потока : 240 МбайтРазмер потока : 240,2 МбайтРазмер потока : 240 Мбайт (5%)Пропорции потока : 0.04993Заголовок : CommentaryЯзык : enЯзык : EnglishЯзык : EnglishЯзык : enЯзык : engЯзык : enDefault : NoDefault : НетForced : NoForced : Нетdsurmod : 2dsurmod/String : Dolby Surround encodeddialnorm : -31dialnorm/String : -31 dBcompr : 2.77compr/String : 2.77 dBdynrng : 2.77dynrng/String : 2.77 dBbsid : 6dialnorm_Average : -31dialnorm_Average/String : -31 dBdialnorm_Minimum : -31dialnorm_Minimum/String : -31 dBdialnorm_Maximum : -31dialnorm_Maximum/String : -31 dBdialnorm_Count : 2compr_Average : 2.77compr_Average/String : 2.77 dBcompr_Minimum : 2.77compr_Minimum/String : 2.77 dBcompr_Maximum : 2.77compr_Maximum/String : 2.77 dBcompr_Count : 2dynrng_Average : 2.86dynrng_Average/String : 2.86 dBdynrng_Minimum : 2.77dynrng_Minimum/String : 2.77 dBdynrng_Maximum : 2.96dynrng_Maximum/String : 2.96 dBdynrng_Count : 2

ТекстКол-во : 192Кол-во потоков такого типа : 1Тип потока : TextТип потока : ТекстИдентификатор типа потока : 0StreamOrder : 4Inform : English, UTF-8Идентификатор : 5Идентификатор : 5Уникальный идентификатор : 5215803045627659660Формат : UTF-8Коммерческое название : UTF-8Идентификатор кодека : S_TEXT/UTF8Идентификатор кодека/Информация : UTF-8 Plain TextКодек : S_TEXT/UTF8Кодек : UTF-8Кодек/Информация : UTF-8 Plain TextЯзык : enЯзык : EnglishЯзык : EnglishЯзык : enЯзык : engЯзык : enDefault : NoDefault : НетForced : NoForced : Нет

МенюКол-во : 91Кол-во потоков такого типа : 1Тип потока : MenuТип потока : МенюИдентификатор типа потока : 0Chapters_Pos_Begin : 73Chapters_Pos_End : 9100:00:00.000 : en:00:00:00.00000:04:12.335 : en:00:04:12.33500:10:42.392 : en:00:10:42.39200:15:03.861 : en:00:15:03.86100:21:04.054 : en:00:21:04.05400:27:42.494 : en:00:27:42.49400:35:00.557 : en:00:35:00.55700:40:03.401 : en:00:40:03.40100:45:06.287 : en:00:45:06.28700:51:59.116 : en:00:51:59.11600:58:35.011 : en:00:58:35.01101:04:47.217 : en:01:04:47.21701:07:59.325 : en:01:07:59.32501:15:05.126 : en:01:15:05.12601:20:11.223 : en:01:20:11.22301:24:59.678 : en:01:24:59.67801:30:48.318 : en:01:30:48.31801:39:56.490 : en:01:39:56.490

piratbit.ru


Смотрите также