Освобождение скачать торрент в хорошем качестве


rutor.org :: Освобождение [01-05 из 05] (1968-1971) BDRip 720p ::: Скачать торрент

main-rutor.org

Историческая киноэпопея в пяти фильмах о событиях Великой Отечественной войны, где наряду с подлинными историческими лицами действуют вымышленные герои... Всего в картине действует 51 реальный исторический персонаж. Подбор актёров на роли этих персонажей оказался непростым делом. Главная проблема заключалась в том, что практически все прототипы героев фильма были ещё живы. Большинство из них занимали высокие посты и весьма интересовались тем, как будут выглядеть на экране. Нужно было не просто добиться портретного сходства, но и получить согласие самого прототипа (или кураторов съёмочного процесса) на изображение на экране этого прототипа тем или иным актёром. Создание фильма консультировали сотни специалистов и участников тех событий.

Информация о фильмеНазвание: Освобождение: Огненная дугаГод выхода: 1968Жанр: драма, мелодрама, военныйРежиссер: Юрий ОзеровВ ролях: Михаил Ульянов, Николай Олялин, Лариса Голубкина, Фриц Диц, Петер Штурм, Юрий Каморный, Бухути Закариадзе, Владлен Давыдов, Виктор Авдюшко, Владислав Стржельчик

О фильме: Фильм первый - «Огненная Дуга» повествует о грандиозной битве на Курской дуге летом 1943 года. Здесь произошло самое крупное в истории Второй мировой войны танковое сражение. Наряду с личными судьбами героев в фильме показаны батальные сцены, деятельность штабов и разведок, тех, кто трудился на фронте и в тылу.

Информация о фильмеНазвание: Освобождение: ПрорывГод выхода: 1969Жанр: драма, военныйРежиссер: Юрий ОзеровВ ролях: Николай Олялин, Борис Зайденберг, Иво Гаррани, Владимир Самойлов, Фриц Диц, Всеволод Санаев, Бухути Закариадзе, Станислав Яскевич, Юрий Дуров, Лариса Голубкина

О фильме: Фильм второй - «Прорыв» посвящен битве за Днепр и наступательной операции советских войск в 1944 г. В центре этого фильма судьба батальона, сражавшегося на этом плацдарме.

Информация о фильмеНазвание: Освобождение: Направление главного удараГод выхода: 1970Жанр: военныйРежиссер: Юрий ОзеровВ ролях: Михаил Ульянов, Владлен Давыдов, Фриц Диц, Бухути Закариадзе, Альфред Штруве, Евгений Буренков, Станислав Яскевич, Николай Рыбников, Юрий Дуров, Николай Олялин

О фильме: Фильм третий - «Направление главного удара» посвящен операции «Багратион», в результате которой была полностью освобождена от фашистских войск Белоруссия, и войска Советской армии вышли к государственной границе...

Информация о фильмеНазвание: Освобождение: Битва за БерлинГод выхода: 1971Жанр: военныйРежиссер: Юрий ОзеровВ ролях: Михаил Ульянов, Фриц Диц, Валерий Носик, Юрий Каморный, Бухути Закариадзе, Франчишек Печка, Василий Шукшин, Константин Забелин, Владислав Стржельчик, Дмитрий Франько

О фильме: Фильм четвертый - «Битва за Берлин». 1945 г. Последние месяцы войны. Именно в эти дни решалась судьба порабощенной Европы. Началась Висло-Одерская операция. Три фронта под командованием Конева, Жукова и Рокоссовского устремились к столице Германии. К Берлину идут и англо-американские войска. «Опередить русских», - предлагает Черчиль и начинаются тайные переговоры с эмиссарами Гитлера, разоблаченные Ялтинской конференцией. Судьба Берлина решится на полях сражений.

Информация о фильмеНазвание: Освобождение: Последний штурмГод выхода: 1971Жанр: военныйРежиссер: Юрий ОзеровВ ролях: Николай Олялин, Михаил Ножкин, Фриц Диц, Валерий Носик, Ангелика Валлер, Хорст Гизе, Леонид Куравлёв, Анатолий Ромашин, Михаил Постников, Лариса Голубкина

О фильме: Фильм пятый - «Последний штурм». Последние дни войны, штурм рейхстага, сражение за каждый метр, за каждый этаж - и, наконец, водружение Знамени Победы над рейхстагом. Раздались первые залпы Победы. Главные герои фильма встречаются у входа в рейхстаг.

Страна: СССР, Германия (ГДР), Польша, ИталияПроизводство: Мосфильм, Авала-фильм, Dino de Laurentiis Cinematografica (Италия), ПРФ-ЗФ (Польша), ТО «Старт», Киностудия Дефа, Zespol FilmowyПродолжительность: 01:31:34 + 01:28:37 + 02:10:38 + 01:25:34 + 01:13:37Перевод: Оригинальный (Blu-ray)

Релиз:

ФайлФормат: Matroska Качество: BDRip 720pВидео: 1280x544 at 24.000 fps, [email protected], ~6600 kbps avgАудио: Russian: 48 kHz, AC3 Dolby Digital, 2/0 (L,R) ch, ~224 kbps avg Субтитры: None

***Сохранены оригинальные главы как на Blu-ray. ***Видеоряд - DON!

Знаете ли вы, что...

  • Съёмки проводились в окрестностях города Переславля-Залесского, т. к. разрешение на проведение съёмок на месте реальных событий так и не было получено, хотя съемочная группа выезжала в Курск.
  • Съёмки всех пяти фильмов эпопеи проходили в период с 1967 по 1971 год.
  • Лучший фильм по опросу журнала «Советский экран» в 1972 году.
  • Курировал работу съёмочной группы непосредственно ЦК КПСС. С самого начала Юрия Озерова предупредили, что о первых двух годах Великой Отечественной войны не может быть и речи: картина должна сразу начинаться с Курской битвы.
  • После того, как в 1968 году этот фильм показали маршалу Гречко и генералу Епишеву, картина легла на полку и пролежала там до лета 1969 года. В течение этого времени Юрий Озеров переделывал картину 4 раза и успел закончить следующий фильм эпопеи — «Прорыв».
  • Участие в создании фильма приняли несколько европейских социалистических государств, но львиную часть бюджета предоставил СССР.
  • Мундир Сталина изготовил именно тот портной, что шил мундиры настоящему Сталину. Немецкие мундиры, за неимением оригинальных, также пришлось шить. Каски (пластмассовые для меньшего веса) и немецкие ордена изготовили на подсобном производстве студии «Мосфильм».
  • Военные съёмки велись там же, где и два предыдущих фильма — на специально выделенной территории около Переславля-Залесского.
  • Для съемок на Львовском ремонтно-механическом заводе были изготовлены 10 «Тигров» и 8 «Пантер». Министр обороны маршал Малиновский распорядился выделить 100 отечественных танков, которые перекрасили под немецкие, а всего в съёмках участвовало 150 танков. Подобным образом «обзавелись» и самолётами. Например, Як-18 — «в роли» всех советских истребителей, а чешские «Злин-50» — в роли немецких «мессершмитов».
  • В съёмках принимали участие более 3000 солдат. Сами съёмки проходили почти как настоящие сражения: оборудовались штабы, прокладывалась связь, над полем битвы кружили вертолёты, на одном из которых постоянно находился режиссер Юрий Озеров.
  • В 2003 году все пять фильмов цикла «Освобождение» были полностью отреставрированы на киностудии «Мосфильм».
  • Всего в эпопее действует 51 реальный исторический персонаж. Подбор актёров на роли этих персонажей оказался непростым делом. Главная проблема заключалась в том, что на момент съемок практически все прототипы героев были ещё живы. Большинство из них занимали высокие посты и интересовались тем, как будут выглядеть на экране. Нужно было не просто добиться портретного сходства, но и получить согласие самого прототипа (или кураторов съёмок) на изображение на экране этого прототипа, тем или иным актёром.
  • Весь цикл консультировали сотни специалистов и участников тех событий, в том числе полковник фон Вицлебен, племянник фельдмаршала Эрвина фон Вицлебена — участника «заговора генералов» 20 июля 1944 года.
  • Фильм снимался в Восточном Берлине (ГДР).
  • Во время съемок, в городе, начиналась реконструкция одного из центральных районов. Все старые дома предполагалось снести, чтобы на их месте возвести современные здания, поэтому этот район легко отдали под съёмки.
  • Штурм рейхстага снимался по частям. Нашли полуразрушенный собор, фасад и парадная лестница которого очень напоминали рейхстаг. Бои внутри здания сняли на «Мосфильме» и в берлинском Доме техники.
  • Особое место в картине занимает эпизод с затоплением метро. Эти съёмки прошли под Москвой, где на одном из шлюзов Москвы-реки построили декорацию берлинской подземки, куда привезли вывезенные в 1945 году из Берлина вагоны. Затопление «метро» происходило в результате открытия этого шлюза.
  • Всего в картине задействовали 107 советских, 45 немецких, 11 польских артистов, одного итальянца и одного румына.
  • MI

    Общее Уникальный идентификатор : 182966614977402121939566007149328547664 (0x89A6169842C1747E8EB69687D37B3F50) Полное имя : Osvobozhdenie.Part.3.1970.720p.BluRay.Rus.HDCLUB.mkv Формат : Matroska Версия формата : Version 4 / Version 2 Размер файла : 6,34 Гбайт Продолжительность : 2 ч. 10 м. Общий поток : 6949 Кбит/сек Дата кодирования : UTC 2016-12-01 13:34:04 Программа кодирования : mkvmerge v9.5.0 ('Quiet Fire') 32bit Библиотека кодирования : libebml v1.3.4 + libmatroska v1.4.5

    Видео Идентификатор : 2 Формат : AVC Формат/Информация : Advanced Video Codec Профиль формата : [email protected] Параметр CABAC формата : Да Параметр ReFrames формата : 12 кадров Идентификатор кодека : V_MPEG4/ISO/AVC Продолжительность : 2 ч. 10 м. Битрейт : 6586 Кбит/сек Ширина : 1280 пикселей Высота : 544 пикселя Соотношение сторон : 2,35:1 Режим частоты кадров : Постоянный Частота кадров : 24,000 кадра/сек Цветовое пространство : YUV Субдискретизация насыщенности : 4:2:0 Битовая глубина : 8 бит Тип развёртки : Прогрессивная Бит/(Пиксели*Кадры) : 0.394 Размер потока : 6,01 Гбайт (95%) Библиотека кодирования : x264 core 148 r2721kMod 72d53ab Настройки программы : cabac=1 / ref=12 / deblock=1:-3:-3 / analyse=0x3:0x113 / me=umh / subme=11 / psy=1 / fade_compensate=0.00 / psy_rd=1.00:0.00 / mixed_ref=1 / me_range=32 / chroma_me=1 / trellis=2 / 8x8dct=1 / cqm=0 / deadzone=21,11 / fast_pskip=0 / chroma_qp_offset=-3 / threads=12 / lookahead_threads=3 / sliced_threads=0 / nr=0 / decimate=1 / interlaced=0 / bluray_compat=0 / constrained_intra=0 / fgo=0 / bframes=12 / b_pyramid=2 / b_adapt=2 / b_bias=0 / direct=3 / weightb=1 / open_gop=0 / weightp=2 / keyint=230 / keyint_min=23 / scenecut=40 / intra_refresh=0 / rc_lookahead=40 / rc=crf / mbtree=0 / crf=17.5000 / qcomp=0.60 / qpmin=0 / qpmax=69 / qpstep=4 / vbv_maxrate=50000 / vbv_bufsize=62500 / crf_max=0.0 / nal_hrd=none / filler=0 / ip_ratio=1.40 / pb_ratio=1.30 / aq=3:0.80 Язык : English Default : Да Forced : Нет

    Аудио Идентификатор : 1 Формат : AC-3 Формат/Информация : Audio Coding 3 Расширение режима : CM (complete main) Параметр Endianness формата : Big Идентификатор кодека : A_AC3 Продолжительность : 2 ч. 10 м. Вид битрейта : Постоянный Битрейт : 224 Кбит/сек Каналы : 2 канала Расположение каналов : Front: L R Частота : 48,0 КГц Битовая глубина : 16 бит Метод сжатия : С потерями Размер потока : 209 Мбайт (3%) Default : Да Forced : Нет

    Меню 00:00:00.000 : en:00:00:00.000 00:00:15.250 : en:00:00:15.250 00:05:50.958 : en:00:05:50.958 00:10:36.083 : en:00:10:36.083 00:14:42.208 : en:00:14:42.208 00:19:24.875 : en:00:19:24.875 00:24:55.417 : en:00:24:55.417 00:28:55.917 : en:00:28:55.917 00:37:38.375 : en:00:37:38.375 00:40:49.958 : en:00:40:49.958 00:42:44.667 : en:00:42:44.667 00:45:35.792 : en:00:45:35.792 00:47:06.083 : en:00:47:06.083 00:54:00.125 : en:00:54:00.125 01:00:52.625 : en:01:00:52.625 01:10:35.083 : en:01:10:35.083 01:13:08.500 : en:01:13:08.500 01:16:32.292 : en:01:16:32.292 01:20:35.833 : en:01:20:35.833 01:23:37.417 : en:01:23:37.417 01:30:21.833 : en:01:30:21.833 01:32:25.458 : en:01:32:25.458 01:39:41.125 : en:01:39:41.125 01:46:51.542 : en:01:46:51.542 01:54:48.375 : en:01:54:48.375 02:01:35.833 : en:02:01:35.833 02:05:11.083 : en:02:05:11.083 02:08:00.417 : en:02:08:00.417

    Скачать фильм Освобождение через торрент в хорошем качестве бесплатно DVDRip-AVC](Специальное издание

    piratbit.ru

    Размер: 7.96 GB | Добавлен: 2 года 8 мес. назад | Торрент скачан:245 раз
    Реклама Дарим 3000 рублей за регистрацию, не упусти свой шанс получить шикарный бонус!!!

    16-02-2015 07:48 Освобождение Скачать торрент  

    Освобождение

    Год выпуска: 1968, 1969, 1970, 1971Страна: СССР, ГДР, ПольшаПродолжительность: 1:27:54 + 1:24:58 + (0:58:18 + 1:03:54 - две части) + 1:19:00 + 1:11:22 = 7:25:26 (пять фильмов)

    Режиссер: Юрий Озеров

    В ролях: Николай Олялин, Лариса Голубкина, Борис Зайденберг, Сергей Никоненко, Михаил Ульянов, Владлен Давыдов, Василий Шукшин, Евгений Буренков, Дмитрий Франько, Юрий Каморный, Бухути Закариадзе, Михаил Ножкин, Иван Переверзев, Владислав Стржельчик, Анатолий Ромашин, Николай Рыбников, Валерий Носик, Владимир Коренев, Эдуард Изотов, Юрий Легков, Всеволод Санаев, Владимир Самойлов, Игорь Озеров, Сергей Харченко, Николай Рушковский, Константин Забелин, Виктор Авдюшко, Владимир Заманский, Клеон Протасов, Александр Афанасьев, Алексей Глазырин, Пётр Глебов, Григорий Михайлов, Пётр Щербаков, Роман Ткачук, Сергей Ляхницкий, Валерий Карен, Виктор Байков, Николай Боголюбов, Владимир Герасимов, Михаил Глузский, Николай Ерёменко (старший), Петр Любешкин, Иван Миколайчук, Лев Прыгунов, Роман Хомятов, Волдемар Акуратерс, Алексей Алексеев, Вадим Грачёв, Юлия Диоши, Юрий Мартынов, Юрий Померанцев, Михаил Постников, Алексей Преснецов, Олев Эскола, Анатолий Кузнецов, Николай Лебедев (II), Лев Поляков, Александр Смирнов, Александр Барушной, Виктор Борцов, Елизавета Алексеева (II), Леонид Довлатов, Николай Симкин, Юрий Дуров, Виктор Шахов, Иосиф (Сосо) Гогичайшвили, В. Вахлин, Владимир Разумовский, Фриц Диц

    Описание: Масштабная историческая киноэпопея Юрия Озерова «Освобождение»Полная реставрация изображения и звука.

    Фильм первый — «Огненная Дуга» повествует о грандиозной битве на Курской дуге летом 1943 года. Здесь произошло самое крупное в истории Второй мировой войны танковое сражение. Наряду с личными судьбами героев в фильме показаны батальные сцены, деятельность штабов и разведок, тех, кто трудился на фронте и в тылу.Видео: MPEG-4 AVC Video(х264), [email protected], 2.367:1, 25.0 fps, 1876 Kbps, 0.337 bit/pixelАудио: AC-3 448 Кбит/сек,6 каналов, 48,0 КГцEncoding video to: D:\освобождение\Новая папка\disc1_T03.mkvx264 Q17.2 704x316 25.000fps (131850 frames)

    x264.exe: --crf 17.2 --preset veryslow --ref 12 --aq-strength 0.8 --deblock -2:-2 --merange 32 --bframes 10 --direct spatial --psy-rd 1.05:0.10 --qcomp 0.80 --subme 11 --no-mbtree --sar 67:63 --output "D:\освобождение\Новая папка\disc1_T03.mkv" "D:\Temp\0062.avs"

    [avi @ 0382ed00] non-interleaved AVIavs [info]: 704x316p 67:63 @ 25/1 fps (cfr)x264 [info]: using SAR=67/63x264 [info]: using cpu capabilities: MMX2 SSE2Fast FastShuffle SSEMisalign LZCNTx264 [info]: profile High, level 3.1

    x264 [info]: frame I:637 Avg QP:17.19 size: 42517x264 [info]: frame P:28464 Avg QP:18.54 size: 19836x264 [info]: frame B:102749 Avg QP:20.62 size: 6571x264 [info]: consecutive B-frames: 1.0% 3.1% 7.3% 24.2% 18.6% 36.1% 5.8% 2.3% 0.9% 0.5% 0.2%x264 [info]: mb I I16..4: 9.8% 64.7% 25.5%x264 [info]: mb P I16..4: 0.6% 14.3% 1.7% P16..4: 26.3% 34.5% 18.1% 3.9% 0.4% skip: 0.2%x264 [info]: mb B I16..4: 0.0% 1.7% 0.1% B16..8: 34.4% 24.5% 5.0% direct:11.5% skip:22.9% L0:34.6% L1:36.2% BI:29.2%x264 [info]: 8x8 transform intra:86.5% inter:54.0%x264 [info]: coded y,uvDC,uvAC intra: 99.7% 61.3% 30.0% inter: 49.7% 24.9% 1.3%x264 [info]: i16 v,h,dc,p: 4% 9% 34% 53%x264 [info]: i8 v,h,dc,ddl,ddr,vr,hd,vl,hu: 8% 11% 12% 9% 12% 10% 13% 10% 14%x264 [info]: i4 v,h,dc,ddl,ddr,vr,hd,vl,hu: 12% 14% 3% 8% 14% 12% 14% 10% 13%x264 [info]: i8c dc,h,v,p: 27% 39% 17% 17%x264 [info]: Weighted P-Frames: Y:45.4% UV:23.4%x264 [info]: ref P L0: 39.8% 16.5% 15.0% 7.3% 4.8% 3.9% 3.1% 2.1% 1.9% 1.7% 1.6% 1.6% 0.7% 0.1%x264 [info]: ref B L0: 79.9% 9.0% 3.4% 2.1% 1.4% 1.3% 1.0% 0.7% 0.6% 0.4% 0.2%x264 [info]: ref B L1: 96.4% 3.6%x264 [info]: kb/s:1921.62

    x264 [total]: encoded 131850 frames, 15.24 fps, 1921.62 kb/s

    Уникальный идентификатор : 174015761980330974232832970588753383414 (0x82EA37784BE40A1A8998CB42F45E4FF6)Полное имя : D:\освобождение\Osvobozdenie\1 Ognennaya duga\Огненная дуга.mkvФормат : MatroskaВерсия формата : Version 2Размер файла : 1,46 ГбайтПродолжительность : 1 ч. 27 м.Общий поток : 2371 Кбит/секДата кодирования : UTC 2012-11-13 03:02:20Программа кодирования : mkvmerge v3.4.0 ('Rapunzel') сборка от May 15 2010 09:38:20Библиотека кодирования : libebml v0.8.0 + libmatroska v0.9.0

    ВидеоИдентификатор : 1Формат : AVCФормат/Информация : Advanced Video CodecПрофиль формата : [email protected]Параметр CABAC формата : ДаПараметр ReFrames формата : 12 кадровИдентификатор кодека : V_MPEG4/ISO/AVCПродолжительность : 1 ч. 27 м.Битрейт : 1876 Кбит/секШирина : 704 пикселяВысота : 316 пикселейСоотношение сторон : 2,35:1Соотношение сторон в оригинале : 2,35:1Режим частоты кадров : ПостоянныйЧастота кадров : 25,000 кадров/секЦветовое пространство : YUVСубдискретизация насыщенности : 4:2:0Битовая глубина : 8 битТип развёртки : ПрогрессивнаяБит/(Пиксели*Кадры) : 0.337Размер потока : 1,15 Гбайт (79%)Библиотека кодирования : x264 core 125 r2208 d9d2288Настройки программы : cabac=1 / ref=12 / deblock=1:-2:-2 / analyse=0x3:0x133 / me=umh / subme=11 / psy=1 / psy_rd=1.05:0.10 / mixed_ref=1 / me_range=32 / chroma_me=1 / trellis=2 / 8x8dct=1 / cqm=0 / deadzone=21,11 / fast_pskip=1 / chroma_qp_offset=-3 / threads=9 / lookahead_threads=1 / sliced_threads=0 / nr=0 / decimate=1 / interlaced=0 / bluray_compat=0 / constrained_intra=0 / bframes=10 / b_pyramid=2 / b_adapt=2 / b_bias=0 / direct=1 / weightb=1 / open_gop=0 / weightp=2 / keyint=250 / keyint_min=25 / scenecut=40 / intra_refresh=0 / rc=crf / mbtree=0 / crf=17.2 / qcomp=0.80 / qpmin=0 / qpmax=69 / qpstep=4 / ip_ratio=1.40 / pb_ratio=1.30 / aq=1:0.80Язык : EnglishDefault : НетForced : Нет

    АудиоИдентификатор : 2Формат : AC-3Формат/Информация : Audio Coding 3Расширение режима : CM (complete main)Параметр Endianness формата : BigИдентификатор кодека : A_AC3Продолжительность : 1 ч. 27 м.Вид битрейта : ПостоянныйБитрейт : 448 Кбит/секКаналы : 6 каналовРасположение каналов : Front: L C R, Side: L R, LFEЧастота : 48,0 КГцБитовая глубина : 16 битМетод сжатия : С потерямиРазмер потока : 282 Мбайт (19%)Default : ДаForced : Нет

    Фильм второй — «Прорыв» посвящен битве за Днепр и наступательной операции советских войск в 1944 г. В центре этого фильма судьба батальона, сражавшегося на этом плацдарме.Видео: MPEG-4 AVC Video(х264), [email protected], 2.377:1, 25.0 fps, 1932 Kbps, 0.347 bit/pixelАудио: AC-3 448 Кбит/сек,6 каналов, 48,0 КгцУникальный идентификатор : 253352860528066094023252014545366022997 (0xBE99FC6E58137F8AB87F81119981FB55)Полное имя : D:\освобождение\Osvobozdenie\2 Proryv\Прорыв.mkvФормат : MatroskaВерсия формата : Version 2Размер файла : 1,44 ГбайтПродолжительность : 1 ч. 24 м.Общий поток : 2429 Кбит/секДата кодирования : UTC 2012-11-16 14:51:08Программа кодирования : mkvmerge v3.4.0 ('Rapunzel') сборка от May 15 2010 09:38:20Библиотека кодирования : libebml v0.8.0 + libmatroska v0.9.0

    ВидеоИдентификатор : 1Формат : AVCФормат/Информация : Advanced Video CodecПрофиль формата : [email protected]Параметр CABAC формата : ДаПараметр ReFrames формата : 12 кадровИдентификатор кодека : V_MPEG4/ISO/AVCПродолжительность : 1 ч. 24 м.Битрейт : 1932 Кбит/секШирина : 704 пикселяВысота : 316 пикселейСоотношение сторон : 2,40:1Соотношение сторон в оригинале : 2,40:1Режим частоты кадров : ПостоянныйЧастота кадров : 25,000 кадров/секЦветовое пространство : YUVСубдискретизация насыщенности : 4:2:0Битовая глубина : 8 битТип развёртки : ПрогрессивнаяБит/(Пиксели*Кадры) : 0.347Размер потока : 1,15 Гбайт (80%)Библиотека кодирования : x264 core 125 r2208 d9d2288Настройки программы : cabac=1 / ref=12 / deblock=1:-2:-2 / analyse=0x3:0x113 / me=umh / subme=11 / psy=1 / psy_rd=1.05:0.10 / mixed_ref=1 / me_range=32 / chroma_me=1 / trellis=2 / 8x8dct=1 / cqm=0 / deadzone=21,11 / fast_pskip=1 / chroma_qp_offset=-3 / threads=9 / lookahead_threads=1 / sliced_threads=0 / nr=0 / decimate=1 / interlaced=0 / bluray_compat=0 / constrained_intra=0 / bframes=10 / b_pyramid=2 / b_adapt=2 / b_bias=0 / direct=1 / weightb=1 / open_gop=0 / weightp=2 / keyint=250 / keyint_min=25 / scenecut=40 / intra_refresh=0 / rc=crf / mbtree=0 / crf=17.3 / qcomp=0.80 / qpmin=0 / qpmax=69 / qpstep=4 / ip_ratio=1.40 / pb_ratio=1.30 / aq=1:0.80Язык : EnglishDefault : НетForced : Нет

    АудиоИдентификатор : 2Формат : AC-3Формат/Информация : Audio Coding 3Расширение режима : CM (complete main)Параметр Endianness формата : BigИдентификатор кодека : A_AC3Продолжительность : 1 ч. 24 м.Вид битрейта : ПостоянныйБитрейт : 448 Кбит/секКаналы : 6 каналовРасположение каналов : Front: L C R, Side: L R, LFEЧастота : 48,0 КГцБитовая глубина : 16 битМетод сжатия : С потерямиРазмер потока : 272 Мбайт (18%)Default : ДаForced : Нет

    Фильм третий — «Направление главного удара» посвящен операции «Багратион», в результате которой была полностью освобождена от фашистских войск Белоруссия, и войска Советской армии вышли к государственной границе.Видео: MPEG-4 AVC Video(х264), [email protected], 2,35:1, 25.0 fps, 2077 Kbps, 0.352 bit/pixelАудио: AC-3 448 Кбит/сек,6 каналов, 48,0 КГцУникальный идентификатор : 205921620055384435954489142078659329120 (0x9AEB0FB99F9CB9F39642F47C6FB77C60)Полное имя : D:\освобождение\Osvobozdenie\3 Napravlenie_glavnogo_udara\Направление_главного_удара.mkvФормат : MatroskaВерсия формата : Version 2Размер файла : 2,20 ГбайтПродолжительность : 2 ч. 2 м.Общий поток : 2576 Кбит/секДата кодирования : UTC 2012-11-20 12:37:34Программа кодирования : mkvmerge v3.4.0 ('Rapunzel') сборка от May 15 2010 09:38:20Библиотека кодирования : libebml v0.8.0 + libmatroska v0.9.0

    ВидеоИдентификатор : 1Формат : AVCФормат/Информация : Advanced Video CodecПрофиль формата : [email protected]Параметр CABAC формата : ДаПараметр ReFrames формата : 12 кадровИдентификатор кодека : V_MPEG4/ISO/AVCПродолжительность : 2 ч. 2 м.Битрейт : 2077 Кбит/секШирина : 720 пикселейВысота : 328 пикселейСоотношение сторон : 2,35:1Соотношение сторон в оригинале : 2,35:1Режим частоты кадров : ПостоянныйЧастота кадров : 25,000 кадров/секЦветовое пространство : YUVСубдискретизация насыщенности : 4:2:0Битовая глубина : 8 битТип развёртки : ПрогрессивнаяБит/(Пиксели*Кадры) : 0.352Размер потока : 1,77 Гбайт (81%)Библиотека кодирования : x264 core 125 r2208 d9d2288Настройки программы : cabac=1 / ref=12 / deblock=1:-2:-2 / analyse=0x3:0x133 / me=umh / subme=11 / psy=1 / psy_rd=1.05:0.10 / mixed_ref=1 / me_range=32 / chroma_me=1 / trellis=2 / 8x8dct=1 / cqm=0 / deadzone=21,11 / fast_pskip=1 / chroma_qp_offset=-3 / threads=9 / lookahead_threads=1 / sliced_threads=0 / nr=0 / decimate=1 / interlaced=0 / bluray_compat=0 / constrained_intra=0 / bframes=10 / b_pyramid=2 / b_adapt=2 / b_bias=0 / direct=1 / weightb=1 / open_gop=0 / weightp=2 / keyint=250 / keyint_min=25 / scenecut=40 / intra_refresh=0 / rc=crf / mbtree=0 / crf=17.2 / qcomp=0.80 / qpmin=0 / qpmax=69 / qpstep=4 / ip_ratio=1.40 / pb_ratio=1.30 / aq=1:0.80Язык : EnglishDefault : НетForced : Нет

    АудиоИдентификатор : 2Формат : AC-3Формат/Информация : Audio Coding 3Расширение режима : CM (complete main)Параметр Endianness формата : BigИдентификатор кодека : A_AC3Продолжительность : 2 ч. 2 м.Вид битрейта : ПостоянныйБитрейт : 448 Кбит/секКаналы : 6 каналовРасположение каналов : Front: L C R, Side: L R, LFEЧастота : 48,0 КГцБитовая глубина : 16 битМетод сжатия : С потерямиРазмер потока : 392 Мбайт (17%)Default : ДаForced : Нет

    Фильм четвертый — «Битва за Берлин». 1945 г. Последние месяцы войны. Именно в эти дни решалась судьба порабощенной Европы. Началась Висло-Одерская операция. Три фронта под командованием Конева, Жукова и Рокоссовского устремились к столице Германии. К Берлину идут и англо-американские войска. «Опередить русских», — предлагает Черчиль и начинаются тайные переговоры с эмиссарами Гитлера, разоблаченные Ялтинской конференцией. Судьба Берлина решится на полях сражений.Видео: MPEG-4 AVC Video(х264), [email protected], 2,35:1, 25.0 fps, 2077 Kbps, 0.352 bit/pixelАудио: AC-3 448 Кбит/сек,6 каналов, 48,0 КГцУникальный идентификатор : 190888141039958331165352971250843370850 (0x8F9BB7FBC9AD793FAA60BF3A58C5C562)Полное имя : D:\освобождение\Osvobozdenie\4 Bitva_za_Berlin\Битва за Берлин.mkvФормат : MatroskaВерсия формата : Version 2Размер файла : 1,42 ГбайтПродолжительность : 1 ч. 19 м.Общий поток : 2576 Кбит/секДата кодирования : UTC 2012-11-23 04:53:38Программа кодирования : mkvmerge v3.4.0 ('Rapunzel') сборка от May 15 2010 09:38:20Библиотека кодирования : libebml v0.8.0 + libmatroska v0.9.0

    ВидеоИдентификатор : 1Формат : AVCФормат/Информация : Advanced Video CodecПрофиль формата : [email protected]Параметр CABAC формата : ДаПараметр ReFrames формата : 12 кадровИдентификатор кодека : V_MPEG4/ISO/AVCПродолжительность : 1 ч. 19 м.Битрейт : 2077 Кбит/секШирина : 720 пикселейВысота : 328 пикселейСоотношение сторон : 2,35:1Соотношение сторон в оригинале : 2,35:1Режим частоты кадров : ПостоянныйЧастота кадров : 25,000 кадров/секЦветовое пространство : YUVСубдискретизация насыщенности : 4:2:0Битовая глубина : 8 битТип развёртки : ПрогрессивнаяБит/(Пиксели*Кадры) : 0.352Размер потока : 1,15 Гбайт (81%)Библиотека кодирования : x264 core 125 r2208 d9d2288Настройки программы : cabac=1 / ref=12 / deblock=1:-2:-2 / analyse=0x3:0x133 / me=umh / subme=11 / psy=1 / psy_rd=1.05:0.10 / mixed_ref=1 / me_range=32 / chroma_me=1 / trellis=2 / 8x8dct=1 / cqm=0 / deadzone=21,11 / fast_pskip=1 / chroma_qp_offset=-3 / threads=9 / lookahead_threads=1 / sliced_threads=0 / nr=0 / decimate=1 / interlaced=0 / bluray_compat=0 / constrained_intra=0 / bframes=10 / b_pyramid=2 / b_adapt=2 / b_bias=0 / direct=1 / weightb=1 / open_gop=0 / weightp=2 / keyint=250 / keyint_min=25 / scenecut=40 / intra_refresh=0 / rc=crf / mbtree=0 / crf=17.2 / qcomp=0.80 / qpmin=0 / qpmax=69 / qpstep=4 / ip_ratio=1.40 / pb_ratio=1.30 / aq=1:0.80Язык : EnglishDefault : НетForced : Нет

    АудиоИдентификатор : 2Формат : AC-3Формат/Информация : Audio Coding 3Расширение режима : CM (complete main)Параметр Endianness формата : BigИдентификатор кодека : A_AC3Продолжительность : 1 ч. 19 м.Вид битрейта : ПостоянныйБитрейт : 448 Кбит/секКаналы : 6 каналовРасположение каналов : Front: L C R, Side: L R, LFEЧастота : 48,0 КГцБитовая глубина : 16 битМетод сжатия : С потерямиРазмер потока : 253 Мбайт (17%)Default : ДаForced : Нет

    Фильм пятый — «Последний штурм». Последние дни войны, штурм рейхстага, сражение за каждый метр, за каждый этаж — и, наконец, водружение Знамени Победы над рейхстагом. Раздались первые залпы Победы.Видео: MPEG-4 AVC Video(х264), [email protected], 2,35:1, 25.0 fps, 2395 Kbps, 0.406 bit/pixelАудио: AC-3 448 Кбит/сек,6 каналов, 48,0 КГцУникальный идентификатор : 204652191550230599378057949785939756917 (0x99F694114EF74D34AD35009DDDC7C775)Полное имя : D:\освобождение\Osvobozdenie\5 Poslednij_shturm\Последний штурм.mkvФормат : MatroskaВерсия формата : Version 2Размер файла : 1,45 ГбайтПродолжительность : 1 ч. 11 м.Общий поток : 2901 Кбит/секДата кодирования : UTC 2012-11-24 05:49:30Программа кодирования : mkvmerge v3.4.0 ('Rapunzel') сборка от May 15 2010 09:38:20Библиотека кодирования : libebml v0.8.0 + libmatroska v0.9.0

    ВидеоИдентификатор : 1Формат : AVCФормат/Информация : Advanced Video CodecПрофиль формата : [email protected]Параметр CABAC формата : ДаПараметр ReFrames формата : 12 кадровИдентификатор кодека : V_MPEG4/ISO/AVCПродолжительность : 1 ч. 11 м.Битрейт : 2395 Кбит/секШирина : 720 пикселейВысота : 328 пикселейСоотношение сторон : 2,35:1Соотношение сторон в оригинале : 2,35:1Режим частоты кадров : ПостоянныйЧастота кадров : 25,000 кадров/секЦветовое пространство : YUVСубдискретизация насыщенности : 4:2:0Битовая глубина : 8 битТип развёртки : ПрогрессивнаяБит/(Пиксели*Кадры) : 0.406Размер потока : 1,19 Гбайт (83%)Библиотека кодирования : x264 core 125 r2208 d9d2288Настройки программы : cabac=1 / ref=12 / deblock=1:-2:-2 / analyse=0x3:0x133 / me=umh / subme=11 / psy=1 / psy_rd=1.05:0.10 / mixed_ref=1 / me_range=32 / chroma_me=1 / trellis=2 / 8x8dct=1 / cqm=0 / deadzone=21,11 / fast_pskip=1 / chroma_qp_offset=-3 / threads=9 / lookahead_threads=1 / sliced_threads=0 / nr=0 / decimate=1 / interlaced=0 / bluray_compat=0 / constrained_intra=0 / bframes=10 / b_pyramid=2 / b_adapt=2 / b_bias=0 / direct=1 / weightb=1 / open_gop=0 / weightp=2 / keyint=250 / keyint_min=25 / scenecut=40 / intra_refresh=0 / rc=crf / mbtree=0 / crf=17.2 / qcomp=0.80 / qpmin=0 / qpmax=69 / qpstep=4 / ip_ratio=1.40 / pb_ratio=1.30 / aq=1:0.80Язык : EnglishDefault : НетForced : Нет

    АудиоИдентификатор : 2Формат : AC-3Формат/Информация : Audio Coding 3Расширение режима : CM (complete main)Параметр Endianness формата : BigИдентификатор кодека : A_AC3Продолжительность : 1 ч. 11 м.Вид битрейта : ПостоянныйБитрейт : 448 Кбит/секКаналы : 6 каналовРасположение каналов : Front: L C R, Side: L R, LFEЧастота : 48,0 КГцБитовая глубина : 16 битМетод сжатия : С потерямиРазмер потока : 229 Мбайт (15%)Default : ДаForced : Нет

    Скачать Освобождение через торрент http://pic1.pb.wtf/images/9/nyd5v.jpg Скачать фильм Освобождение через торрент бесплантно в хорошем качестве Описание: Масштабная историческая киноэпопея Юрия Озерова «Освобождение»Полная реставрация изображения и ... 2015-02-16 07:48 10 10 18

    Loading...

    Loading...

    Рекламный пират

    Дорогой пользователь! Огромная просьба, поблагодарите релизера, оцените раздачу и оставьте свои комментарий, если Вы скачали Освобождение через торрент бесплатно! Внесите свою лепту в развитие PiratBit!

    Комментировать посты могут только пользователи прошедшие не сложную регистрацию

    Освобождение через торрент Скачать бесплатно Освобождение Освобождение скачать торрент Освобождение смотреть онлайн Cкачать фильм Освобождение бесплатно Освобождение скачать торрент в хорошем качестве Освобождение смотреть онлайн бесплатно в хорошем качестве

    Вы не можете начинать темыВы не можете отвечать на сообщенияВы не можете редактировать свои сообщенияВы не можете удалять свои сообщенияВы не можете голосовать в опросахВы не можете прикреплять файлы к сообщениямВы можете скачивать файлы

    Скачать фильм Освобождение через торрент в хорошем качестве бесплатно DVDRip

    piratbit.ru

    Размер: 7.51 GB | Добавлен: 5 лет 5 мес. назад | Торрент скачан:283 раза
    Реклама Дарим 3000 рублей за регистрацию, не упусти свой шанс получить шикарный бонус!!!

    02-05-2012 16:51 Освобождение Скачать торрент  

    Освобождение (Юрий Озеров) [1968-1971 г. Военный, DVDRip](киноэпопея)

    Год выпуска: 1968-1971 годЖанр: ВоенныйПродолжительность: 5 x ~ 01:29:06

    Режиссер: Юрий Озеров

    В ролях: Михаил Ульянов, Николай Олялин, Лариса Голубкина, Борис Зайденберг, Сергей Никоненко, Всеволод Санаев, Владимир Самойлов, Барбара Брыльска

    Описание: Масштабная историческая киноэпопея Юрия Озерова «Освобождение» состоит из пяти фильмов и повествует о событиях Великой Отечественной войны, где наряду с подлинными историческими лицами действуют вымышленные герои...Фильм первый "Огненная Дуга" 1968г.Фильм повествует о грандиозной битве на Курской дуге летом 1943 г. Здесь произошло самое крупное в истории Второй мировой войны танковое сражение. Наряду с личными судьбами героев в фильме показаны батальные сцены, деятельность штабов и разведок, тех, кто трудился на фронте и в тылу.Фильм второй "Прорыв" 1968г.Фильм посвящен битве за Днепр и наступательной операции советских войск в 1944 г. В центре этого фильма судьба батальона, сражавшегося на этом плацдарме.Фильм третий "Направление главного удара" 1970г. 2 части.Фильм посвящен операции "Багратион", в результате которой была полностью освобождена от фашистских войск Белоруссия, и войска Советской армии вышли к государственной границе...Фильм четвертый "Битва за Берлин" 1971г.1945 г. Последние месяцы войны. Именно в эти дни решалась судьба порабощенной Европы. Началась Висло-Одерская операция. Три фронта под командованием Конева, Жукова и Рокоссовского устремились к столице Германии. К Берлину идут и англо-американские войска. "Опередить русских", - предлагает Черчиль и начинаются тайные переговоры с эмиссарами Гитлера, разоблаченные Ялтинской конференцией. Судьба Берлина решится на полях сражений.Фильм пятый "Последний штурм" 1971г.Последние дни войны, штурм рейхстага, сражение за каждый метр, за каждый этаж - и, наконец, водружение Знамени Победы над рейхстагом. Раздались первые залпы Победы. Главные герои фильма встречаются у входа в рейхстаг.

    Доп. информация: Киновидеообъединение "Крупный план" 2004 г. Полная реставрация изображения и звука.Выпущено: Мосфильм

    Качество: DVDRipФормат: AVIВидео кодек: XviDАудио кодек: AC3Видео: Xvid 688x288 25.00fps 1766KbpsАудио: Dolby AC3 48000Hz 6ch 448Kbps Скачать Освобождение через торрент http://portal.esoo.ru/tp2/pictures/38defb7edd8f73e345f4d71c2eb3457e.jpg Скачать фильм Освобождение через торрент бесплантно в хорошем качестве Описание: Масштабная историческая киноэпопея Юрия Озерова «Освобождение» состоит из пяти фильмов и повествует о событиях Великой ... 2012-05-02 16:51 10 10 10

    Loading...

    Loading...

    Рекламный пират

    02-05-2012 18:00 Освобождение Скачать торрент  

    serepon82Такие раздачи оформляются как http://pb.wtf/viewforum.php?f=171http://pb.wtf/topic/58124Это дополнительная информация для тех пользователей, которые оформляют (несколько сезонов одной папкой), сборники, фильмографию!

    При оформлении таких раздач, требования в оформлении остаются те же, что приведены выше . За исключением. Каждый фильм оформляется отдельно и прячется в спойлер.

    Последний раз редактировалось: -=Cherry=- (2012-05-04 11:37), всего редактировалось 1 раз

    02-05-2012 19:15 Освобождение Скачать торрент  

    Спасибо за патриотические фильмы о нашей Родине!

    12-03-2014 18:33 Освобождение Скачать торрент  

    Спасибо!Такие фильмы надо пересматривать всегда,чтобы помнить, как пытались нас нагнуть,и как наши деды нагнули их !

    20-10-2015 09:46 Освобождение Скачать торрент  

    Дорогой пользователь! Огромная просьба, поблагодарите релизера, оцените раздачу и оставьте свои комментарий, если Вы скачали Освобождение через торрент бесплатно! Внесите свою лепту в развитие PiratBit!

    Комментировать посты могут только пользователи прошедшие не сложную регистрацию

    Освобождение через торрент Скачать бесплатно Освобождение Освобождение скачать торрент Освобождение смотреть онлайн Cкачать фильм Освобождение бесплатно Освобождение скачать торрент в хорошем качестве Освобождение смотреть онлайн бесплатно в хорошем качестве

    Вы не можете начинать темыВы не можете отвечать на сообщенияВы не можете редактировать свои сообщенияВы не можете удалять свои сообщенияВы не можете голосовать в опросахВы не можете прикреплять файлы к сообщениямВы можете скачивать файлы

    Освобождение торрент скачать | Скачать торренты в BDRip и HDRip качестве

    Джанго освобожденный / Django Unchained (Квентин Тарантино) [2012 г., драма, комедия, приключения, вестерн, BDRip] Dub1.46 GBДжанго освобожденный / Django Unchained (Квентин Тарантино / Quentin Tarantino) [2012, Драма, вестерн, комедия, приключения, BDRip] Dub1.46 GBДжанго освобожденный / Django Unchained / 2012 / ДБ / HDRip / 2.74 ГБ2.74 GBДжанго освобожденный / Django Unchained (Квентин Тарантино / Quentin Tarantino) [2012, США, драма, вестерн, комедия, приключения, BDRip 1080p] Dub + AVO (Живов) + AVO (Сербин) + VO (Doctor Joker) + Original (Eng) + Subs25.4 GBОсвобождение Европы [01-02 из 05] (2016) HDTVRip от GeneralFilm1.4 GBДжанго освобожденный / Django Unchained (Квентин Тарантино / Quentin Tarantino) [2012, США, драма, вестерн, комедия, приключения, BDRip-AVC] Dub + Original (Eng) + Sub (Rus, Eng)2.18 GBДжанго освобожденный / Django Unchained (Квентин Тарантино / Quentin Tarantino) [2012, США, драма, вестерн, комедия, приключения, BDRip 1080p]25.4 GBДжанго освобожденный / Django Unchained (Квентин Тарантино / Quentin Tarantino) [2012, США, драма, вестерн, комедия, приключения, BDRip 720p] Dub + 2x AVO + VO + Sub Rus, Eng + Original Eng10.05 GB(Soundtrack) Джанго освобожденный / Django Unchained - 2012, MP3, 320 kbps125.3 MBДжанго освобожденный / Django Unchained / 2012 / ДБ, ПО, АП (Сербин, Живов, Дольский, Чадов), СТ / BDRip (720p) / 9.98 ГБ9.98 GBОсвобождение (1968-1971) DVDRip [Реставрация КП]6.87 GBКремень. Освобождение [01-04 из 04] (2013) DVDRip от MAGNAT231 | КПК798.2 MB[Сборник] Assassin's Creed: Сага о Новом Свете (Assassin's Creed III + Assassin’s Creed IV: Black Flag / Assassin's Creed IV: Чёрный флаг + Assassin's Creed: Liberation HD / Assassin's Creed: Освобождение HD) [L] [RUS / RUS] (2014) (1.0) [1С]40.75 GBДжанго освобожденный / Django Unchained / 2012 / ДБ / HDRip / 1.46 ГБ1.46 GBОсвобождение: Прорыв (1969) WEB-DL [H.264/1080p-LQ]4.05 GBОсвобождение: Последний штурм (1971) WEB-DL [H.264/1080p-LQ]4.09 GBОсвобождение: Битва за Берлин (1971) WEB-DL [H.264/1080p-LQ]4.07 GBОсвобождение: Направление главного удара (1970) WEB-DL [H.264/1080p-LQ]3.95 GBОсвобождение (Юрий Озеров) [1968, 1969, 1970, 1971, Военный, DVDRip-AVC]7.96 GBОсвобождение: Огненная дуга (1968) WEB-DL [H.264/1080p-LQ]4.04 GBКиноэпопея: Освобождение (1968-1971) BDRip [H.264/1080p]49.4 GB(Soundtrack) Джанго освобожденный / Django Unchained - 2012, FLAC (tracks+.cue), lossless323.1 MBКремень. Освобождение (1-4 серии из 4) / 2013 / РУ / DVDRip / 3.1 ГБ3.1 GBОсвобождение (5 фильмов из 5) / 1968-1971 / РУ / BDRip / 7.27 ГБ7.27 GBОсвобождение [01-05 из 05] (1968-1971) DVDRip-AVC от ExKinoRay7.92 GBОсвобождение (киноэпопея) (Юрий Озеров) [1968-1971, СССР, Югославия, Италия, Польша, ГДР, киноэпопея, военный, исторический, HDTVRip 720p] + Original Rus13.19 GBОсвобождение [01-05 из 05] (1968-1971) DVDRip-AVC от ExKinoRay7.92 GBКремень. Освобождение [01-04 из 04] (2013) DVDRip от New-Team | лицензия3.1 GBОсвобождение (5 фильмов из 5) / 1968-1971 / РУ / DVDRip (AVC) / 7.19 ГБ7.19 GBДжанго освобожденный / Django Unchained (Квентин Тарантино / Quentin Tarantino) [2012, США, драма, вестерн, комедия, приключения, BDRip] Dub + Original Eng + Subs (multi)2.91 GBДжанго освобожденный / Django Unchained (Квентин Тарантино / Quentin Tarantino) [2012, США, драма, вестерн, комедия, приключения, BDRip-AVC] Dub1.46 GBОсвобождение [01-05 из 05] (1968-1971) DVDRip4.1 GBOrder of War: Освобождение​ (2009) РС | RePack от от xatab2.08 GBОсвобождение (Юрий Озеров) [1968, 1969, 1970, 1971 г., драма, военный, DVDRip-AVC]7.96 GBКремень. Освобождение / Серии: 1-4 из 4 (Владимир Епифанцев) [2013, боевик, криминал, DVDRip]2.31 GBОсвобождение. Фильм пятый. Последний штурм (Юрий Озеров) [1971, Военный, DVDRip]1.1 GBДжанго освобожденный / Django Unchained / 2012 / ДБ, 6 x ЛО, АП (Сербин, Живов, Чадов, Дольский), ПО, СТ / BDRip (1080p) / 19.87 ГБ19.87 GBОсвобождение. Фильм четвертый. Битва за Берлин (Юрий Озеров) [1970, Военный, DVDRip]1.22 GBОсвобождение. Фильм первый. Огненная дуга (Юрий Озеров) [1968, Военный, DVDRip]1.36 GBКомпернолле Т. - Мозг освобожденный.Как предотвратить перегрузки и использовать свой потенциал на полную мощь. [2015, EPUB, RUS]4 MBОсвобождение. Прорыв (1969) DVDRip от Русфильм1.37 GBАдьяшанти - Конец твоего мира и Путь освобождения [Nikosho, (ЛИ), 2013 г., 192 kbps, MP3]834.6 MBОсвобождение / Фильмы 1-5 Огненная Дуга, Прорыв, Направление главного удара, Битва за Берлин, Последний штурм (Юрий Озеров) [1968-1971, СССР, драма, мелодрама, военный, BDRemux 1080p] [Remastered Edition] [GER Transfer] Original Rus96.25 GBОсвобождение (5 фильмов из 5) / 1968-1971 / РУ / DVDRip / 7.53 ГБ7.53 GBДжанго освобожденный / Django Unchained (Квентин Тарантино / Quentin Tarantino) [2012, США, драма, вестерн, комедия, приключения, BDRip, 480p] Dub + Original + sub (rus, eng)2.04 GBОсвобождение (5 фильмов из 5) / 1968-1971 / РУ / BDRip (720p) / 19.62 ГБ19.62 GBОсвобождение. Фильм второй. Прорыв (Юрий Озеров) [1969, драма, военный, BDRip-AVC]1.45 GB[VIDEO] Джанго освобожденный / Django Unchained (Квентин Тарантино / Quentin Tarantino) [2012, драма, вестерн, приключения, комедия, BDRip] [MP4, 1280x]3.47 GBОсвобождение. Фильм второй. Прорыв (Юрий Озеров) [1969, Военный, DVDRip]1.31 GBИзбавление / Освобождение / Deliverance (Джон Бурмен / John Boorman) [1972, США, триллер, драма, приключения, BDRip] MVO + Original Eng + Sub Rus, Eng2.18 GB tparser.org – торрент поисковик по популярным торрент трекерам. Находить и скачивать новинки кино в HDRip и BDRip качестве через tparser намного проще! Добро пожаловать на крупный торрент архив фильмов и игр tparser.org. Вам больше не придется искать торренты на основных торрент трекерах в поисках нужной раздачи – мы предлагаем найти и скачать фильмы в хорошем качестве прямо на нашем сайте. Наш сервис поиска торрентов в реальном времени собирает информацию с крупных торрент трекеров и сортирует полученные результаты в удобную таблицу. Скачивайте торренты без ограничений и без всяких регистраций на трекерах. Начните скачивать торрент Освобождение прямо сейчас!

    tparser.org


    Смотрите также