Остров проклятых скачать через торрент в хорошем качестве


Скачать фильм Остров проклятых через торрент в хорошем качестве бесплатно HDRip-AVC

Формат : MatroskaВерсия формата : Version 4 / Version 2Размер файла : 2,22 ГбайтПродолжительность : 2 ч. 18 м.Общий поток : 2303 Кбит/секНазвание фильма : Shutter Island (2010) HDRip-AVC kepДата кодирования : UTC 2013-12-08 06:26:58Программа кодирования : mkvmerge v6.6.0 ('The Edge Of The In Between') built on Dec 1 2013 17:55:00Библиотека кодирования : libebml v1.3.0 + libmatroska v1.4.1

ВидеоИдентификатор : 1Формат : AVCФормат/Информация : Advanced Video CodecПрофиль формата : [email protected]Параметр CABAC формата : ДаПараметр ReFrames формата : 9 кадровИдентификатор кодека : V_MPEG4/ISO/AVCПродолжительность : 2 ч. 18 м.Битрейт : 1853 Кбит/секШирина : 944 пикселяВысота : 400 пикселейСоотношение сторон : 2,35:1Режим частоты кадров : ПостоянныйЧастота кадров : 23,976 кадра/секЦветовое пространство : YUVСубдискретизация насыщенности : 4:2:0Битовая глубина : 8 битТип развёртки : ПрогрессивнаяБит/(Пиксели*Кадры) : 0.205Размер потока : 1,75 Гбайт (79%)Заголовок : Rip ot kepБиблиотека кодирования : x264 core 138 r2358 9e941d1Настройки программы : cabac=1 / ref=9 / deblock=1:-2:-1 / analyse=0x3:0x133 / me=umh / subme=9 / psy=0 / mixed_ref=1 / me_range=24 / chroma_me=1 / trellis=2 / 8x8dct=1 / cqm=0 / deadzone=21,11 / fast_pskip=0 / chroma_qp_offset=0 / threads=3 / lookahead_threads=1 / sliced_threads=0 / nr=0 / decimate=0 / interlaced=0 / bluray_compat=0 / constrained_intra=0 / bframes=3 / b_pyramid=2 / b_adapt=2 / b_bias=0 / direct=3 / weightb=1 / open_gop=0 / weightp=2 / keyint=240 / keyint_min=23 / scenecut=40 / intra_refresh=0 / rc_lookahead=60 / rc=2pass / mbtree=1 / bitrate=1853 / ratetol=1.0 / qcomp=0.60 / qpmin=10 / qpmax=69 / qpstep=4 / cplxblur=20.0 / qblur=0.5 / vbv_maxrate=62500 / vbv_bufsize=78125 / nal_hrd=none / ip_ratio=1.40 / aq=1:1.00Язык : EnglishDefault : ДаForced : Нет

АудиоИдентификатор : 2Формат : AC-3Формат/Информация : Audio Coding 3Расширение режима : CM (complete main)Параметр Endianness формата : BigИдентификатор кодека : A_AC3Продолжительность : 2 ч. 18 м.Вид битрейта : ПостоянныйБитрейт : 448 Кбит/секКаналы : 6 каналовРасположение каналов : Front: L C R, Side: L R, LFEЧастота : 48,0 КГцБитовая глубина : 16 битМетод сжатия : С потерямиРазмер потока : 442 Мбайт (19%)Заголовок : Дубляж, Blu-ray Союз-ВидеоЯзык : RussianDefault : ДаForced : Нет

Текст #1Идентификатор : 3Формат : UTF-8Идентификатор кодека : S_TEXT/UTF8Идентификатор кодека/Информация : UTF-8 Plain TextЗаголовок : По дубляжу (Stevvie)Язык : RussianDefault : НетForced : Нет

Текст #2Идентификатор : 4Формат : UTF-8Идентификатор кодека : S_TEXT/UTF8Идентификатор кодека/Информация : UTF-8 Plain TextЯзык : EnglishDefault : НетForced : Нет

piratbit.ru

Скачать фильм Остров проклятых через торрент в хорошем качестве бесплатно 1080p] 2xDub (Rus

GeneralUnique ID                                : 252102986306979149708425965211958190203 (0xBDA944DFCAEE8FAF8EAEEDA28021207B)Complete name                            : D:\Остров проклятых (2010) BDRip 1080p.mkvFormat                                   : MatroskaFormat version                           : Version 4 / Version 2File size                                : 18.8 GiBDuration                                 : 2h 18mnOverall bit rate                         : 19.5 MbpsEncoded date                             : UTC 2015-05-12 16:11:49Writing application                      : mkvmerge v6.9.1 ('Blue Panther') 32bit built on Apr 18 2014 18:15:44Writing library                          : libebml v1.3.0 + libmatroska v1.4.1Attachment                               : Yes

VideoID                                       : 1Format                                   : AVCFormat/Info                              : Advanced Video CodecFormat profile                           : [email protected] settings, CABAC                   : YesFormat settings, ReFrames                : 5 framesCodec ID                                 : V_MPEG4/ISO/AVCDuration                                 : 2h 18mnBit rate                                 : 13.0 MbpsWidth                                    : 1 920 pixelsHeight                                   : 816 pixelsDisplay aspect ratio                     : 2.35:1Frame rate                               : 23.976 fpsColor space                              : YUVChroma subsampling                       : 4:2:0Bit depth                                : 8 bitsScan type                                : ProgressiveBits/(Pixel*Frame)                       : 0.346Stream size                              : 12.2 GiB (65%)Title                                    : EbPWriting library                          : x264 core 96 r1613 81e75e9Encoding settings                        : cabac=1 / ref=5 / deblock=1:-3:-3 / analyse=0x3:0x113 / me=tesa / subme=10 / psy=1 / psy_rd=0.90:0.00 / mixed_ref=1 / me_range=16 / chroma_me=1 / trellis=2 / 8x8dct=1 / cqm=0 / deadzone=21,11 / fast_pskip=0 / chroma_qp_offset=-2 / threads=12 / sliced_threads=0 / nr=0 / decimate=0 / interlaced=0 / constrained_intra=0 / bframes=8 / b_pyramid=2 / b_adapt=2 / b_bias=0 / direct=3 / weightb=1 / weightp=2 / keyint=250 / keyint_min=25 / scenecut=40 / intra_refresh=0 / rc=2pass / mbtree=0 / bitrate=13000 / ratetol=1.0 / qcomp=0.60 / qpmin=10 / qpmax=51 / qpstep=4 / cplxblur=20.0 / qblur=0.5 / ip_ratio=1.40 / pb_ratio=1.30 / aq=1:0.80Language                                 : EnglishDefault                                  : YesForced                                   : No

Audio #1ID                                       : 2Format                                   : DTSFormat/Info                              : Digital Theater SystemsCodec ID                                 : A_DTSDuration                                 : 2h 18mnBit rate mode                            : ConstantBit rate                                 : 1 510 KbpsChannel(s)                               : 6 channelsChannel positions                        : Front: L C R, Side: L R, LFESampling rate                            : 48.0 KHzBit depth                                : 24 bitsCompression mode                         : LossyStream size                              : 1.46 GiB (8%)Title                                    : Дубляж, Blu-ray RUSLanguage                                 : RussianDefault                                  : YesForced                                   : No

Audio #2ID                                       : 3Format                                   : DTSFormat/Info                              : Digital Theater SystemsCodec ID                                 : A_DTSDuration                                 : 2h 18mnBit rate mode                            : ConstantBit rate                                 : 1 510 KbpsChannel(s)                               : 6 channelsChannel positions                        : Front: L C R, Side: L R, LFESampling rate                            : 48.0 KHzBit depth                                : 24 bitsCompression mode                         : LossyStream size                              : 1.46 GiB (8%)Title                                    : Одноголосый закадровый, Ю.СербинLanguage                                 : RussianDefault                                  : NoForced                                   : No

Audio #3ID                                       : 4Format                                   : DTSFormat/Info                              : Digital Theater SystemsCodec ID                                 : A_DTSDuration                                 : 2h 18mnBit rate mode                            : ConstantBit rate                                 : 1 510 KbpsChannel(s)                               : 6 channelsChannel positions                        : Front: L C R, Side: L R, LFESampling rate                            : 48.0 KHzBit depth                                : 24 bitsCompression mode                         : LossyStream size                              : 1.46 GiB (8%)Title                                    : Одноголосый закадровый, А.ГавриловLanguage                                 : RussianDefault                                  : NoForced                                   : No

Audio #4ID                                       : 5Format                                   : AC-3Format/Info                              : Audio Coding 3Mode extension                           : CM (complete main)Codec ID                                 : A_AC3Duration                                 : 2h 18mnBit rate mode                            : ConstantBit rate                                 : 448 KbpsChannel(s)                               : 6 channelsChannel positions                        : Front: L C R, Side: L R, LFESampling rate                            : 48.0 KHzBit depth                                : 16 bitsCompression mode                         : LossyStream size                              : 442 MiB (2%)Title                                    : ДубляжLanguage                                 : UkrainianDefault                                  : NoForced                                   : No

Audio #5ID                                       : 6Format                                   : DTSFormat/Info                              : Digital Theater SystemsCodec ID                                 : A_DTSDuration                                 : 2h 18mnBit rate mode                            : ConstantBit rate                                 : 1 510 KbpsChannel(s)                               : 6 channelsChannel positions                        : Front: L C R, Side: L R, LFESampling rate                            : 48.0 KHzBit depth                                : 24 bitsCompression mode                         : LossyStream size                              : 1.46 GiB (8%)Title                                    : ОригиналLanguage                                 : EnglishDefault                                  : NoForced                                   : No

Text #1ID                                       : 7Format                                   : UTF-8Codec ID                                 : S_TEXT/UTF8Codec ID/Info                            : UTF-8 Plain TextTitle                                    : FullLanguage                                 : RussianDefault                                  : NoForced                                   : No

Text #2ID                                       : 8Format                                   : UTF-8Codec ID                                 : S_TEXT/UTF8Codec ID/Info                            : UTF-8 Plain TextTitle                                    : Full, VoronineLanguage                                 : RussianDefault                                  : NoForced                                   : No

Text #3ID                                       : 9Format                                   : UTF-8Codec ID                                 : S_TEXT/UTF8Codec ID/Info                            : UTF-8 Plain TextTitle                                    : FullLanguage                                 : EnglishDefault                                  : NoForced                                   : No

Text #4ID                                       : 10Format                                   : UTF-8Codec ID                                 : S_TEXT/UTF8Codec ID/Info                            : UTF-8 Plain TextTitle                                    : SDHLanguage                                 : EnglishDefault                                  : NoForced                                   : No

Menu00:00:00.000                             : en:00:00:00.00000:06:33.143                             : en:00:06:33.14300:13:07.787                             : en:00:13:07.78700:20:20.928                             : en:00:20:20.92800:26:35.636                             : en:00:26:35.63600:34:54.801                             : en:00:34:54.80100:41:23.523                             : en:00:41:23.52300:48:29.573                             : en:00:48:29.57300:55:17.898                             : en:00:55:17.89801:04:02.672                             : en:01:04:02.67201:10:05.410                             : en:01:10:05.41001:16:54.401                             : en:01:16:54.40101:23:05.731                             : en:01:23:05.73101:31:37.742                             : en:01:31:37.74201:37:29.719                             : en:01:37:29.71901:45:39.083                             : en:01:45:39.08301:52:29.785                             : en:01:52:29.78501:57:39.970                             : en:01:57:39.97002:03:50.923                             : en:02:03:50.92302:10:30.990                             : en:02:10:30.99002:18:04.526                             : en:02:18:04.526

piratbit.ru

Скачать фильм Остров проклятых через торрент в хорошем качестве бесплатно 720р.

piratbit.ru

Раздают: 1 [ 0 KB/s ]
Размер: 7.18 GB | Добавлен: 6 лет 10 мес. назад | Торрент скачан:401 раз
Реклама Дарим 3000 рублей за регистрацию, не упусти свой шанс получить шикарный бонус!!!

05-12-2010 09:48 Остров проклятых Скачать торрент  

Остров проклятых / Shutter Island«Some places never let you go» Год выпуска: 2010Страна: СШАЖанр: Триллер, драма, детективПродолжительность: 02:18:04Субтитры: есть (два варианта)Формат субтитров: srtПеревод:Профессиональный (полное дублирование) с Blu-Ray "Союз-Видео"Режиссер: Мартин СкорсезеСценарий: Лаэта Калогридис, Дэннис ЛихэйнПродюсер: Крис Бригэм, Джозеф П. Рейди, Мартин СкорсезеОператор: Роберт РичардсонБюджет: $80 000 000 | Сборы в США: $128 012 934 | Сборы в мире: $294 512 934IMDB: 8.0 (117,201) | КиноПоиск: 8.411 (51 229)КиноПоиск.Ru | IMDb.comВ ролях: Леонардо ДиКаприо, Марк Руффало, Бен Кингсли, Макс фон Сюдов, Мишель Уильямс, Эмили Мортимер, Патриция Кларксон, Джеки Эрл Хейли, Тед Левайн, Джон Кэрролл ЛинчОписание:Два американских судебных пристава отправляются на один из островов в штате Массачусетс, чтобы расследовать исчезновение пациентки клиники для умалишенных преступников. При проведении расследования им придется столкнуться с паутиной лжи, обрушившимся ураганом и смертельным бунтом обитателей клиники.Качество: BDRip (WiKi) | | Формат: MKVВидео кодек: h.264| Аудио кодек: AC-3, DTSВидео: 1280x544, 5288 kbps, 23.976 fpsАудио № 1: Русский AC3 5.1, 48 KHz, 640 kbpsАудио № 2: Английский DTS 5.1, 48 KHz, 1536 kbpsСубтитры: Русские (по дубляжу), русские (voronine), русские (voronine, цветные), русские (voronine, цветные, для плохослышащих), английскиеСэмпл: СкачатьОбщееПолное имя : D:\torrent\tor\Shutter Island.2010.BD.Rip.720p.h364.Rus.Eng.mkvФормат : MatroskaРазмер файла : 7,18 ГиБПродолжительность : 2 ч. 18 м.Общий поток : 7439 Кбит/секДата кодирования : UTC 2010-05-17 10:31:10Программа кодирования : mkvmerge v3.3.0 ('Language') built on Mar 24 2010 14:59:24Библиотека кодирования : libebml v0.8.0 + libmatroska v0.9.0

ВидеоИдентификатор : 1Формат : AVCФормат/Информация : Advanced Video CodecПрофайл формата : [email protected]Параметры CABAC формата : ДаПараметры ReFrames формата : 12 кадрыРежим смешивания : Container [email protected]Идентификатор кодека : V_MPEG4/ISO/AVCПродолжительность : 2 ч. 18 м.Битрейт : 5288 Кбит/секШирина : 1280 пикс.Высота : 544 пикс.Соотношение кадра : 2,35:1Частота кадров : 23,976 кадр/секColorSpace : YUVChromaSubsampling : 4:2:0BitDepth/String : 8 битТип развёртки : ПрогрессивнаяБит/(Пиксели*Кадры) : 0.317Размер потока : 4,96 ГиБ (69%)Библиотека кодирования : x264 core 84 r1400M 20fa784Настройки программы : cabac=1 / ref=12 / deblock=1:-3:-3 / analyse=0x3:0x113 / me=umh / subme=9 / psy=1 / psy_rd=0.9:0.0 / mixed_ref=1 / me_range=64 / chroma_me=1 / trellis=2 / 8x8dct=1 / cqm=0 / deadzone=21,11 / fast_pskip=0 / chroma_qp_offset=-4 / threads=12 / sliced_threads=0 / nr=0 / decimate=0 / mbaff=0 / constrained_intra=0 / bframes=8 / b_pyramid=2 / b_adapt=2 / b_bias=0 / direct=3 / wpredb=1 / wpredp=2 / keyint=250 / keyint_min=25 / scenecut=40 / intra_refresh=0 / rc_lookahead=50 / rc=2pass / mbtree=1 / bitrate=5288 / ratetol=1.0 / qcomp=0.60 / qpmin=10 / qpmax=51 / qpstep=4 / cplxblur=20.0 / qblur=0.5 / ip_ratio=1.40 / aq=1:0.90 / pulldown=0 / nal_hrd=0Язык : English

Аудио #1Идентификатор : 2Формат : AC-3Формат/Информация : Audio Coding 3Format_Settings_ModeExtension : CM (complete main)Идентификатор кодека : A_AC3Продолжительность : 2 ч. 18 м.Вид битрейта : ПостоянныйБитрейт : 640 Кбит/секКанал(ы) : 6 канала(ов)Расположение каналов : Front: L C R, Side: L R, LFEЧастота : 48,0 КГцBitDepth/String : 16 битРазмер потока : 632 МиБ (9%)Заголовок : AC3 5.1 640 kbpsЯзык : Russian

Аудио #2Идентификатор : 3Формат : DTSФормат/Информация : Digital Theater SystemsИдентификатор кодека : A_DTSПродолжительность : 2 ч. 18 м.Вид битрейта : ПостоянныйБитрейт : 1510 Кбит/секКанал(ы) : 6 канала(ов)Расположение каналов : Front: L C R, Side: L R, LFEЧастота : 48,0 КГцBitDepth/String : 24 битРазмер потока : 1,46 ГиБ (20%)Заголовок : DTS 5.1 1536 kbpsЯзык : English

Текст #1Идентификатор : 4Формат : UTF-8Идентификатор кодека : S_TEXT/UTF8Идентификатор кодека/Информация : UTF-8 Plain TextЗаголовок : Dub (Stevvie)Язык : Russian

Текст #2Идентификатор : 5Формат : UTF-8Идентификатор кодека : S_TEXT/UTF8Идентификатор кодека/Информация : UTF-8 Plain TextЗаголовок : VoronineЯзык : Russian

Текст #3Идентификатор : 6Формат : UTF-8Идентификатор кодека : S_TEXT/UTF8Идентификатор кодека/Информация : UTF-8 Plain TextЗаголовок : Voronine ColoredЯзык : Russian

Текст #4Идентификатор : 7Формат : UTF-8Идентификатор кодека : S_TEXT/UTF8Идентификатор кодека/Информация : UTF-8 Plain TextЗаголовок : Voronine Hearing Impaired ColoredЯзык : Russian

Текст #5Идентификатор : 8Формат : UTF-8Идентификатор кодека : S_TEXT/UTF8Идентификатор кодека/Информация : UTF-8 Plain TextЯзык : English

Меню00:00:00.000 : en:00:00:00.00000:06:33.143 : en:00:06:33.14300:13:07.787 : en:00:13:07.78700:20:20.928 : en:00:20:20.92800:26:35.636 : en:00:26:35.63600:34:54.801 : en:00:34:54.80100:41:23.523 : en:00:41:23.52300:48:29.573 : en:00:48:29.57300:55:17.898 : en:00:55:17.89801:04:02.672 : en:01:04:02.67201:10:05.410 : en:01:10:05.41001:16:54.401 : en:01:16:54.40101:23:05.731 : en:01:23:05.73101:31:37.742 : en:01:31:37.74201:37:29.719 : en:01:37:29.71901:45:39.083 : en:01:45:39.08301:52:29.785 : en:01:52:29.78501:57:39.970 : en:01:57:39.97002:03:50.923 : en:02:03:50.92302:10:30.990 : en:02:10:30.99002:18:04.526 : en:02:18:04.526

- Изначально продюсеры хотели, чтобы постановкой картины занялся кинематографист Вольфган Петерсен, но позже предпочли ему Мартина Скорсезе.- Когда американские военные входят в ворота Дахау, показывается арка Освенцима. Это ошибка, так как на воротах в Дахау была та же надпись, но выглядела она иначе.- Фильм снят по книге Денниса Лихейна «Shutter Island».- Когда Тэд и Чак пошли в корпус «С», свет в корпусе мигал, хотя все генераторы сгорели.- За основу был взят остров Педдокс из штата Мэн (национальный парк Акадия). Крупные горы были добавлены на стадии постпроизводства.- Расстрел пленных немцев американскими солдатами действительно имел место в Дахау 29 апреля 1945 года.- Одна из картин, которые доктор Коули показывает в качестве примеров жестокого обращения с сумасшедшими, - это «Навуходоносор», иллюстрация к Библии поэта Уильяма Блейка.

Рип сделан с американского Blu-Ray.Американский Blu-Ray................. vs.................... Российский Blu-Ray Скачать Остров проклятых через торрент http://i13.fastpic.ru/big/2010/1205/0a/c1b87fad45a9ffab14c3364ccac82f0a.png Скачать фильм Остров проклятых через торрент бесплантно в хорошем качестве Описание:Два американских судебных пристава отправляются на один из островов в штате Массачусетс, чтобы расследовать исчезновение пациентки ... 2010-12-05 09:48 10 10 4

Loading...

Loading...

Рекламный пират

05-12-2010 10:50 Остров проклятых Скачать торрент  

05-12-2010 11:14 Остров проклятых Скачать торрент  

спасибо качаю)

05-12-2010 11:30 Остров проклятых Скачать торрент  

да пожалуйста, мне не жалко)

05-12-2010 11:47 Остров проклятых Скачать торрент  

05-12-2010 11:57 Остров проклятых Скачать торрент  

не хилый размерчик

05-12-2010 12:36 Остров проклятых Скачать торрент  

WARofHead писал(а):

не хилый размерчик

ну и качество не хилое

05-12-2010 13:19 Остров проклятых Скачать торрент  

класный фильм в хорошем качестве

15-03-2011 20:51 Остров проклятых Скачать торрент  

Спасибо. Картина обязательная для просмотра. Второй раз, уверен, смотреть захочется лет через пять, когда всё забуду))) но первый раз просто обязательно нужно смотреть. Добротный фильм, пусть даже не лучший у Скорсезе.

Раздача отличная. Поклон.

Pекламный агент PB

Дорогой пользователь! Огромная просьба, поблагодарите релизера, оцените раздачу и оставьте свои комментарий, если Вы скачали Остров проклятых через торрент бесплатно! Внесите свою лепту в развитие PiratBit!

Комментировать посты могут только пользователи прошедшие не сложную регистрацию

Остров проклятых через торрент Скачать бесплатно Остров проклятых Остров проклятых скачать торрент Остров проклятых смотреть онлайн Cкачать фильм Остров проклятых бесплатно Остров проклятых скачать торрент в хорошем качестве Остров проклятых смотреть онлайн бесплатно в хорошем качестве

Вы не можете начинать темыВы не можете отвечать на сообщенияВы не можете редактировать свои сообщенияВы не можете удалять свои сообщенияВы не можете голосовать в опросахВы не можете прикреплять файлы к сообщениямВы можете скачивать файлы

/ Shutter Island ( / Martin Scorsese) [2010 ., , , , BDRip] [720p / DVD5 / DXVA] Dub + Original + Sub (2 x rus, eng)

---[NoImage] yuv [info]: 1280x544p 1:1 @ 10000000/417083 fps (cfr) ---[NoImage] x264 [info]: using SAR=1/1 ---[NoImage] x264 [info]: using cpu capabilities: MMX2 SSE2Fast SSSE3 FastShuffle SSE4.2 ---[NoImage] x264 [info]: profile High, level 4.1 ---[NoImage] x264 [info]: frame I:1595 Avg QP:15.78 size: 86552 PSNR Mean Y:47.26 U:50.25 V:50.94 Avg:48.10 Global:47.15 ---[NoImage] x264 [info]: frame P:39684 Avg QP:17.01 size: 36308 PSNR Mean Y:46.08 U:49.58 V:50.25 Avg:46.96 Global:45.36 ---[NoImage] x264 [info]: frame B:157356 Avg QP:18.63 size: 13866 PSNR Mean Y:44.65 U:48.77 V:49.55 Avg:45.68 Global:44.43 ---[NoImage] x264 [info]: consecutive B-frames: 1.5% 1.8% 5.4% 15.4% 15.0% 41.0% 7.5% 3.0% 2.5% 1.6% 1.4% 1.5% 0.6% 0.6% 0.6% 0.2% 0.4% ---[NoImage] x264 [info]: mb I I16..4: 9.3% 78.5% 12.3% ---[NoImage] x264 [info]: mb P I16..4: 1.5% 12.7% 1.1% P16..4: 42.3% 26.5% 6.4% 0.3% 0.3% skip: 8.9% ---[NoImage] x264 [info]: mb B I16..4: 0.1% 1.1% 0.1% B16..8: 38.5% 11.7% 3.3% direct: 7.4% skip:37.7% L0:45.3% L1:45.2% BI: 9.5% ---[NoImage] x264 [info]: 8x8 transform intra:83.0% inter:60.8% ---[NoImage] x264 [info]: direct mvs spatial:99.1% temporal:0.9% ---[NoImage] x264 [info]: coded y,uvDC,uvAC intra: 87.0% 86.8% 68.0% inter: 30.2% 26.7% 3.0% ---[NoImage] x264 [info]: i16 v,h,dc,p: 70% 9% 7% 14% ---[NoImage] x264 [info]: i8 v,h,dc,ddl,ddr,vr,hd,vl,hu: 9% 9% 10% 10% 13% 13% 13% 11% 12% ---[NoImage] x264 [info]: i4 v,h,dc,ddl,ddr,vr,hd,vl,hu: 8% 7% 5% 10% 16% 14% 15% 11% 13% ---[NoImage] x264 [info]: i8c dc,h,v,p: 50% 19% 17% 13% ---[NoImage] x264 [info]: Weighted P-Frames: Y:6.0% ---[NoImage] x264 [info]: ref P L0: 41.4% 10.7% 17.4% 7.1% 6.1% 4.4% 4.1% 2.4% 2.3% 1.9% 1.9% 0.4% 0.1% ---[NoImage] x264 [info]: ref B L0: 65.4% 13.4% 7.3% 4.0% 3.0% 2.5% 2.0% 1.3% 0.8% 0.3% ---[NoImage] x264 [info]: ref B L1: 90.7% 9.3% ---[NoImage] x264 [info]: SSIM Mean Y:0.9789857 ---[NoImage] x264 [info]: PSNR Mean Y:44.959 U:48.946 V:49.700 Avg:45.953 Global:44.618 kb/s:3631.63 ---[NoImage] encoded 198635 frames, 7.15 fps, 3631.63 kb/s

Video

ID : 1 Format : AVC Format/Info : Advanced Video Codec Format profile : [email protected] Format settings, CABAC : Yes Format settings, ReFrames : 11 frames Muxing mode : Container [email protected] Codec ID : V_MPEG4/ISO/AVC Duration : 2h 17mn Bit rate : 3 544 Kbps Width : 1 280 pixels Height : 544 pixels Display aspect ratio : 2.35:1 Frame rate : 23.976 fps Resolution : 8 bits Colorimetry : 4:2:0 Scan type : Progressive Bits/(Pixel*Frame) : 0.212 Stream size : 3.41 GiB (78%) Title : Shutter Island Writing library : x264 core 98 r1629 2e81ce1 Encoding settings : cabac=1 / ref=11 / deblock=1:-2:-2 / analyse=0x3:0x133 / me=umh / subme=9 / psy=1 / psy_rd=1.10:0.00 / mixed_ref=1 / me_range=64 / chroma_me=1 / trellis=2 / 8x8dct=1 / cqm=0 / deadzone=21,11 / fast_pskip=0 / chroma_qp_offset=-2 / threads=9 / sliced_threads=0 / nr=0 / decimate=1 / interlaced=0 / constrained_intra=0 / bframes=16 / b_pyramid=2 / b_adapt=2 / b_bias=0 / direct=3 / weightb=1 / weightp=2 / keyint=250 / keyint_min=25 / scenecut=40 / intra_refresh=0 / rc_lookahead=60 / rc=crf / mbtree=0 / crf=18.4 / qcomp=0.60 / qpmin=10 / qpmax=51 / qpstep=4 / vbv_maxrate=50000 / vbv_bufsize=50000 / crf_max=0.0 / ip_ratio=1.40 / pb_ratio=1.30 / aq=1:1.10 / nal_hrd=none Language : English Matrix coefficients : BT.709-5, BT.1361, IEC 61966-2-4 709, SMPTE RP177

Audio #1

ID : 2 Format : AC-3 Format/Info : Audio Coding 3 Codec ID : A_AC3 Duration : 2h 18mn Bit rate mode : Constant Bit rate : 448 Kbps Channel(s) : 6 channels Channel positions : Front: L C R, Side: L R, LFE Sampling rate : 48.0 KHz Stream size : 442 MiB (10%) Title : DD 5.1 48 KHz 448 kbps[Dub] Language : Russian

Audio #2

ID : 3 Format : AC-3 Format/Info : Audio Coding 3 Codec ID : A_AC3 Duration : 2h 18mn Bit rate mode : Constant Bit rate : 448 Kbps Channel(s) : 6 channels Channel positions : Front: L C R, Side: L R, LFE Sampling rate : 48.0 KHz Stream size : 442 MiB (10%) Title : DD 5.1 48 KHz 448 kbps[Original] Language : English

Text #1

ID : 4 Format : UTF-8 Codec ID : S_TEXT/UTF8 Codec ID/Info : UTF-8 Plain Text Title : Ver.1 Language : Russian

Text #2

ID : 5 Format : UTF-8 Codec ID : S_TEXT/UTF8 Codec ID/Info : UTF-8 Plain Text Title : Ver.2 Language : Russian

Text #3

ID : 6 Format : UTF-8 Codec ID : S_TEXT/UTF8 Codec ID/Info : UTF-8 Plain Text Title : Original Language : English

Menu

00:00:00.000 : en:Chapter 01 00:06:33.142 : en:Chapter 02 00:13:07.787 : en:Chapter 03 00:20:20.928 : en:Chapter 04 00:26:35.635 : en:Chapter 05 00:34:54.801 : en:Chapter 06 00:41:23.522 : en:Chapter 07 00:48:29.573 : en:Chapter 08 00:55:17.897 : en:Chapter 09 01:04:02.672 : en:Chapter 10 01:10:05.409 : en:Chapter 11 01:16:54.401 : en:Chapter 12 01:23:05.730 : en:Chapter 13 01:31:37.742 : en:Chapter 14 01:37:29.718 : en:Chapter 15 01:45:39.082 : en:Chapter 16 01:52:29.784 : en:Chapter 17 01:57:39.969 : en:Chapter 18 02:03:50.923 : en:Chapter 19 02:10:30.989 : en:Chapter 20

unionpeer.com


Смотрите также