Омерзительная восьмерка через скачать торрент в хорошем качестве


Скачать фильм Омерзительная восьмерка через торрент в хорошем качестве бесплатно BDRip-AVC от potroks

Общее Уникальный идентификатор : 225062714100752260869742837137600170473 (0xA9518086084331BCBA463DE4419449E9) Полное имя : Omerzitelnaya.Vosmerka.2015.DUAL.BDRip.x264.-HELLYWOOD.mkv Формат : Matroska Версия формата : Version 4 / Version 2 Размер файла : 2,92 Гбайт Продолжительность : 2 ч. 47 м. Общий поток : 2485 Кбит/сек Название фильма : The Hateful Eight (2015) Дата кодирования : UTC 2016-05-12 05:38:29 Программа кодирования : mkvmerge v5.9.0 ('On The Loose') built on Dec 15 2012 16:39:58 Библиотека кодирования : libebml v1.3.0 + libmatroska v1.4.0

Видео Идентификатор : 1 Формат : AVC Формат/Информация : Advanced Video Codec Профиль формата : [email protected] Параметр CABAC формата : Да Параметр ReFrames формата : 11 кадров Идентификатор кодека : V_MPEG4/ISO/AVC Продолжительность : 2 ч. 47 м. Битрейт : 1589 Кбит/сек Ширина : 1016 пикселей Высота : 368 пикселей Соотношение сторон : 2,761 Режим частоты кадров : Постоянный Частота кадров : 23,976 (24000/1001) кадра/сек Цветовое пространство : YUV Субдискретизация насыщенности : 4:2:0 Битовая глубина : 8 бит Тип развёртки : Прогрессивная Бит/(Пиксели*Кадры) : 0.177 Размер потока : 1,81 Гбайт (62%) Заголовок : potroks Библиотека кодирования : x264 core 148 r2665M a01e339 Настройки программы : cabac=1 / ref=11 / deblock=1:-2:-2 / analyse=0x3:0x133 / me=umh / subme=11 / psy=1 / psy_rd=1.00:0.00 / mixed_ref=1 / me_range=32 / chroma_me=1 / trellis=2 / 8x8dct=1 / cqm=0 / deadzone=21,11 / fast_pskip=0 / chroma_qp_offset=-2 / threads=9 / lookahead_threads=2 / sliced_threads=0 / nr=0 / decimate=1 / interlaced=0 / bluray_compat=0 / constrained_intra=0 / bframes=12 / b_pyramid=2 / b_adapt=2 / b_bias=0 / direct=3 / weightb=1 / open_gop=0 / weightp=2 / keyint=240 / keyint_min=23 / scenecut=40 / intra_refresh=0 / rc=2pass / mbtree=0 / bitrate=1589 / ratetol=1.0 / qcomp=0.70 / qpmin=0 / qpmax=69 / qpstep=4 / cplxblur=20.0 / qblur=0.5 / ip_ratio=1.40 / pb_ratio=1.30 / aq=1:0.80 Язык : English Default : Да Forced : Нет

Аудио #1 Идентификатор : 2 Формат : AC-3 Формат/Информация : Audio Coding 3 Расширение режима : CM (complete main) Параметр Endianness формата : Big Идентификатор кодека : A_AC3 Продолжительность : 2 ч. 47 м. Вид битрейта : Постоянный Битрейт : 448 Кбит/сек Каналы : 6 каналов Расположение каналов : Front: L C R, Side: L R, LFE Частота : 48,0 КГц Частота кадров : 31,250 кадров/сек (1536 spf) Метод сжатия : С потерями Размер потока : 538 Мбайт (18%) Заголовок : Dub | DD 5.1 @ 448 kbps - Blu-ray RUS Язык : Russian Default : Да Forced : Нет

Аудио #2 Идентификатор : 3 Формат : AC-3 Формат/Информация : Audio Coding 3 Расширение режима : CM (complete main) Параметр Endianness формата : Big Идентификатор кодека : A_AC3 Продолжительность : 2 ч. 47 м. Вид битрейта : Постоянный Битрейт : 448 Кбит/сек Каналы : 6 каналов Расположение каналов : Front: L C R, Side: L R, LFE Частота : 48,0 КГц Частота кадров : 31,250 кадров/сек (1536 spf) Метод сжатия : С потерями Размер потока : 538 Мбайт (18%) Заголовок : Original | DD 5.1 @ 448 kbps Язык : English Default : Нет Forced : Нет

Текст #1 Идентификатор : 4 Формат : UTF-8 Идентификатор кодека : S_TEXT/UTF8 Идентификатор кодека/Информация : UTF-8 Plain Text Заголовок : Forced [potroks] Язык : Russian Default : Да Forced : Нет

Текст #2 Идентификатор : 5 Формат : UTF-8 Идентификатор кодека : S_TEXT/UTF8 Идентификатор кодека/Информация : UTF-8 Plain Text Заголовок : Translation: Ruslan Akhmetov Язык : Russian Default : Нет Forced : Нет

Текст #3 Идентификатор : 6 Формат : UTF-8 Идентификатор кодека : S_TEXT/UTF8 Идентификатор кодека/Информация : UTF-8 Plain Text Заголовок : A.Matveev Язык : Russian Default : Нет Forced : Нет

Текст #4 Идентификатор : 7 Формат : UTF-8 Идентификатор кодека : S_TEXT/UTF8 Идентификатор кодека/Информация : UTF-8 Plain Text Заголовок : Full Язык : English Default : Нет Forced : Нет

Текст #5 Идентификатор : 8 Формат : UTF-8 Идентификатор кодека : S_TEXT/UTF8 Идентификатор кодека/Информация : UTF-8 Plain Text Заголовок : SDH Язык : English Default : Нет Forced : Нет

Текст #6 Идентификатор : 9 Формат : UTF-8 Идентификатор кодека : S_TEXT/UTF8 Идентификатор кодека/Информация : UTF-8 Plain Text Заголовок : SDH-Coored Язык : English Default : Нет Forced : Нет

Меню 00:00:00.000 : :Chapter 1 00:04:33.523 : :Chapter 2 00:11:36.111 : :Chapter 3 00:22:01.361 : :Chapter 4 00:35:02.431 : :Chapter 5 00:43:31.900 : :Chapter 6 00:52:12.211 : :Chapter 7 00:59:04.498 : :Chapter 8 01:08:30.314 : :Chapter 9 01:16:10.856 : :Chapter 10 01:25:18.445 : :Chapter 11 01:35:06.492 : :Chapter 12 01:42:20.175 : :Chapter 13 01:50:33.335 : :Chapter 14 01:59:32.497 : :Chapter 15 02:06:43.052 : :Chapter 16 02:13:26.622 : :Chapter 17 02:19:59.724 : :Chapter 18 02:24:17.022 : :Chapter 19 02:34:08.111 : :Chapter 20 02:39:38.025 : :Chapter 21 02:43:22.751 : :Chapter 22

piratbit.ru

Скачать фильм Омерзительная восьмерка через торрент в хорошем качестве бесплатно TS)

piratbit.ru

Размер: 2.06 GB | Добавлен: 1 год 8 мес. назад | Торрент скачан:933 раза
Реклама Дарим 3000 рублей за регистрацию, не упусти свой шанс получить шикарный бонус!!!

04-02-2016 16:08 Омерзительная восьмерка Скачать торрент  

Омерзительная восьмерка / The Hateful Eigh

Год выпуска: 2015Выпущено: СШАЖанр: вестернПродолжительность: 02:47:49Перевод: Профессиональный (полное дублирование) [Звук с TS]Субтитры: Отсутствуют Примечание: Присутствует реклама казино.

Режиссер: Квентин Тарантино

В ролях: Курт Рассел, Сэмюэл Л. Джексон, Тим Рот, Майкл Мэдсен, Дженнифер Джейсон Ли, Ченнинг Татум, Уолтон Гоггинс, Зои Белл, Брюс Дерн,Демиан Бишир США после Гражданской войны. Легендарный охотник за головами Джон Рут по кличке Вешатель конвоирует заключенную. По пути к ним прибивается еще один охотник. Снежная буря вынуждает всех троих искать укрытие в лавке на отшибе, где уже расположилась весьма пестрая компания: генерал, шериф, мексиканец, француз и ковбой… И один из них — не тот, за кого себя выдает.

Качество: DVDScrФормат: AVIВидео кодек: XviDАудио кодек: AC3Видео: 720x256 (2.81:1), 29.970 fps, XviD build 50 ~1551 KbpsАудио: 48 kHz, AC3 Dolby Digital, 2 (ch, ~192.00 kbps avg

Скачать Омерзительная восьмерка через торрент http://savepic.ru/8190231.png Скачать фильм Омерзительная восьмерка через торрент бесплантно в хорошем качестве В ролях: Курт Рассел, Сэмюэл Л. Джексон, Тим Рот, Майкл Мэдсен, Дженнифер Джейсон Ли, Ченнинг Татум, Уолтон Гоггинс, Зои Белл, Брюс ... 2016-02-04 16:08 8.3 10 38

Loading...

Loading...

% Раздел Тема Автор DL S | L
Ultra HD (UHD: 2K, 4K, 8K) — видео сверхвысокой чёткости [ 40.44 GB ] Омерзительная восьмёрка / The Hateful Eight [2015 UHD WEBRip 2160p] DUB [] bober100 Скачать
Фильмы [HD 720p, 1080p] (Хороший звук DUB, MVO) [ 15.52 GB ] Омерзительная восьмерка / The Hateful Eight [2015 BDRip 720p] 2xDUB+MVO+3xAVO bober100 Скачать
Фильмы 2015 [DVDrip, WEB-DLRip, HDrip] [ 1.46 GB ] Омерзительная восьмерка / The Hateful Eight [2015 BDRip-AVC] DUB potroks Скачать
Фильмы [HD 720p, 1080p] (Хороший звук DUB, MVO) [ 9.46 GB ] Омерзительная восьмерка / The Hateful Eight [2015 BDRip 720p] DUB AVO potroks Скачать
Фильмы 2015 [DVDrip, WEB-DLRip, HDrip] [ 2.92 GB ] Омерзительная восьмерка / The Hateful Eight [2015 BDRip-AVC] DUB potroks Скачать
Фильмы [HD 720p, 1080p] (Хороший звук DUB, MVO) [ 8.41 GB ] Омерзительная восьмерка / The Hateful Eight [2015 BDRip 720p] DUB AVO potroks Скачать
Фильмы 2015 [DVDrip, WEB-DLRip, HDrip] [ 1.46 GB ] Омерзительная восьмерка / The Hateful Eight [2015 BDRip] DUB Twi7ter Скачать

Рекламный пират

04-02-2016 16:54 Омерзительная восьмерка Скачать торрент  

С хорошим звуком пока наверно раненько.

04-02-2016 17:07 Омерзительная восьмерка Скачать торрент  

--- скачать Русские Субтитры ---

Чтобы сабы подошли обрезаем начальную видео рекламу уг казино (11 секунд) любым видео редактором.Я удалил ее через virtualdub mod

05-02-2016 03:36 Омерзительная восьмерка Скачать торрент  

killermax2013 писал(а):

--- скачать Русские Субтитры ---

Чтобы сабы подошли обрезаем начальную видео рекламу уг казино (11 секунд) любым видео редактором.Я удалил ее через virtualdub mod

ты бы бро сразу бы и выкладывал без рекламы уг казино

05-02-2016 06:43 Омерзительная восьмерка Скачать торрент  

crest96 писал(а):

ты бы бро сразу бы и выкладывал без рекламы уг казино Так начальную видео рекламу удалить легко, но вот там еще и аудио вставки есть, а их удалять это уже гемор как по мне

05-02-2016 15:21 Омерзительная восьмерка Скачать торрент  

Качество не очень. Не советую смотреть. Не много терпения.

13-02-2016 09:24 Омерзительная восьмерка Скачать торрент  

Звук что-то шуршит, пропадает, реклама казино диалоги перекрывает. Зря сейчас посмотрел.

01-03-2016 07:31 Омерзительная восьмерка Скачать торрент  

ayr77 писал(а):

Звук что-то шуршит, пропадает, реклама казино диалоги перекрывает. Зря сейчас посмотрел.

Да тоже зря

Дорогой пользователь! Огромная просьба, поблагодарите релизера, оцените раздачу и оставьте свои комментарий, если Вы скачали Омерзительная восьмерка через торрент бесплатно! Внесите свою лепту в развитие PiratBit!

Комментировать посты могут только пользователи прошедшие не сложную регистрацию

Омерзительная восьмерка через торрент Скачать бесплатно Омерзительная восьмерка Омерзительная восьмерка скачать торрент Омерзительная восьмерка смотреть онлайн Cкачать фильм Омерзительная восьмерка бесплатно Омерзительная восьмерка скачать торрент в хорошем качестве Омерзительная восьмерка смотреть онлайн бесплатно в хорошем качестве

Вы можете начинать темыВы можете отвечать на сообщенияВы не можете редактировать свои сообщенияВы не можете удалять свои сообщенияВы не можете голосовать в опросахВы не можете прикреплять файлы к сообщениямВы можете скачивать файлы

Скачать фильм Омерзительная восьмерка через торрент в хорошем качестве бесплатно BDRip-AVC от sokol_ok

ОбщееУникальный идентификатор : 189402497316936014893136186399085980887 (0x8E7D9817C0C0503F94BB7E9D51566CD7)Полное имя : M:\1Rips\The Hateful Eight\The.Hateful.Eight.2015.BDRip-AVC.Dub.2.91Gb.stalkerok.new-team.mkvФормат : MatroskaВерсия формата : Version 4 / Version 2Размер файла : 2,91 ГбайтПродолжительность : 2 ч. 47 м.Общий поток : 2486 Кбит/секНазвание фильма : The Hateful Eight (2015) (New-Team) (Rip by Stalker oK)Дата кодирования : UTC 2016-05-13 08:48:52Программа кодирования : mkvmerge v8.6.1 ('Flying') 64bitБиблиотека кодирования : libebml v1.3.3 + libmatroska v1.4.4

ВидеоИдентификатор : 1Формат : AVCФормат/Информация : Advanced Video CodecПрофиль формата : [email protected]Параметр CABAC формата : ДаПараметр ReFrames формата : 14 кадровИдентификатор кодека : V_MPEG4/ISO/AVCПродолжительность : 2 ч. 47 м.Битрейт : 1843 Кбит/секШирина : 1150 пикселейВысота : 418 пикселейСоотношение сторон : 2,751Режим частоты кадров : ПостоянныйЧастота кадров : 23,976 (24000/1001) кадра/секЦветовое пространство : YUVСубдискретизация насыщенности : 4:2:0Битовая глубина : 8 битТип развёртки : ПрогрессивнаяБит/(Пиксели*Кадры) : 0.160Размер потока : 2,16 Гбайт (74%)Заголовок : The Hateful Eight (2015) (New-Team) (Rip by Stalker oK)Библиотека кодирования : x264 core 148 r2665kMod a01e339Настройки программы : cabac=1 / ref=14 / deblock=1:-3:-2 / analyse=0x3:0x133 / me=umh / subme=11 / psy=1 / fade_compensate=0.00 / psy_rd=1.00:0.03 / mixed_ref=1 / me_range=48 / chroma_me=1 / trellis=2 / 8x8dct=1 / cqm=0 / deadzone=21,11 / fast_pskip=0 / chroma_qp_offset=-3 / threads=12 / lookahead_threads=3 / sliced_threads=0 / nr=0 / decimate=0 / interlaced=0 / bluray_compat=0 / constrained_intra=0 / fgo=0 / bframes=14 / b_pyramid=2 / b_adapt=2 / b_bias=0 / direct=3 / weightb=1 / open_gop=0 / weightp=2 / keyint=240 / keyint_min=23 / scenecut=40 / intra_refresh=0 / rc_lookahead=60 / rc=2pass / mbtree=0 / bitrate=1843 / ratetol=1.0 / qcomp=0.65 / qpmin=0 / qpmax=69 / qpstep=4 / cplxblur=20.0 / qblur=0.5 / vbv_maxrate=50000 / vbv_bufsize=62500 / nal_hrd=none / filler=0 / ip_ratio=1.40 / pb_ratio=1.30 / aq=1:0.85Default : ДаForced : Нет

Аудио #1Идентификатор : 2Формат : AC-3Формат/Информация : Audio Coding 3Расширение режима : CM (complete main)Параметр Endianness формата : BigИдентификатор кодека : A_AC3Продолжительность : 2 ч. 47 м.Вид битрейта : ПостоянныйБитрейт : 448 Кбит/секКаналы : 6 каналовРасположение каналов : Front: L C R, Side: L R, LFEЧастота : 48,0 КГцЧастота кадров : 31,250 кадров/сек (1536 spf)Метод сжатия : С потерямиРазмер потока : 538 Мбайт (18%)Язык : RussianDefault : ДаForced : Нет

Аудио #2Идентификатор : 3Формат : AC-3Формат/Информация : Audio Coding 3Расширение режима : CM (complete main)Параметр Endianness формата : BigИдентификатор кодека : A_AC3Продолжительность : 2 ч. 47 м.Вид битрейта : ПостоянныйБитрейт : 192 Кбит/секКаналы : 2 каналаРасположение каналов : Front: L RЧастота : 48,0 КГцЧастота кадров : 31,250 кадров/сек (1536 spf)Метод сжатия : С потерямиРазмер потока : 230 Мбайт (8%)Язык : EnglishDefault : НетForced : Нет

Текст #1Идентификатор : 4Формат : UTF-8Идентификатор кодека : S_TEXT/UTF8Идентификатор кодека/Информация : UTF-8 Plain TextПродолжительность : 2 ч. 18 м.Битрейт : 1 бит/секCount of elements : 13Размер потока : 1,02 Кбайт (0%)Заголовок : ForcedЯзык : RussianDefault : ДаForced : Нет

Текст #2Идентификатор : 5Формат : UTF-8Идентификатор кодека : S_TEXT/UTF8Идентификатор кодека/Информация : UTF-8 Plain TextПродолжительность : 2 ч. 42 м.Битрейт : 89 бит/секCount of elements : 1741Размер потока : 107 Кбайт (0%)Заголовок : Перевод Алексей МатвеевЯзык : RussianDefault : НетForced : Нет

Текст #3Идентификатор : 6Формат : UTF-8Идентификатор кодека : S_TEXT/UTF8Идентификатор кодека/Информация : UTF-8 Plain TextПродолжительность : 2 ч. 38 м.Битрейт : 96 бит/секCount of elements : 1782Размер потока : 112 Кбайт (0%)Заголовок : Переведено на НотабеноидеЯзык : RussianDefault : НетForced : Нет

Текст #4Идентификатор : 7Формат : UTF-8Идентификатор кодека : S_TEXT/UTF8Идентификатор кодека/Информация : UTF-8 Plain TextПродолжительность : 2 ч. 38 м.Битрейт : 93 бит/секCount of elements : 1705Размер потока : 109 Кбайт (0%)Заголовок : Перевод Ахметов РусланЯзык : RussianDefault : НетForced : Нет

Текст #5Идентификатор : 8Формат : UTF-8Идентификатор кодека : S_TEXT/UTF8Идентификатор кодека/Информация : UTF-8 Plain TextПродолжительность : 2 ч. 38 м.Битрейт : 62 бит/секCount of elements : 2634Размер потока : 72,4 Кбайт (0%)Заголовок : FullЯзык : EnglishDefault : НетForced : Нет

Текст #6Идентификатор : 9Формат : UTF-8Идентификатор кодека : S_TEXT/UTF8Идентификатор кодека/Информация : UTF-8 Plain TextПродолжительность : 2 ч. 47 м.Битрейт : 66 бит/секCount of elements : 3046Размер потока : 82,1 Кбайт (0%)Заголовок : SDHDefault : НетForced : Нет

Меню00:00:00.000 : en:Opening Credits00:04:33.523 : en:Chapter One: Last Stage to Red Rock00:11:36.112 : en:"When the Hangman Catches You, You Hang"00:22:01.361 : en:Chapter Two: Son of a Gun00:35:02.433 : en:Chapter Three: Minnie's Haberdashery00:43:31.900 : en:Frontier Justice00:52:12.212 : en:"That Door's a Whore"00:59:04.499 : en:"Well cut my legs off and call me shorty!"01:08:30.314 : en:"In Cahoots"01:16:10.857 : en:Stew01:25:18.446 : en:"Startin'to see pictures, ain't ya?"01:35:06.492 : en:Chapter Four: Domergue's Got a Secret01:42:20.175 : en:"When you get to hell, John, tell'em Daisy Sent You"01:50:33.335 : en:"Let's slow it down. Let's slow it way down."01:59:32.498 : en:Chapter Five: The Four Passengers02:06:43.053 : en:"Are You the Jelly Bean Salesman Around Here?"02:13:26.623 : en:"Hello, thank you, goodnight and maybe my name."02:19:59.724 : en:Last Chapter: Black Man, White Hell02:24:17.023 : en:"OK, bitch, I'll bite"02:34:08.113 : en:"Wake Up, White Boy"02:39:38.026 : en:The Lincoln Letter02:43:22.751 : en:"There Won't Be Many Coming Home"

piratbit.ru

Скачать фильм Омерзительная восьмерка через торрент в хорошем качестве бесплатно 720p от potroks] DUB

Общее Уникальный идентификатор : 190692818104139169488528634110606700387 (0x8F7619D1BD8CEC7BA23DCD30741DEF63) Полное имя : Omerzitelnaya.Vosmerka.2015.4xRus.Eng.BDRip.720p.-HELLYWOOD.mkv Формат : Matroska Версия формата : Version 4 / Version 2 Размер файла : 9,46 Гбайт Продолжительность : 2 ч. 47 м. Общий поток : 8062 Кбит/сек Название фильма : The Hateful Eight (2015) Дата кодирования : UTC 2016-05-16 18:22:46 Программа кодирования : mkvmerge v5.9.0 ('On The Loose') built on Dec 15 2012 16:39:58 Библиотека кодирования : libebml v1.3.0 + libmatroska v1.4.0

Видео Идентификатор : 1 Формат : AVC Формат/Информация : Advanced Video Codec Профиль формата : [email protected] Параметр CABAC формата : Да Параметр ReFrames формата : 9 кадров Идентификатор кодека : V_MPEG4/ISO/AVC Продолжительность : 2 ч. 47 м. Битрейт : 4866 Кбит/сек Ширина : 1280 пикселей Высота : 464 пикселя Соотношение сторон : 2,759 Режим частоты кадров : Постоянный Частота кадров : 23,976 (24000/1001) кадра/сек Цветовое пространство : YUV Субдискретизация насыщенности : 4:2:0 Битовая глубина : 8 бит Тип развёртки : Прогрессивная Бит/(Пиксели*Кадры) : 0.342 Размер потока : 5,51 Гбайт (58%) Заголовок : potroks Библиотека кодирования : x264 core 148 r2665M a01e339 Настройки программы : cabac=1 / ref=9 / deblock=1:-3:-3 / analyse=0x3:0x133 / me=umh / subme=11 / psy=1 / psy_rd=1.02:0.10 / mixed_ref=1 / me_range=48 / chroma_me=1 / trellis=2 / 8x8dct=1 / cqm=0 / deadzone=21,11 / fast_pskip=0 / chroma_qp_offset=-3 / threads=9 / lookahead_threads=2 / sliced_threads=0 / nr=0 / decimate=1 / interlaced=0 / bluray_compat=0 / constrained_intra=0 / bframes=10 / b_pyramid=2 / b_adapt=2 / b_bias=0 / direct=3 / weightb=1 / open_gop=0 / weightp=2 / keyint=240 / keyint_min=23 / scenecut=40 / intra_refresh=0 / rc=2pass / mbtree=0 / bitrate=4866 / ratetol=1.0 / qcomp=0.70 / qpmin=0 / qpmax=69 / qpstep=4 / cplxblur=20.0 / qblur=0.5 / ip_ratio=1.40 / pb_ratio=1.30 / aq=1:0.80 Язык : English Default : Да Forced : Нет

Аудио #1 Идентификатор : 2 Формат : AC-3 Формат/Информация : Audio Coding 3 Расширение режима : CM (complete main) Параметр Endianness формата : Big Идентификатор кодека : A_AC3 Продолжительность : 2 ч. 47 м. Вид битрейта : Постоянный Битрейт : 640 Кбит/сек Каналы : 6 каналов Расположение каналов : Front: L C R, Side: L R, LFE Частота : 48,0 КГц Частота кадров : 31,250 кадров/сек (1536 spf) Метод сжатия : С потерями Размер потока : 769 Мбайт (8%) Заголовок : Dub | DD 5.1 @ 640 kbps - Blu-ray RUS Язык : Russian Default : Да Forced : Нет

Аудио #2 Идентификатор : 3 Формат : AC-3 Формат/Информация : Audio Coding 3 Расширение режима : CM (complete main) Параметр Endianness формата : Big Идентификатор кодека : A_AC3 Продолжительность : 2 ч. 47 м. Вид битрейта : Постоянный Битрейт : 640 Кбит/сек Каналы : 6 каналов Расположение каналов : Front: L C R, Side: L R, LFE Частота : 48,0 КГц Частота кадров : 31,250 кадров/сек (1536 spf) Метод сжатия : С потерями Размер потока : 769 Мбайт (8%) Заголовок : AVO | DD 5.1 @ 640 kbps - D.Yesarev Язык : Russian Default : Нет Forced : Нет

Аудио #3 Идентификатор : 4 Формат : AC-3 Формат/Информация : Audio Coding 3 Расширение режима : CM (complete main) Параметр Endianness формата : Big Идентификатор кодека : A_AC3 Продолжительность : 2 ч. 47 м. Вид битрейта : Постоянный Битрейт : 640 Кбит/сек Каналы : 6 каналов Расположение каналов : Front: L C R, Side: L R, LFE Частота : 48,0 КГц Частота кадров : 31,250 кадров/сек (1536 spf) Метод сжатия : С потерями Размер потока : 769 Мбайт (8%) Заголовок : AVO | DD 5.1 @ 640 kbps - A.Matveev Язык : Russian Default : Нет Forced : Нет

Аудио #4 Идентификатор : 5 Формат : AC-3 Формат/Информация : Audio Coding 3 Расширение режима : CM (complete main) Параметр Endianness формата : Big Идентификатор кодека : A_AC3 Продолжительность : 2 ч. 47 м. Вид битрейта : Постоянный Битрейт : 640 Кбит/сек Каналы : 6 каналов Расположение каналов : Front: L C R, Side: L R, LFE Частота : 48,0 КГц Частота кадров : 31,250 кадров/сек (1536 spf) Метод сжатия : С потерями Размер потока : 769 Мбайт (8%) Заголовок : AVO | DD 5.1 @ 640 kbps - Yu.Serbin Язык : Russian Default : Нет Forced : Нет

Аудио #5 Идентификатор : 6 Формат : AC-3 Формат/Информация : Audio Coding 3 Расширение режима : CM (complete main) Параметр Endianness формата : Big Идентификатор кодека : A_AC3 Продолжительность : 2 ч. 47 м. Вид битрейта : Постоянный Битрейт : 640 Кбит/сек Каналы : 6 каналов Расположение каналов : Front: L C R, Side: L R, LFE Частота : 48,0 КГц Частота кадров : 31,250 кадров/сек (1536 spf) Метод сжатия : С потерями Размер потока : 769 Мбайт (8%) Заголовок : Original | DD 5.1 @ 640 kbps Язык : English Default : Нет Forced : Нет

Текст #1 Идентификатор : 7 Формат : UTF-8 Идентификатор кодека : S_TEXT/UTF8 Идентификатор кодека/Информация : UTF-8 Plain Text Заголовок : Forced [potroks] Язык : Russian Default : Да Forced : Нет

Текст #2 Идентификатор : 8 Формат : UTF-8 Идентификатор кодека : S_TEXT/UTF8 Идентификатор кодека/Информация : UTF-8 Plain Text Заголовок : Translation: Ruslan Akhmetov Язык : Russian Default : Нет Forced : Нет

Текст #3 Идентификатор : 9 Формат : UTF-8 Идентификатор кодека : S_TEXT/UTF8 Идентификатор кодека/Информация : UTF-8 Plain Text Заголовок : A.Matveev Язык : Russian Default : Нет Forced : Нет

Текст #4 Идентификатор : 10 Формат : UTF-8 Идентификатор кодека : S_TEXT/UTF8 Идентификатор кодека/Информация : UTF-8 Plain Text Заголовок : Full Язык : English Default : Нет Forced : Нет

Текст #5 Идентификатор : 11 Формат : UTF-8 Идентификатор кодека : S_TEXT/UTF8 Идентификатор кодека/Информация : UTF-8 Plain Text Заголовок : SDH Язык : English Default : Нет Forced : Нет

Текст #6 Идентификатор : 12 Формат : UTF-8 Идентификатор кодека : S_TEXT/UTF8 Идентификатор кодека/Информация : UTF-8 Plain Text Заголовок : SDH-Coored Язык : English Default : Нет Forced : Нет

Меню 00:00:00.000 : :Chapter 1 00:04:33.523 : :Chapter 2 00:11:36.111 : :Chapter 3 00:22:01.361 : :Chapter 4 00:35:02.431 : :Chapter 5 00:43:31.900 : :Chapter 6 00:52:12.211 : :Chapter 7 00:59:04.498 : :Chapter 8 01:08:30.314 : :Chapter 9 01:16:10.856 : :Chapter 10 01:25:18.445 : :Chapter 11 01:35:06.492 : :Chapter 12 01:42:20.175 : :Chapter 13 01:50:33.335 : :Chapter 14 01:59:32.497 : :Chapter 15 02:06:43.052 : :Chapter 16 02:13:26.622 : :Chapter 17 02:19:59.724 : :Chapter 18 02:24:17.022 : :Chapter 19 02:34:08.111 : :Chapter 20 02:39:38.025 : :Chapter 21 02:43:22.751 : :Chapter 22

piratbit.ru


Смотрите также