Окулус скачать торрент в хорошем качестве


Скачать фильм Окулус (2013) через торрент

gig-torrent.net

16 февраля 2016 07:16 Окулус / Oculus (2013) BDRip-AVC от New-Team | iTunes .torrent   [Информация о файле (нажмите для просмотра)] Перевод: Профессиональный (полное дублирование) [Лицензия iTunes]Субтитры: русские, английские, английские (SDH), английские (SDH COLORED)Видео: 2169 Кбит/сек, 1152*480 (2,40:1), в 23,976 кадр/сек, AVCАудио №1: Russian, 384 Кбит/сек, 48,0 КГц, 16 бит, 6 канала(ов), AC-3Аудио №2: English, 448 Кбит/сек, 48,0 КГц, 16 бит, 6 канала(ов), AC-3Видео: Идентификатор : 1 Формат : AVC Формат/Информация : Advanced Video Codec Профиль формата : [email protected] Параметр CABAC формата : Да Параметр ReFrames формата : 13 кадры Идентификатор кодека : V_MPEG4/ISO/AVC Продолжительность : 1 ч. 44 м. Битрейт : 2169 Кбит/сек Ширина : 1152 пикс. Высота : 480 пикс. Соотношение сторон : 2,40:1 Частота кадров : 23,976 кадр/сек Цветовое пространство : YUV Подвыборка цветности : 4:2:0 Битовая глубина : 8 бит Тип развёртки : Прогрессивная Бит/(Пиксели*Кадры) : 0.164 Размер потока : 1,53 Гбайт (70%) Заголовок : Oculus (2013) (New-Team) (Rip by Stalker oK) Библиотека кодирования : x264 core 146 r2538kMod 121396c Настройки программы : cabac=1 / ref=13 / deblock=1:-3:-3 / analyse=0x3:0x133 / me=umh / subme=11 / psy=1 / fade_compensate=0.00 / psy_rd=1.00:0.12 / mixed_ref=1 / me_range=48 / chroma_me=1 / trellis=2 / 8x8dct=1 / cqm=0 / deadzone=21,11 / fast_pskip=0 / chroma_qp_offset=-3 / threads=12 / lookahead_threads=3 / sliced_threads=0 / nr=0 / decimate=0 / interlaced=0 / bluray_compat=0 / constrained_intra=0 / fgo=0 / bframes=13 / b_pyramid=2 / b_adapt=2 / b_bias=0 / direct=3 / weightb=1 / open_gop=0 / weightp=2 / keyint=240 / keyint_min=23 / scenecut=40 / intra_refresh=0 / rc_lookahead=60 / rc=2pass / mbtree=0 / bitrate=2169 / ratetol=1.0 / qcomp=0.70 / qpmin=0 / qpmax=69 / qpstep=4 / cplxblur=20.0 / qblur=0.5 / vbv_maxrate=50000 / vbv_bufsize=62500 / nal_hrd=none / filler=0 / ip_ratio=1.40 / pb_ratio=1.30 / aq=3:0.87Аудио #1: Идентификатор : 2 Формат : AC-3 Формат/Информация : Audio Coding 3 Расширение режима : CM (complete main) Идентификатор кодека : A_AC3 Продолжительность : 1 ч. 44 м. Вид битрейта : Постоянный Битрейт : 384 Кбит/сек Канал(ы) : 6 канала(ов) Расположение каналов : Front: L C R, Side: L R, LFE Частота : 48,0 КГц Битовая глубина : 16 бит Метод сжатия : С потерями Размер потока : 286 Мбайт (13%) Язык : RussianАудио #2: Идентификатор : 3 Формат : AC-3 Формат/Информация : Audio Coding 3 Расширение режима : CM (complete main) Идентификатор кодека : A_AC3 Продолжительность : 1 ч. 44 м. Вид битрейта : Постоянный Битрейт : 448 Кбит/сек Канал(ы) : 6 канала(ов) Расположение каналов : Front: L C R, Side: L R, LFE Частота : 48,0 КГц Битовая глубина : 16 бит Метод сжатия : С потерями Размер потока : 333 Мбайт (15%) Язык : English 2,18 Gb 147 7
16 февраля 2016 07:16 Окулус / Oculus (2013) BDRip-AVC от New-Team | iTunes .torrent   [Информация о файле (нажмите для просмотра)] Перевод: Профессиональный (полное дублирование) [Лицензия iTunes]Субтитры: русские, английские, английские (SDH), английские (SDH COLORED)Видео: 1614 Кбит/сек, 1056x440 (2.40:1), 23,976 кадр/сек, AVCАудио: русский, 384 Кбит/сек, 48 КГц, 16 бит, 5.1, AC3 1,45 Gb 206 6
16 февраля 2016 07:16 Окулус / Oculus (2013) HDRip от MegaPeer | Лицензия .torrent   [Информация о файле (нажмите для просмотра)] Перевод: Дублированный [Лицензия]Качество: HDRipФормат: AVIВидео: XviD, 1543 Кбит/с, 688х288Аудио: 48 kHz, AC3, 6 ch, 448 Кбит/с 1,45 Gb 91 4
16 февраля 2016 07:16 Окулус / Oculus (2013) BDRip-AVC от Leonardo and Scarabey | Лицензия .torrent   [Информация о файле (нажмите для просмотра)] Перевод: Профессиональный (полное дублирование) ЛицензияФормат: MKVВидео кодек: MPEG-4 AVC Аудио кодек: AC3Видео: AVC, 1024x426 (2.40:1) at 23.976 fps, AVC at 925 kbps avg, 0.088 bit/pixelАудио: Russian; 48 kHz; AC3 Dolby Digital; 3/2 (L,C,R,l,r) + LFE ch; 448 kbps avgАудио: English; 48 kHz; AC3 Dolby Digital; 3/2 (L,C,R,l,r) + LFE ch; 448 kbps avgСубтитры: Русские, английские 1,34 Gb 43 2
16 февраля 2016 07:16 Окулус / Oculus (2013) BDRip 720p от Leonardo and Scarabey | Лицензия .torrent   [Информация о файле (нажмите для просмотра)] Перевод: Профессиональный (полное дублирование) ЛицензияФормат: MKVВидео кодек: MPEG-4 AVC Аудио кодек: AC3Видео: 1280x534 (2.40:1) at 23.976 fps, AVC at 3447 kbps avg, 0.210 bit/pixelАудио: 48 kHz; AC3 Dolby Digital; 3/2 (L,C,R,l,r) + LFE ch; 448 kbps avgСубтитры: Русские, английские 2,89 Gb 150 12
16 февраля 2016 07:16 Окулус / Oculus (2013) BDRip 1080p от Leonardo and Scarabey | Лицензия .torrent   [Информация о файле (нажмите для просмотра)] Перевод: Профессиональный (полное дублирование) ЛицензияФормат: MKVВидео кодек: MPEG-4 AVC Аудио кодек: AC3Видео: 1920x800 (2.40:1) at 23.976 fps, AVC at 5396 kbps avg, 0.147 bit/pixelАудио: Russian; 48 kHz; AC3 Dolby Digital; 3/2 (L,C,R,l,r) + LFE ch; 448 kbps avgАудио: English; 48 kHz; AC3 Dolby Digital; 3/2 (L,C,R,l,r) + LFE ch; 448 kbps avgСубтитры: Русские, английские 4,66 Gb 75 6
16 февраля 2016 07:16 Окулус / Oculus (2013) BDRip от HQCLUB | Лицензия .torrent   [Информация о файле (нажмите для просмотра)] Перевод: Профессиональный (полное дублирование) R5 + Оригинал (английский)Субтитры: русские, английские (обычные, SDH, SDH-Colored)Формат: AVIКачество: BDRip (источник:Видео: 720x304 (2.37:1), 23.976 fps, XviD build 65 ~2105 kbps avg, 0.40 bit/pixelАудио #1: 48 kHz, AC3 Dolby Digital, 3/2 (L,C,R,l,r) + LFE ch, ~448 kbps avg (RUS)Аудио #2: 48 kHz, AC3 Dolby Digital, 3/2 (L,C,R,l,r) + LFE ch, ~448 kbps avg (ENG) 2,19 Gb 31 1
16 февраля 2016 07:16 Окулус / Oculus (2013) BDRip 1080p от NNNB .torrent   [Информация о файле (нажмите для просмотра)] Перевод: ДублированныйКачество: BDRip 1080p (исходник Blu-ray Disc)Видео: 1920x800, 9593 Кбит/сек, 23,976 кадр/сек, AVC, x264, [email protected], 2.40:1, 0.260 Бит/[Пиксели*Кадры]Аудио 1: AC-3, 448 Кбит/сек, 6 канала(ов), 48,0 КГц - Дублированный / РусскийАудио 2: AC-3, 640 Кбит/сек, 6 канала(ов), 48,0 КГц - Оригинал / АнглийскийСубтитры: Русские | Полные, Английские | Полные 7,74 Gb 51 4
16 февраля 2016 07:16 Окулус / Oculus (2013) DVD5 от New-Team | D | Лицензия .torrent   [Информация о файле (нажмите для просмотра)] Перевод: Профессиональный (полное дублирование)Кодек: MPEG2Качество: DVD5Видео: PAL 16:9 (720x576) VBR ~ 5858.08 kbps avgЗвук: Русский DD 5.1 (448Kbps)Субтитры: Нет 4,12 Gb 24 4
16 февраля 2016 07:16 Окулус / Oculus (2014) BDRip-AVC от HELLYWOOD | iTunes .torrent   [Информация о файле (нажмите для просмотра)] Перевод: Профессиональный (полное дублирование) [iTunes]Субтитры: Английские (Full + SDH + SDH-Colored)Качество: BDRip-AVCФормат: MKVВидео: х.264, 1104x460 (2,40:1), 23,976 fps, 2103 kbps, 0.173 bit/pixelАудио#1: 48 kHz, AC3 Dolby Digital, 3/2 (L,C,R,l,r) + LFE ch, 384.00 kbps |RUSАудио#2: 48 kHz, AC3 Dolby Digital, 3/2 (L,C,R,l,r) + LFE ch, 384.00 kbps |ENG 2,08 Gb 8 1
16 февраля 2016 07:16 Окулус / Oculus (2014) HDRip от ExKinoRay | D | Лицензия .torrent   [Информация о файле (нажмите для просмотра)] Качество: HDRipВидео: XviD, 1967 Кбит/с, 720x304Аудио: Русский (AC3, 6 ch, 448 Кбит/с), английский (AC3, 6 ch, 384 Кбит/c)Перевод: Дублированный (Лицензия) 2,04 Gb 12 1
16 февраля 2016 07:16 Окулус / Oculus (2013) BDRip-AVC | D .torrent   [Информация о файле (нажмите для просмотра)] Перевод: Дублированный (Лицензия)Кодек: H.264Формат: MKVКачество: BDRip-AVC (Blu-Ray Remux (1080р))Видео: MPEG-4 AVC, 2047 Кбит/с, 1024х424Звук: Русский, английский (АС3, 6 ch, 448 Кбит/с) 2,14 Gb 8 5
16 февраля 2016 07:16 Окулус / Oculus (2013) BDRemux 1080p от NovaLan .torrent   [Информация о файле (нажмите для просмотра)] Перевод: Дублированный(Лицензия)Кодек: H.264Качество: Blu-Ray Remux 1080pВидео: MPEG-4 AVC, 31221 Кбит/с, 1920х1080, 23.976 кадр/сЗвук: Русский (AC3, 6 ch, 448 Кбит/с), английский (DTS-HD MA, 6 ch, 3616 Кбит/с), (AC3, 2 ch, 224 Кбит/с)Субтитры: Английские 27,18 Gb 4 4
16 февраля 2016 07:16 Окулус / Oculus (2014) HDRip от Scarabey | D | iTunes .torrent   [Информация о файле (нажмите для просмотра)] Перевод: Профессиональный (полное дублирование)Качество: HDRipФормат: AVIВидео: 720x304 (2.37:1), 23.976 fps, XviD build 73 ~1599 kbps avg, 0.30 bit/pixelАудио: 48 kHz, AC3 Dolby Digital, 3/2 (L,C,R,l,r) + LFE ch, ~384 kbps 1,45 Gb 766 21
16 февраля 2016 07:16 Окулус / Oculus (2014) HDRip от Scarabey | D | iTunes .torrent   [Информация о файле (нажмите для просмотра)] Перевод: Профессиональный (полное дублирование) - iTunesКачество: HDRipФормат: AVIВидео: 688x288 (2.39:1), 23.976 fps, XviD build 73 ~884 kbps avg, 0.19 bit/pixelАудио: 48 kHz, MPEG Layer 3, 2 ch, ~128.00 kbps avg 760,48 Mb 68 5
16 февраля 2016 07:16 Окулус / Oculus (2013) BDRemux 1080р от ExKinoRay | iTunes Russia .torrent   [Информация о файле (нажмите для просмотра)] Качество: Blu-Ray Remux (1080p)Видео: MPEG-4 AVC, 31221 Kбит/с, 1920x1080, 23.976 кадр/сАудио: Русский (AC3, 6 ch, 384 Кбит/с), английский (DTS-HD MА, 6 ch, 3616 Кбит/с)Перевод: ДублированныйСубтитры: АнглийскиеВидео: Идентификатор : 1 Формат : AVC Формат/Информация : Advanced Video Codec Профиль формата : [email protected] Параметр CABAC формата : Да Параметр ReFrames формата : 2 кадра Идентификатор кодека : V_MPEG4/ISO/AVC Продолжительность : 1 ч. 44 м. Вид битрейта : Переменный Ширина : 1920 пикселей Высота : 1080 пикселей Соотношение сторон : 16:9 Режим частоты кадров : Постоянный Частота кадров : 23,976 кадра/сек Цветовое пространство : YUV Субдискретизация насыщенности : 4:2:0 Битовая глубина : 8 бит Тип развёртки : Прогрессивная Default : Да Forced : НетАудио #1: Идентификатор : 2 Формат : AC-3 Формат/Информация : Audio Coding 3 Расширение режима : CM (complete main) Параметр Endianness формата : Big Идентификатор кодека : A_AC3 Продолжительность : 1 ч. 44 м. Вид битрейта : Постоянный Битрейт : 384 Кбит/сек Каналы : 6 каналов Расположение каналов : Front: L C R, Side: L R, LFE Частота : 48,0 КГц Битовая глубина : 16 бит Метод сжатия : С потерями Размер потока : 286 Мбайт (1%) Заголовок : Дублированный (iTunes Russian) Язык : Russian Default : Да Forced : НетАудио #2: Идентификатор : 3 Формат : DTS Формат/Информация : Digital Theater Systems Профиль формата : MA / Core Режим : 16 Параметр Endianness формата : Big Идентификатор кодека : A_DTS Продолжительность : 1 ч. 44 м. Вид битрейта : Переменный Битрейт : Неизвестно / 1509 Кбит/сек Каналы : 6 каналов Расположение каналов : Front: L C R, Side: L R, LFE Частота : 48,0 КГц Битовая глубина : 24 бит Метод сжатия : Без потерь / Lossy Язык : English Default : Нет Forced : Нет 25,6 Gb 18 5
16 февраля 2016 07:16 Окулус / Oculus (2013) HDRip-AVC | D .torrent   [Информация о файле (нажмите для просмотра)] Перевод: Дублированный (iTunes)Кодек: H.264Формат: MKVКачество: HDRip-AVCВидео: MPEG-4 AVC, 2047 Кбит/с, 1024х424Звук: Русский, английский (АС3, 6 ch, 384 Кбит/с) 2,05 Gb 10 4
16 февраля 2016 07:16 Окулус / Oculus (2013) BDRip 720p | iTunes .torrent   [Информация о файле (нажмите для просмотра)] Формат: MKVКачество: BDRip 720pВидео: 4499 Kb/s, 1280x536Аудио: Russian: AC3, 384 Kb/s (6 ch) / English: DTS, 1509 Kb/s (6 ch)Субтитры: English 4,65 Gb 28 2
16 февраля 2016 07:16 Окулус / Oculus (2013) HDRip | iTunes .torrent   [Информация о файле (нажмите для просмотра)] Формат: AVI (XviD)Качество: HDRipВидео: 1487 kb/s, 720x304Аудио: AC3, 384 kb/s (6 ch) 1,37 Gb 32 5
16 февраля 2016 07:16 Окулус / Oculus (2013) HDRip | iTunes .torrent   [Информация о файле (нажмите для просмотра)] Формат: AVI (XviD)Качество: HDRipВидео: 802 kb/s, 720x304Аудио: AC3, 128 kb/s (2 ch) 699,69 Mb 2 5
16 февраля 2016 07:15 Окулус / Oculus (2013) HDRip | iTunes .torrent   [Информация о файле (нажмите для просмотра)] Формат: AVI (XviD)Качество: HDRipВидео: 1978 kb/s, 720x304Аудио: Russian: AC3, 384 kb/s (6 ch) / English: AC3, 448 kb/s (6 ch)Формат: AVIВидео: Идентификатор Формат: MPEG-4 VisualАудио #1: Идентификатор Формат: AC-3Аудио #2: Идентификатор Формат: AC-3 2,05 Gb 4 3
16 февраля 2016 07:15 Окулус / Oculus (2013) HDRip-AVC | iTunes .torrent   [Информация о файле (нажмите для просмотра)] Формат: AVI (XviD)Качество: HDRipВидео: MPEG-4 AVC, 1496 Кбит/с, 720x304Аудио: AC3, 6 ch, 384 Кбит/с 1,36 Gb 10 3
16 февраля 2016 07:15 Окулус / Oculus (2014) WEB-DLRip-AVC от New-Team | D | iTunes .torrent   [Информация о файле (нажмите для просмотра)] Перевод: Профессиональный (дублированный)|iTunes|Видео: 880x370 (2,40:1), 24,000 fps, x264 ~936 kbps avg, 0.120 bit/pixelАудио: 48 KHz / 24 KHz, AAC HE-AAC / LC, 2/0 (L,R) ch, ~72 kbps |Дубляж, 742,56 Mb 15 4
16 февраля 2016 07:15 Окулус / Oculus (2014) WEB-DLRip от Scarabey | D | iTunes .torrent   [Информация о файле (нажмите для просмотра)] Перевод: Профессиональный (полное дублирование)Качество: WEB-DLRipФормат: AVIВидео: 720x304 (2.37:1), 24 fps, XviD build 73 ~1651 kbps avg, 0.31 bit/pixelАудио: 48 kHz, AC3 Dolby Digital, 3/2 (L,C,R,l,r) + LFE ch, ~384.00 kbps avg 1,47 Gb 108 4
16 февраля 2016 07:15 Окулус / Oculus (2014) WEB-DLRip от Scarabey | D | iTunes .torrent   [Информация о файле (нажмите для просмотра)] Перевод: Профессиональный (полное дублирование)Качество: WEB-DLRipФормат: AVIВидео: 688x288 (2.39:1), 24 fps, XviD build 73 ~913 kbps avg, 0.19 bit/pixelАудио: 48 kHz, MPEG Layer 3, 2 ch, ~128.00 kbps avg 773,53 Mb 5 3
16 февраля 2016 07:15 Окулус / Oculus (2014) WEB-DLRip от New-Team | D | iTunes .torrent   [Информация о файле (нажмите для просмотра)] Перевод: Профессиональный (дублированный)|iTunes|Видео: 720x304 (2.35:1), 24.000 fps, XviD 65 ~1592 kbps avg, 0.303 bit/pixelАудио: 48 kHz, AC3 Dolby Digital, 3/2 (L,C,R,l,r) + LFE ch, 384.00 kbps Constant |Дубляж, 1,43 Gb 7 4

Скачать торрент Окулус / Oculus (2013) BDRip-AVC от New-Team

ОкулусOculus

«Хочешь жить – закрой глаза»

Страна: СШАЖанр: ужасы, триллерГод выпуска: 2013Продолжительность: 01:44:03

Перевод: Профессиональный (полное дублирование) [Лицензия iTunes]Субтитры: русские, английские, английские (SDH), английские (SDH COLORED)Оригинальная аудиодорожка: Английский

Режиссер: Майк Флэнеган / Mike Flanagan

В ролях: Карен Гиллан, Брентон Туэйтс, Кэти Сакхофф, Рори Кокрейн, Анналиса Бассо, Гаррет Райан, Джеймс Лэфферти, Мигель Сандовал, Кейт Сигел, Скотт Грэхэм, Майкл Дж. Фуртик, Катрин Паркер

Описание: Смерть родителей сильно повлияла на судьбу двух осиротевших детей. По прошествии времени, в двадцатилетнем возрасте, сестра все еще продолжает так считать и хочет доказать брату, что привидение, вышедшее из зеркала, стало причиной гибели близких людей и всех случившихся последующих бед...

Релиз:

Автор рипа: Stalker oK

Сэмпл

Качество видео: BDRip-AVC [Blu-ray Remux 1080p]Формат видео: MKVВидео кодек: AVCАудио кодек: AC3Видео: 2169 Кбит/сек, 1152*480 (2,40:1), в 23,976 кадр/сек, AVCАудио №1: Russian, 384 Кбит/сек, 48,0 КГц, 16 бит, 6 канала(ов), AC-3Аудио №2: English, 448 Кбит/сек, 48,0 КГц, 16 бит, 6 канала(ов), AC-3Навигация по главам: есть

MediaInfo

Общее Уникальный идентификатор : 213968238803041311261299586733105903761 (0xA0F8C8A8CFB837878B26901904867891) Полное имя : M:RipsOculusOculus.2013.BDRip-AVC.Dub.2.18Gb...stalkerok.new-team.mkv Формат : Matroska Размер файла : 2,18 Гбайт Продолжительность : 1 ч. 44 м. Общий поток : 3000 Кбит/сек Название фильма : Oculus (2013) (New-Team) (Rip by Stalker oK) Дата кодирования : UTC 2015-11-28 15:20:55 Программа кодирования : mkvmerge v7.9.0 ('Birds') 64bit Библиотека кодирования : libebml v1.3.1 + libmatroska v1.4.2

Видео Идентификатор : 1 Формат : AVC Формат/Информация : Advanced Video Codec Профиль формата : [email protected] Параметр CABAC формата : Да Параметр ReFrames формата : 13 кадры Идентификатор кодека : V_MPEG4/ISO/AVC Продолжительность : 1 ч. 44 м. Битрейт : 2169 Кбит/сек Ширина : 1152 пикс. Высота : 480 пикс. Соотношение сторон : 2,40:1 Частота кадров : 23,976 кадр/сек Цветовое пространство : YUV Подвыборка цветности : 4:2:0 Битовая глубина : 8 бит Тип развёртки : Прогрессивная Бит/(Пиксели*Кадры) : 0.164 Размер потока : 1,53 Гбайт (70%) Заголовок : Oculus (2013) (New-Team) (Rip by Stalker oK) Библиотека кодирования : x264 core 146 r2538kMod 121396c Настройки программы : cabac=1 / ref=13 / deblock=1:-3:-3 / analyse=0x3:0x133 / me=umh / subme=11 / psy=1 / fade_compensate=0.00 / psy_rd=1.00:0.12 / mixed_ref=1 / me_range=48 / chroma_me=1 / trellis=2 / 8x8dct=1 / cqm=0 / deadzone=21,11 / fast_pskip=0 / chroma_qp_offset=-3 / threads=12 / lookahead_threads=3 / sliced_threads=0 / nr=0 / decimate=0 / interlaced=0 / bluray_compat=0 / constrained_intra=0 / fgo=0 / bframes=13 / b_pyramid=2 / b_adapt=2 / b_bias=0 / direct=3 / weightb=1 / open_gop=0 / weightp=2 / keyint=240 / keyint_min=23 / scenecut=40 / intra_refresh=0 / rc_lookahead=60 / rc=2pass / mbtree=0 / bitrate=2169 / ratetol=1.0 / qcomp=0.70 / qpmin=0 / qpmax=69 / qpstep=4 / cplxblur=20.0 / qblur=0.5 / vbv_maxrate=50000 / vbv_bufsize=62500 / nal_hrd=none / filler=0 / ip_ratio=1.40 / pb_ratio=1.30 / aq=3:0.87

Аудио #1 Идентификатор : 2 Формат : AC-3 Формат/Информация : Audio Coding 3 Расширение режима : CM (complete main) Идентификатор кодека : A_AC3 Продолжительность : 1 ч. 44 м. Вид битрейта : Постоянный Битрейт : 384 Кбит/сек Канал(ы) : 6 канала(ов) Расположение каналов : Front: L C R, Side: L R, LFE Частота : 48,0 КГц Битовая глубина : 16 бит Метод сжатия : С потерями Размер потока : 286 Мбайт (13%) Язык : Russian

Аудио #2 Идентификатор : 3 Формат : AC-3 Формат/Информация : Audio Coding 3 Расширение режима : CM (complete main) Идентификатор кодека : A_AC3 Продолжительность : 1 ч. 44 м. Вид битрейта : Постоянный Битрейт : 448 Кбит/сек Канал(ы) : 6 канала(ов) Расположение каналов : Front: L C R, Side: L R, LFE Частота : 48,0 КГц Битовая глубина : 16 бит Метод сжатия : С потерями Размер потока : 333 Мбайт (15%) Язык : English

Текст #1 Идентификатор : 4 Формат : UTF-8 Идентификатор кодека : S_TEXT/UTF8 Идентификатор кодека/Информация : UTF-8 Plain Text Язык : Russian

Текст #2 Идентификатор : 5 Формат : UTF-8 Идентификатор кодека : S_TEXT/UTF8 Идентификатор кодека/Информация : UTF-8 Plain Text Язык : English

Текст #3 Идентификатор : 6 Формат : UTF-8 Идентификатор кодека : S_TEXT/UTF8 Идентификатор кодека/Информация : UTF-8 Plain Text Заголовок : SDH Язык : English

Текст #4 Идентификатор : 7 Формат : UTF-8 Идентификатор кодека : S_TEXT/UTF8 Идентификатор кодека/Информация : UTF-8 Plain Text Заголовок : SDH COLORED Язык : English

Меню 00:00:00.000 : en:Chapter 1 00:03:10.689 : en:Chapter 2 00:07:26.571 : en:Chapter 3 00:12:32.750 : en:Chapter 4 00:14:41.879 : en:Chapter 5 00:19:54.317 : en:Chapter 6 00:24:35.056 : en:Chapter 7 00:30:56.395 : en:Chapter 8 00:34:01.413 : en:Chapter 9 00:39:20.148 : en:Chapter 10 00:42:50.108 : en:Chapter 11 00:46:09.931 : en:Chapter 12 00:51:21.411 : en:Chapter 13 00:54:53.581 : en:Chapter 14 00:57:14.389 : en:Chapter 15 01:01:54.251 : en:Chapter 16 01:08:05.539 : en:Chapter 17 01:11:46.591 : en:Chapter 18 01:14:19.496 : en:Chapter 19 01:19:14.750 : en:Chapter 20 01:23:16.698 : en:Chapter 21 01:28:45.235 : en:Chapter 22 01:34:24.617 : en:Chapter 23 01:37:17.997 : en:Chapter 24

krutor.org

Скачать фильм Окулус через торрент в хорошем качестве бесплатно 720p by msltel

frame I:1389 Avg QP:13.97 size:103153frame P:27825 Avg QP:15.29 size: 42027frame B:120474 Avg QP:17.24 size: 12723ОбщееУникальный идентификатор : 191110986822855774342424986349906290591 (0x8FC6A321010F708FBDE4A7C242E5E79F)Полное имя : D:\Video\Oculus.2013.BDRip.720p by msltel.mkvФормат : MatroskaВерсия формата : Version 4 / Version 2Размер файла : 3,30 ГбайтПродолжительность : 1 ч. 44 м.Общий поток : 4540 Кбит/секНазвание фильма : Rip by msltelДата кодирования : UTC 2017-02-05 11:33:58Программа кодирования : mkvmerge v8.2.0 ('World of Adventure') 64bitБиблиотека кодирования : libebml v1.3.1 + libmatroska v1.4.2

ВидеоИдентификатор : 1Формат : AVCФормат/Информация : Advanced Video CodecПрофиль формата : [email protected]Параметр CABAC формата : ДаПараметр ReFrames формата : 9 кадровИдентификатор кодека : V_MPEG4/ISO/AVCПродолжительность : 1 ч. 44 м.Битрейт : 3646 Кбит/секШирина : 1280 пикселейВысота : 534 пикселяСоотношение сторон : 2,40:1Режим частоты кадров : ПостоянныйЧастота кадров : 23,976 (24000/1001) кадра/секЦветовое пространство : YUVСубдискретизация насыщенности : 4:2:0Битовая глубина : 8 битТип развёртки : ПрогрессивнаяБит/(Пиксели*Кадры) : 0.222Размер потока : 2,65 Гбайт (80%)Библиотека кодирования : x264 core 146 r2538 121396cНастройки программы : cabac=1 / ref=9 / deblock=1:-2:-2 / analyse=0x3:0x113 / me=umh / subme=11 / psy=1 / psy_rd=1.00:0.15 / mixed_ref=1 / me_range=32 / chroma_me=1 / trellis=2 / 8x8dct=1 / cqm=0 / deadzone=21,11 / fast_pskip=0 / chroma_qp_offset=-3 / threads=6 / lookahead_threads=1 / sliced_threads=0 / nr=0 / decimate=1 / interlaced=0 / bluray_compat=0 / constrained_intra=0 / bframes=8 / b_pyramid=2 / b_adapt=2 / b_bias=0 / direct=1 / weightb=1 / open_gop=0 / weightp=2 / keyint=230 / keyint_min=23 / scenecut=40 / intra_refresh=0 / rc_lookahead=40 / rc=crf / mbtree=0 / crf=18.0 / qcomp=0.60 / qpmin=0 / qpmax=69 / qpstep=4 / vbv_maxrate=62500 / vbv_bufsize=78125 / crf_max=0.0 / nal_hrd=none / filler=0 / ip_ratio=1.40 / pb_ratio=1.30 / aq=1:1.00Язык : EnglishDefault : ДаForced : Нет

Аудио #1Идентификатор : 2Формат : AC-3Формат/Информация : Audio Coding 3Расширение режима : CM (complete main)Параметр Endianness формата : BigИдентификатор кодека : A_AC3Продолжительность : 1 ч. 42 м.Вид битрейта : ПостоянныйБитрейт : 448 Кбит/секКаналы : 6 каналовРасположение каналов : Front: L C R, Side: L R, LFEЧастота : 48,0 КГцЧастота кадров : 31,250 кадров/сек (1536 spf)Битовая глубина : 16 битМетод сжатия : С потерямиРазмер потока : 330 Мбайт (10%)Заголовок : DUB (Лицензия R5 от «CD Land»)Язык : RussianDefault : ДаForced : Нет

Аудио #2Идентификатор : 3Формат : AC-3Формат/Информация : Audio Coding 3Расширение режима : CM (complete main)Параметр Endianness формата : BigИдентификатор кодека : A_AC3Продолжительность : 1 ч. 44 м.Вид битрейта : ПостоянныйБитрейт : 448 Кбит/секКаналы : 6 каналовРасположение каналов : Front: L C R, Side: L R, LFEЧастота : 48,0 КГцЧастота кадров : 31,250 кадров/сек (1536 spf)Битовая глубина : 16 битМетод сжатия : С потерямиРазмер потока : 333 Мбайт (10%)Заголовок : originalЯзык : EnglishDefault : НетForced : Нет

ТекстИдентификатор : 4Формат : UTF-8Идентификатор кодека : S_TEXT/UTF8Идентификатор кодека/Информация : UTF-8 Plain TextПродолжительность : 1 ч. 42 м.Битрейт : 46 бит/секCount of elements : 1106Размер потока : 35,0 Кбайт (0%)Заголовок : английские (для слабослышащих)Язык : EnglishDefault : НетForced : Нет

Меню00:00:00.000 : :Chapter 0100:03:10.690 : :Chapter 0200:07:26.570 : :Chapter 0300:12:32.751 : :Chapter 0400:14:41.880 : :Chapter 0500:19:54.318 : :Chapter 0600:24:35.056 : :Chapter 0700:30:56.396 : :Chapter 0800:34:01.414 : :Chapter 0900:39:20.149 : :Chapter 1000:42:50.109 : :Chapter 1100:46:09.933 : :Chapter 1200:51:21.411 : :Chapter 1300:54:53.581 : :Chapter 1400:57:14.389 : :Chapter 1501:01:54.252 : :Chapter 1601:08:05.539 : :Chapter 1701:11:46.593 : :Chapter 1801:14:19.496 : :Chapter 1901:19:14.750 : :Chapter 2001:23:16.700 : :Chapter 2101:28:45.236 : :Chapter 2201:34:24.617 : :Chapter 2301:37:17.997 : :Chapter 2401:44:03.028 : :Chapter 25

piratbit.ru

Скачать торрент Окулус / Oculus (2013) BDRip-AVC от New-Team

ОкулусOculus

«Хочешь жить – закрой глаза»

Страна: СШАЖанр: ужасы, триллерГод выпуска: 2013Продолжительность: 01:44:03

Перевод: Профессиональный (полное дублирование) [Лицензия iTunes]Субтитры: русские, английские, английские (SDH), английские (SDH COLORED)Оригинальная аудиодорожка: Английский

Режиссер: Майк Флэнеган / Mike Flanagan

В ролях: Карен Гиллан, Брентон Туэйтс, Кэти Сакхофф, Рори Кокрейн, Анналиса Бассо, Гаррет Райан, Джеймс Лэфферти, Мигель Сандовал, Кейт Сигел, Скотт Грэхэм, Майкл Дж. Фуртик, Катрин Паркер

Описание: Смерть родителей сильно повлияла на судьбу двух осиротевших детей. По прошествии времени, в двадцатилетнем возрасте, сестра все еще продолжает так считать и хочет доказать брату, что привидение, вышедшее из зеркала, стало причиной гибели близких людей и всех случившихся последующих бед...

Релиз:

Автор рипа: Stalker oK

Сэмпл

Качество видео: BDRip-AVC [Blu-ray Remux 1080p]Формат видео: MKVВидео кодек: AVCАудио кодек: AC3Видео: 2169 Кбит/сек, 1152*480 (2,40:1), в 23,976 кадр/сек, AVCАудио №1: Russian, 384 Кбит/сек, 48,0 КГц, 16 бит, 6 канала(ов), AC-3Аудио №2: English, 448 Кбит/сек, 48,0 КГц, 16 бит, 6 канала(ов), AC-3Навигация по главам: есть

MediaInfo

Общее Уникальный идентификатор : 213968238803041311261299586733105903761 (0xA0F8C8A8CFB837878B26901904867891) Полное имя : M:RipsOculusOculus.2013.BDRip-AVC.Dub.2.18Gb...stalkerok.new-team.mkv Формат : Matroska Размер файла : 2,18 Гбайт Продолжительность : 1 ч. 44 м. Общий поток : 3000 Кбит/сек Название фильма : Oculus (2013) (New-Team) (Rip by Stalker oK) Дата кодирования : UTC 2015-11-28 15:20:55 Программа кодирования : mkvmerge v7.9.0 ('Birds') 64bit Библиотека кодирования : libebml v1.3.1 + libmatroska v1.4.2

Видео Идентификатор : 1 Формат : AVC Формат/Информация : Advanced Video Codec Профиль формата : [email protected] Параметр CABAC формата : Да Параметр ReFrames формата : 13 кадры Идентификатор кодека : V_MPEG4/ISO/AVC Продолжительность : 1 ч. 44 м. Битрейт : 2169 Кбит/сек Ширина : 1152 пикс. Высота : 480 пикс. Соотношение сторон : 2,40:1 Частота кадров : 23,976 кадр/сек Цветовое пространство : YUV Подвыборка цветности : 4:2:0 Битовая глубина : 8 бит Тип развёртки : Прогрессивная Бит/(Пиксели*Кадры) : 0.164 Размер потока : 1,53 Гбайт (70%) Заголовок : Oculus (2013) (New-Team) (Rip by Stalker oK) Библиотека кодирования : x264 core 146 r2538kMod 121396c Настройки программы : cabac=1 / ref=13 / deblock=1:-3:-3 / analyse=0x3:0x133 / me=umh / subme=11 / psy=1 / fade_compensate=0.00 / psy_rd=1.00:0.12 / mixed_ref=1 / me_range=48 / chroma_me=1 / trellis=2 / 8x8dct=1 / cqm=0 / deadzone=21,11 / fast_pskip=0 / chroma_qp_offset=-3 / threads=12 / lookahead_threads=3 / sliced_threads=0 / nr=0 / decimate=0 / interlaced=0 / bluray_compat=0 / constrained_intra=0 / fgo=0 / bframes=13 / b_pyramid=2 / b_adapt=2 / b_bias=0 / direct=3 / weightb=1 / open_gop=0 / weightp=2 / keyint=240 / keyint_min=23 / scenecut=40 / intra_refresh=0 / rc_lookahead=60 / rc=2pass / mbtree=0 / bitrate=2169 / ratetol=1.0 / qcomp=0.70 / qpmin=0 / qpmax=69 / qpstep=4 / cplxblur=20.0 / qblur=0.5 / vbv_maxrate=50000 / vbv_bufsize=62500 / nal_hrd=none / filler=0 / ip_ratio=1.40 / pb_ratio=1.30 / aq=3:0.87

Аудио #1 Идентификатор : 2 Формат : AC-3 Формат/Информация : Audio Coding 3 Расширение режима : CM (complete main) Идентификатор кодека : A_AC3 Продолжительность : 1 ч. 44 м. Вид битрейта : Постоянный Битрейт : 384 Кбит/сек Канал(ы) : 6 канала(ов) Расположение каналов : Front: L C R, Side: L R, LFE Частота : 48,0 КГц Битовая глубина : 16 бит Метод сжатия : С потерями Размер потока : 286 Мбайт (13%) Язык : Russian

Аудио #2 Идентификатор : 3 Формат : AC-3 Формат/Информация : Audio Coding 3 Расширение режима : CM (complete main) Идентификатор кодека : A_AC3 Продолжительность : 1 ч. 44 м. Вид битрейта : Постоянный Битрейт : 448 Кбит/сек Канал(ы) : 6 канала(ов) Расположение каналов : Front: L C R, Side: L R, LFE Частота : 48,0 КГц Битовая глубина : 16 бит Метод сжатия : С потерями Размер потока : 333 Мбайт (15%) Язык : English

Текст #1 Идентификатор : 4 Формат : UTF-8 Идентификатор кодека : S_TEXT/UTF8 Идентификатор кодека/Информация : UTF-8 Plain Text Язык : Russian

Текст #2 Идентификатор : 5 Формат : UTF-8 Идентификатор кодека : S_TEXT/UTF8 Идентификатор кодека/Информация : UTF-8 Plain Text Язык : English

Текст #3 Идентификатор : 6 Формат : UTF-8 Идентификатор кодека : S_TEXT/UTF8 Идентификатор кодека/Информация : UTF-8 Plain Text Заголовок : SDH Язык : English

Текст #4 Идентификатор : 7 Формат : UTF-8 Идентификатор кодека : S_TEXT/UTF8 Идентификатор кодека/Информация : UTF-8 Plain Text Заголовок : SDH COLORED Язык : English

Меню 00:00:00.000 : en:Chapter 1 00:03:10.689 : en:Chapter 2 00:07:26.571 : en:Chapter 3 00:12:32.750 : en:Chapter 4 00:14:41.879 : en:Chapter 5 00:19:54.317 : en:Chapter 6 00:24:35.056 : en:Chapter 7 00:30:56.395 : en:Chapter 8 00:34:01.413 : en:Chapter 9 00:39:20.148 : en:Chapter 10 00:42:50.108 : en:Chapter 11 00:46:09.931 : en:Chapter 12 00:51:21.411 : en:Chapter 13 00:54:53.581 : en:Chapter 14 00:57:14.389 : en:Chapter 15 01:01:54.251 : en:Chapter 16 01:08:05.539 : en:Chapter 17 01:11:46.591 : en:Chapter 18 01:14:19.496 : en:Chapter 19 01:19:14.750 : en:Chapter 20 01:23:16.698 : en:Chapter 21 01:28:45.235 : en:Chapter 22 01:34:24.617 : en:Chapter 23 01:37:17.997 : en:Chapter 24

mrutor.org


Смотрите также