Охотники за головами скачать торрент в хорошем качестве


Скачать фильм Охотники за головами (2011) через торрент

20 января 2016 10:14 Охотники за головами / Hodejegerne / Headhunters (2011) BDRip-AVC от HELLYWOOD | Лицензия .torrent   [Информация о файле (нажмите для просмотра)] Перевод: Профессиональный (полное дублирование) [лицензия BD RUS]Субтитры: Русские, английские, норвежскиеКачество: BDRip-AVCФормат: MKVВидео: х.264, 1080x450 (2,40:1), 24,000 fps, 2223 Кbps, 0.191 bit/pixelАудио#1: 48 kHz, AC3 Dolby Digital, 3/2 (L,C,R,l,r) + LFE ch, 448.00 kbps |RUSАудио#2: 48 kHz, AC3 Dolby Digital, 3/2 (L,C,R,l,r) + LFE ch, 448.00 kbps |NOR 2,18 Gb 60 9 20 января 2016 10:14 Охотники за головами / Hodejegerne / Headhunters (2011) BDRip-AVC | D, P1 .torrent   [Информация о файле (нажмите для просмотра)] Перевод: Дублированный, профессиональный одноголосыйКодек: MPEG-4 AVCКачество: BDRip-AVCВидео: 2096 Кбит/с, 1024x424Звук: Русский, норвежский (AC3, 6 ch, 448 Кбит/с)Субтитры: Русские, норвежскиеАудио №1: Русский / AC3 / 5.1 / 48 kHz / 448 kbps / 16 bit - Дублированный (Soulpro, BD RUS)Аудио №2: Русский / AC3 / 5.1 / 48 kHz / 448 kbps / 16 bit - Профессиональный одноголосый (Д. Строев)Аудио №3: Норвежский / AC3 / 5.1 / 48 kHz / 448 kbps / 16 bit - ОригиналСубтитры: Русские, норвежскиеВидео: Идентификатор : 1 Формат : AVC Формат/Информация : Advanced Video Codec Профиль формата : [email protected] Параметр CABAC формата : Да Параметр ReFrames формата : 11 кадров Идентификатор кодека : V_MPEG4/ISO/AVC Продолжительность : 1 ч. 40 м. Битрейт : 2096 Кбит/сек Ширина : 1024 пикселя Высота : 424 пикселя Соотношение сторон : 2,40:1 Режим частоты кадров : Постоянный Частота кадров : 24,000 кадра/сек Цветовое пространство : YUV Субдискретизация насыщенности : 4:2:0 Битовая глубина : 8 бит Тип развёртки : Прогрессивная Бит/(Пиксели*Кадры) : 0.201 Размер потока : 1,42 Гбайт (59%) Заголовок : Hodejegerne.2011.x264.D.P.BDRip.(AVC).by.StarbirS Библиотека кодирования : x264 core 138 r2358 9e941d1 Настройки программы : cabac=1 / ref=11 / deblock=1:-3:-2 / analyse=0x3:0x133 / me=umh / subme=11 / psy=1 / psy_rd=1.00:0.20 / mixed_ref=1 / me_range=32 / chroma_me=1 / trellis=2 / 8x8dct=1 / cqm=0 / deadzone=21,11 / fast_pskip=1 / chroma_qp_offset=-3 / threads=12 / lookahead_threads=2 / sliced_threads=0 / nr=0 / decimate=1 / interlaced=0 / bluray_compat=0 / constrained_intra=0 / bframes=9 / b_pyramid=2 / b_adapt=2 / b_bias=0 / direct=3 / weightb=1 / open_gop=1 / weightp=2 / keyint=230 / keyint_min=22 / scenecut=40 / intra_refresh=0 / rc=2pass / mbtree=0 / bitrate=2096 / ratetol=1.0 / qcomp=0.60 / qpmin=0 / qpmax=69 / qpstep=4 / cplxblur=20.0 / qblur=0.5 / ip_ratio=1.40 / pb_ratio=1.30 / aq=1:1.00 Default : Да Forced : НетАудио #1: Идентификатор : 2 Формат : AC-3 Формат/Информация : Audio Coding 3 Расширение режима : CM (complete main) Параметр Endianness формата : Big Идентификатор кодека : A_AC3 Продолжительность : 1 ч. 40 м. Вид битрейта : Постоянный Битрейт : 448 Кбит/сек Каналы : 6 каналов Расположение каналов : Front: L C R, Side: L R, LFE Частота : 48,0 КГц Битовая глубина : 16 бит Метод сжатия : С потерями Размер потока : 321 Мбайт (13%) Заголовок : Дублированный (BD RUS) Язык : Russian Default : Да Forced : НетАудио #2: Идентификатор : 3 Формат : AC-3 Формат/Информация : Audio Coding 3 Расширение режима : CM (complete main) Параметр Endianness формата : Big Идентификатор кодека : A_AC3 Продолжительность : 1 ч. 40 м. Вид битрейта : Постоянный Битрейт : 448 Кбит/сек Каналы : 6 каналов Расположение каналов : Front: L C R, Side: L R, LFE Частота : 48,0 КГц Битовая глубина : 16 бит Метод сжатия : С потерями Размер потока : 321 Мбайт (13%) Заголовок : Студийный одноголосый (Д. Строев [Студия Jaskier]) Язык : Russian Default : Нет Forced : НетАудио #3: Идентификатор : 4 Формат : AC-3 Формат/Информация : Audio Coding 3 Расширение режима : CM (complete main) Параметр Endianness формата : Big Идентификатор кодека : A_AC3 Продолжительность : 1 ч. 40 м. Вид битрейта : Постоянный Битрейт : 448 Кбит/сек Каналы : 6 каналов Расположение каналов : Front: L C R, Side: L R, LFE Частота : 48,0 КГц Битовая глубина : 16 бит Метод сжатия : С потерями Размер потока : 321 Мбайт (13%) Заголовок : Оригинал Язык : Norwegian Default : Нет Forced : Нет 2,41 Gb 31 2 20 января 2016 10:14 Охотники за головами / Hodejegerne (2011) BDRip 720p от Leonardo and Scarabey | Лицензия .torrent   [Информация о файле (нажмите для просмотра)] Перевод: Профессиональный (полное дублирование) ЛицензияФормат: MKVВидео кодек: MPEG-4 AVC Аудио кодек: AC3Видео: AVC, 1280x534 (2.40:1) at 24.000 fps, AVC at 4982 kbps avg, 0.297 bit/pixelАудио: 48 kHz, AC3 Dolby Digital, 3/2 (L,C,R,l,r) + LFE ch, 448.00 kbps - RussianСубтитры: Русские, английские 3,8 Gb 152 4 20 января 2016 10:14 Охотники за головами / Headhunters / Hodejegerne (2011) HDRip от Generalfilm | КПК .torrent   [Информация о файле (нажмите для просмотра)] Качество: HDRip | КПКВидео: кодеккодек: x264,формат: mp4,размер кадра: 480х192, битрейт: 350 кб/сАудио: языкрусский, перевод: Дублированный, 343,53 Mb 6 2 20 января 2016 10:14 Охотники за головами / Headhunters / Hodejegerne (2011) HDRip от New-Team .torrent   [Информация о файле (нажмите для просмотра)] Перевод: Профессиональный (дублированный)Кодек: XviDКачество: HDRip /источник: BDRip 1080pВидео: 688x288 (2.39:1), 24 fps, 906 kbps avg, 0.19 bit/pixelАудио: MPEG Layer 3, 48 kHz, 2 ch, 128 kbpsСубтитры: Не имеются 747,44 Mb 28 7 20 января 2016 10:14 Охотники за головами / Hodejegerne (2011) BDRip-AVC | iPad .torrent   [Информация о файле (нажмите для просмотра)] Перевод: ДублированныйСубтитры: русские, английскиеФормат: MP4 (контейнер m4v)Видео: AVC,, 1024x424 (2.40:1) at 24.000 fps, AVC at 1652 kbps avg, 0.159 bit/pixelАудио: Русский: 48 kHz, AAC, 2ch, 128 kbps | ДублированныйАудио: Норвежский: 48 kHz, AAC, 2ch, 128 Kbps | Оригинал 1,34 Gb 5 1 20 января 2016 10:14 Охотники за Головами / Hodejegerne (2011) DVD5 .torrent   [Информация о файле (нажмите для просмотра)] Видео: Идентификатор : 224 (0xE0) Формат : MPEG Video Версия формата : Version 2 Профиль формата : [email protected] Параметр BVOP формата : Да Параметр матрицы формата : Выборочная Параметр GOP формата : Variable Продолжительность : 22 м. Вид битрейта : Переменный Битрейт : 5890 Кбит/сек Максимальный битрейт : 9000 Кбит/сек Ширина : 720 пикселей Высота : 576 пикселей Соотношение сторон : 16:9 Частота кадров : 25,000 кадров/сек Стандарт вещания : PAL Цветовое пространство : YUV Субдискретизация насыщенности : 4:2:0 Битовая глубина : 8 бит Тип развёртки : Прогрессивная Порядок развёртки : Нижнее поле первое Метод сжатия : С потерями Бит/(Пиксели*Кадры) : 0.568 Размер потока : 933 Мбайт (91%)Аудио: Идентификатор : 189 (0xBD)-128 (0x80) Формат : AC-3 Формат/Информация : Audio Coding 3 Расширение режима : CM (complete main) Параметр Endianness формата : Big Режим смешивания : DVD-Video Продолжительность : 22 м. Вид битрейта : Постоянный Битрейт : 448 Кбит/сек Каналы : 6 каналов Расположение каналов : Front: L C R, Side: L R, LFE Частота : 48,0 КГц Битовая глубина : 16 бит Метод сжатия : С потерями Задержка видео : 385 мс. Размер потока : 70,9 Мбайт (7%)Перевод: Профессиональный (дублированный)Кодек: MPEG2Качество: DVD5Видео: PAL 16:9 (720x576 ) VBR ~5 870 КБ/сек., 25,000 кадр/сек, Auto LetterboxedЗвук: Russian (Dolby AC3, 6 ch), 448 Кбит/сек, 48,0 КГц; 4,37 Gb 3 4 20 января 2016 10:13 Охотники за головами / Hodejegerne (2011) HDRip от Scarabey | Лицензия .torrent   [Информация о файле (нажмите для просмотра)] Перевод: Полное дублированиеВидео: 720x304 (2.37:1), 24.000 fps, XviD build 50 ~1522 kbps avg, 0.29 bit/pixelАудио: 48 kHz, AC3 Dolby Digital, 3/2 (L,C,R,l,r) + LFE ch, ~448.00 kbps avg 1,38 Gb 79 4 20 января 2016 10:13 Охотники за головами / Hodejegerne (2011) HDRip от Scarabey | Лицензия .torrent   [Информация о файле (нажмите для просмотра)] Перевод: Полное дублированиеВидео: 688x288 (2.39:1), 24.000 fps, XviD build 50 ~898 kbps avg, 0.19 bit/pixelАудио: 48 kHz, MPEG Layer 3, 2 ch, ~128.00 kbps avg 741,61 Mb 10 4 20 января 2016 10:13 Охотники за головами / Headhunters / Hodejegerne (2011) HDRip от Vaippp | Лицензия .torrent   [Информация о файле (нажмите для просмотра)] Перевод: Русский дублированный (Лицензия)Субтитры: нетВидео: XviD / 720 x 304 / 2.37:1 / 1687 kbps / 24,000 fpsАудио: Русский / AC3 Dolby Digital / 48 KHz / 384 kbps / 3/2 (L,C,R,l,r) + LFE ch 1,45 Gb 38 3 20 января 2016 10:13 Охотники за головами / Headhunters / Hodejegerne (2011) BDRip 720p | Лицензия .torrent   [Информация о файле (нажмите для просмотра)] Перевод: Русский дублированный переводКачество: BDRip 720p (Исходник: Blu-ray)Формат: MKV; MPEG-4 AVC; h364 codecВидео: 1280 x 532; 24 fps; 5673 kbps; 0.347 bit/pixelЗвук: Russian AC3 Dolby Digital; 448 kbps; 5.1 ch; 48 kHz 4,37 Gb 8 5 20 января 2016 10:13 Охотники за головами / Hodejegerne (2011) HDRip .torrent   [Информация о файле (нажмите для просмотра)] Перевод: Полное дублированиеКодек: XviD / MP3Качество: HDRipВидео: XviD, 688x288 (2.39:1), 24.000 fps, ~898 kbps, 0.19 bit/pixelЗвук: MP3, 48 kHz, 2 ch, ~128.00 kbps avg 741,62 Mb 8 2 20 января 2016 10:13 Охотники за головами / Hodejegerne / Headhunters (2011) HDRip от HQ Underverse .torrent   [Информация о файле (нажмите для просмотра)] Видео: кодеккодек: XviD,формат: avi,размер кадра: 720x304, битрейт: 2212 кб/сАудио #1: языкрусский, перевод: дублированный (дубляж),Аудио #2: языкнорвежский, Субтитры: Внешние, SRT, Норвежские, Английские 2,19 Gb 4 5 20 января 2016 10:13 Охотники за головами / Hodejegerne / Headhunters (2011) BDRip 1080p .torrent   [Информация о файле (нажмите для просмотра)] Перевод: ДублированныйКодек: x264Качество: BDRip (источник: Blu-ray Disc)Видео: 1920x800 (2,40:1), 24 fps, 5802 kbpsЗвук: 48 kHz, AC-3, 6 ch, 448 kbpsСубтитры: АнглийскиеВидео: Идентификатор : 1 Формат : AVC Формат/Информация : Advanced Video Codec Профиль формата : [email protected] Параметр CABAC формата : Да Параметр ReFrames формата : 5 кадров Идентификатор кодека : V_MPEG4/ISO/AVC Продолжительность : 1 ч. 40 м. Битрейт : 5802 Кбит/сек Ширина : 1920 пикселей Высота : 800 пикселей Соотношение сторон : 2,40:1 Частота кадров : 24,000 кадра/сек Цветовое пространство : YUV Субдискретизация насыщенности : 4:2:0 Битовая глубина : 8 бит Тип развёртки : Прогрессивная Бит/(Пиксели*Кадры) : 0.157 Размер потока : 3,97 Гбайт (91%) Заголовок : Release by AlexKa Библиотека кодирования : x264 core 120 r2146 bcd41db Настройки программы : cabac=1 / ref=5 / deblock=1:0:0 / analyse=0x3:0x133 / me=umh / subme=10 / psy=1 / psy_rd=1.00:0.10 / mixed_ref=1 / me_range=32 / chroma_me=1 / trellis=2 / 8x8dct=1 / cqm=0 / deadzone=21,11 / fast_pskip=0 / chroma_qp_offset=-3 / threads=12 / sliced_threads=0 / nr=0 / decimate=1 / interlaced=0 / bluray_compat=0 / constrained_intra=0 / bframes=5 / b_pyramid=2 / b_adapt=2 / b_bias=0 / direct=3 / weightb=1 / open_gop=0 / weightp=2 / keyint=240 / keyint_min=24 / scenecut=40 / intra_refresh=0 / rc_lookahead=60 / rc=2pass / mbtree=1 / bitrate=5802 / ratetol=1.0 / qcomp=0.60 / qpmin=0 / qpmax=69 / qpstep=4 / cplxblur=20.0 / qblur=0.5 / ip_ratio=1.40 / aq=1:1.00 Язык : NorwegianАудио: Идентификатор : 2 Формат : AC-3 Формат/Информация : Audio Coding 3 Расширение режима : CM (complete main) Идентификатор кодека : A_AC3 Продолжительность : 1 ч. 40 м. Вид битрейта : Постоянный Битрейт : 448 Кбит/сек Каналы : 6 каналов Расположение каналов : Front: L C R, Side: L R, LFE Частота : 48,0 КГц Битовая глубина : 16 бит Метод сжатия : С потерями Размер потока : 321 Мбайт (7%) Язык : Russian 4,37 Gb 19 2 20 января 2016 10:13 Охотники за головами / Hodejegerne / Headhunters (2011) BDRip-AVC .torrent   [Информация о файле (нажмите для просмотра)] Перевод: Дублированный (Лицензия DVD R5)Контейнер: .mkvКачество: BDRip (subme 11)Видео: MPEG-4 AVC, 1696 Кбит/с, 1032x430, 24.000 кадр/сАудио: Русский (AC3, 6 ch, 448 Кбит/c, 48,0 КГц)Субтитры: Английские, норвежские 1,5 Gb 25 3 20 января 2016 10:13 Охотники за головами / Hodejegerne / Headhunters (2011) BDRip 1080p .torrent   [Информация о файле (нажмите для просмотра)] Перевод: Дублированный (Лицензия DVD R5)Контейнер: .mkvКачество: (Рип с Блю-рей, subme 10)Видео: MPEG-4 AVC, 11,0 Мбит/с, 1920x800, 24.000 кадр/сАудио: Русский / норвежский (AC3, 6 ch, 448 Кбит/c, 48,0 КГц)Субтитры: Английские, норвежские 8,31 Gb 19 3 20 января 2016 10:13 Охотники за головами / Hodejegerne / Headhunters (2011) BDRip 720p .torrent   [Информация о файле (нажмите для просмотра)] Перевод: Дублированный (Лицензия DVD R5)Контейнер: .mkvКачество: (Рип с Блю-рей, subme 9)Видео: MPEG-4 AVC, 4737 Кбит/с, 1280x534, 24.000 кадр/сАудио: Русский / норвежский (AC3, 6 ch, 448 Кбит/c, 48,0 КГц)Субтитры: Английские, норвежские 3,94 Gb 16 6 20 января 2016 10:13 Охотники за головами / Hodejegerne / Headhunters (2011) BDRemux 1080p .torrent   [Информация о файле (нажмите для просмотра)] Перевод: Дублированный (Лицензия DVD R5)Контейнер: .mkvКачество: Blu-Ray Remux (1080p)Видео: MPEG-4 AVC, 38.0 Мбит/с, 1920x1080, 24.000 кадр/сАудио: Русский / норвежский (AC3, 6 ch, 448 Кбит/c, 48,0 КГц), норвежский (DTS-HD MA, 6 ch, 1536 Кбит/с, 48,0 КГц)Субтитры: Английские, норвежские 28,21 Gb 4 7 20 января 2016 10:13 Охотники за головами / Hodejegerne (2011) BDRip 720p | Лицензия .torrent   [Информация о файле (нажмите для просмотра)] Перевод: Дублированный[лицензия]Видео: MPEG-4 AVC, 6347 Кбит/с, 1280x534Аудио: Русский (AC3, 6 ch, 448 Кбит/с) / Норвежский (DTS, 6 ch, 1510 Кбит/с)Субтитры: Английские 5,81 Gb 5 1 20 января 2016 10:13 Охотники за головами / Hodejegerne (2011) BDRip 1080p | Лицензия .torrent   [Информация о файле (нажмите для просмотра)] Перевод: Дублированный[лицензия]Видео: MPEG-4 AVC, 18.0 Мбит/с, 1920?800Аудио: Русский (АС3, 6 ch, 384 Кбит/с), норвежский (DTS, 6 ch, 1536 Кбит/с)Субтитры: Английские 13,95 Gb 21 9

gig-torrent.net

Скачать фильм Охотник за головами (2010) через торрент

24 декабря 2015 12:07 Охотник за головами / The Bounty Hunter (2010) BDRip 720p от HELLYWOOD | Лицензия .torrent   [Информация о файле (нажмите для просмотра)] Перевод: Профессиональный (полное дублирование) [лицензия BD CEE] Субтитры: Русские (полные + форс.), английскиеКачество: BDRip 720pФормат: MKVВидео: х.264, 1280x544 (2,35:1), 23,976 fps, 5028 Кbps, 0.301 bit/pixelАудио#1: 48 kHz, AC3 Dolby Digital, 3/2 (L,C,R,l,r) + LFE ch, 640.00 kbps |RUSАудио#2: 48 kHz, AC3 Dolby Digital, 3/2 (L,C,R,l,r) + LFE ch, 640.00 kbps |UKRАудио#3: 48 kHz, AC3 Dolby Digital, 3/2 (L,C,R,l,r) + LFE ch, 640.00 kbps |ENG 5,37 Gb 69 10 24 декабря 2015 12:07 Охотник за головами / The Bounty Hunter (2010) BDRip-AVC | iPad | D .torrent   [Информация о файле (нажмите для просмотра)] Перевод: Русский дублированныйКодек: H.264Качество: BDRip [576p]Видео: 1024x436 (2.35:1) at 23.976 fps, AVC at 2600 kbpsЗвук: 1: АAС 2.0 160 kbps - Русский дублированный 2: АAС 2.0 150 kbps - АнглийскийСубтитры: отсутствуют 2,3 Gb 28 2 24 декабря 2015 12:07 Охотник за головами / The Bounty Hunter (2010) BDRip 1080p от NNNB .torrent   [Информация о файле (нажмите для просмотра)] Перевод: ДублированныйКачество: BDRip 1080p (исходник Blu-ray Remux)Видео: 1920x816, 9015 Кбит/сек, 23,976 кадр/сек, AVC, x264, [email protected], 2.35:1, 0.240 Бит/[Пиксели*Кадры], 2passАудио 1: AC-3, 384 Кбит/сек, 6 канала(ов), 48,0 КГц - Дублированный / РусскийАудио 2: AC-3, 640 Кбит/сек, 6 канала(ов), 48,0 КГц - Оригинал / АнглийскийСубтитры: Русские | Полные/Форсирующие, Английские | Полные 7,76 Gb 81 15 24 декабря 2015 12:07 Охотник за головами / The Bounty Hunter (2010) HDRip от Scarabey | D .torrent   [Информация о файле (нажмите для просмотра)] Перевод: Профессиональный (полное дублирование)Качество: HDRipФормат: AVIВидео: 640x272 (2.35:1), 23.976 fps, XviD build 73 ~805 kbps avg, 0.19 bit/pixelАудио: 48 kHz, MPEG Layer 3, 2 ch, ~128.00 kbps avg 746,12 Mb 83 7 24 декабря 2015 12:07 Охотник за головами / The Bounty Hunter (2010) HDRip от Scarabey | D .torrent   [Информация о файле (нажмите для просмотра)] Перевод: Профессиональный (полное дублирование)Качество: HDRipФормат: AVIВидео: 720x304 (2.37:1), 23.976 fps, XviD build 73 ~1481 kbps avg, 0.28 bit/pixelАудио: 48 kHz, AC3 Dolby Digital, 3/2 (L,C,R,l,r) + LFE ch, ~384 kbps 1,45 Gb 1308 55 24 декабря 2015 12:07 Охотник за головами / The Bounty Hunter (2010) BDRip-AVC от 0ptimus | D .torrent   [Информация о файле (нажмите для просмотра)] Перевод: ДублированныйКодек: h.264Качество: BDRip-AVCВидео: 2100 Кбит/с, 1024x436, 23.976 кадр/сЗвук: • №1: Русский (AC3, 6 ch, 384 Кбит/с) Дублированный • №2: Английский (AC3, 6 ch, 384 Кбит/с) Отдельно: • №3: Украинский (AC3, 6 ch, 384 Кбит/с) ДублированныйСубтитры: • №1: Русские [полные] • №2: Русские [форсированные] • №3: Английские [полные]Видео: Идентификатор : 1 Формат : AVC Формат/Информация : Advanced Video Codec Профиль формата : [email protected] Параметр CABAC формата : Да Параметр ReFrames формата : 10 кадров Идентификатор кодека : V_MPEG4/ISO/AVC Продолжительность : 1 ч. 50 м. Битрейт : 2100 Кбит/сек Ширина : 1024 пикселя Высота : 436 пикселей Соотношение сторон : 2,35:1 Частота кадров : 23,976 кадра/сек Цветовое пространство : YUV Субдискретизация насыщенности : 4:2:0 Битовая глубина : 8 бит Тип развёртки : Прогрессивная Бит/(Пиксели*Кадры) : 0.196 Размер потока : 1,58 Гбайт (63%) Заголовок : Rip by 0ptimus Библиотека кодирования : x264 core 132 r2310 76a5c3a Настройки программы : cabac=1 / ref=10 / deblock=1:-3:-3 / analyse=0x3:0x113 / me=umh / subme=11 / psy=1 / psy_rd=1.00:0.20 / mixed_ref=1 / me_range=48 / chroma_me=1 / trellis=2 / 8x8dct=1 / cqm=0 / deadzone=21,11 / fast_pskip=0 / chroma_qp_offset=-3 / threads=4 / lookahead_threads=1 / sliced_threads=0 / nr=0 / decimate=0 / interlaced=0 / bluray_compat=0 / constrained_intra=0 / bframes=9 / b_pyramid=2 / b_adapt=2 / b_bias=0 / direct=3 / weightb=1 / open_gop=0 / weightp=2 / keyint=240 / keyint_min=23 / scenecut=40 / intra_refresh=0 / rc_lookahead=40 / rc=2pass / mbtree=0 / bitrate=2100 / ratetol=1.0 / qcomp=0.60 / qpmin=0 / qpmax=69 / qpstep=4 / cplxblur=20.0 / qblur=0.5 / vbv_maxrate=50000 / vbv_bufsize=50000 / nal_hrd=none / ip_ratio=1.40 / pb_ratio=1.30 / aq=1:1.00 Язык : EnglishАудио #1: Идентификатор : 2 Формат : AC-3 Формат/Информация : Audio Coding 3 Расширение режима : CM (complete main) Идентификатор кодека : A_AC3 Продолжительность : 1 ч. 50 м. Вид битрейта : Постоянный Битрейт : 384 Кбит/сек Каналы : 6 каналов Расположение каналов : Front: L C R, Side: L R, LFE Частота : 48,0 КГц Битовая глубина : 16 бит Метод сжатия : С потерями Размер потока : 304 Мбайт (12%) Заголовок : Дублированный AC3 5.1 384 kbps Язык : RussianАудио #2: Идентификатор : 3 Формат : AC-3 Формат/Информация : Audio Coding 3 Расширение режима : CM (complete main) Идентификатор кодека : A_AC3 Продолжительность : 1 ч. 50 м. Вид битрейта : Постоянный Битрейт : 384 Кбит/сек Каналы : 6 каналов Расположение каналов : Front: L C R, Side: L R, LFE Частота : 48,0 КГц Битовая глубина : 16 бит Метод сжатия : С потерями Размер потока : 304 Мбайт (12%) Заголовок : AC3 5.1 384 kbps Язык : EnglishАудио #3: Идентификатор : 4 Формат : AC-3 Формат/Информация : Audio Coding 3 Расширение режима : CM (complete main) Идентификатор кодека : A_AC3 Продолжительность : 1 ч. 50 м. Вид битрейта : Постоянный Битрейт : 384 Кбит/сек Каналы : 6 каналов Расположение каналов : Front: L C R, Side: L R, LFE Частота : 48,0 КГц Битовая глубина : 16 бит Метод сжатия : С потерями Размер потока : 304 Мбайт (12%) Заголовок : Дублированный Язык : Ukrainian 2,52 Gb 70 11 24 декабря 2015 12:07 Охотник за головами / The Bounty Hunter (2010) BDRip-AVC | iPad .torrent   [Информация о файле (нажмите для просмотра)] Перевод: ДублированныйСубтитры: русские, английскиеФормат: MP4 (контейнер m4v)Видео: AVC, 1024x432 (2.35:1) at 23.976 fps, AVC at 2564 kbps avg, 0.242 bit/pixelАудио: 48 kHz, AAC, 2ch, 132 Kbps | Russian | ДублированныйАудио: 48 kHz, AAC, 2ch, 123 Kbps | English | Original 2,19 Gb 17 4 24 декабря 2015 12:07 Охотник за головами / The Bounty Hunter (2010) BDRemux .torrent   [Информация о файле (нажмите для просмотра)] Перевод: Дублированное [лицензия]Кодек: MKVКачество: BDRemuxВидео: 1920x1080, 25920 kbps, 23.976 fpsАудио1: Русский AC3 5.1, 48 KHz, 384 kbpsАудио2: Английский DTS-HD Master Audio 5.1, 48 KHz, 24bit, 3667 kbps, Lossless (DTS Core: 5.1, 48 KHz, 24bit, 1536 kbps)Субтитры: Russian, EnglishMediaInfoGeneral Complete name : Bounty Hunter.2010.BD.Remux.1080p.h364.Rus.Eng.mkv Format : Matroska File size : 23.2 GiB Duration : 1h 50mn Overall bit rate : 30.0 Mbps Encoded date : UTC 2010-06-30 06:17:51 Writing application : mkvmerge v3.4.0 ('Rapunzel') built on May 15 2010 09:38:20 Writing library : libebml v0.8.0 + libmatroska v0.9.0 23,17 Gb 7 3 24 декабря 2015 12:07 Охотник за головами / The Bounty Hunter (2010) BDRip 1080p .torrent   [Информация о файле (нажмите для просмотра)] Перевод: Дублированное [лицензия]Кодек: MKVКачество: BDRip 1080pВидео: 1920x816, 9803 kbps, 23.976 fpsАудио1: Русский AC3 5.1, 48 KHz, 384 kbpsАудио2: Английский DTS 5.1, 48 KHz, 1536 kbpsСубтитры: Russian, Englishx264logx264 [info]: profile High, level 4.1 x264 [info]: frame I:1725 Avg QP:15.70 size:245982 x264 [info]: frame P:36614 Avg QP:18.19 size: 94105 x264 [info]: frame B:120830 Avg QP:20.39 size: 35233 x264 [info]: consecutive B-frames: 1.1% 2.9% 9.0% 33.9% 16.9% 27.5% 8.7%MediaInfoGeneral Complete name : Bounty Hunter.2010.BD.Rip.1080p.h364.Rus.Eng.mkv Format : Matroska File size : 9.03 GiB Duration : 1h 50mn Overall bit rate : 11.7 Mbps Encoded date : UTC 2010-06-25 17:14:15 Writing application : mkvmerge v3.4.0 ('Rapunzel') built on May 15 2010 09:38:20 Writing library : libebml v0.8.0 + libmatroska v0.9.0 9,03 Gb 6 4 24 декабря 2015 12:07 Охотник за головами / The Bounty Hunter (2010) BDRip 720p .torrent   [Информация о файле (нажмите для просмотра)] Перевод: Профессиональный (полное дублирование)Качество: BDRip 720pФормат: MKVВидео: 1280x544(2.35:1), 23.976 fps, H.264/MPEG-4 AVC ~2072 kbps avg, 0.125 bit/pixelЗвук: Аудио 1:Русский AC3, 48 kHz, 6 ch, ~384.00 kbps avg (полное дублирование) Аудио 2:Английский AAC, 48000 Hz, 6ch, 384 Kbps (оригинал) 2,2 Gb 150 19 24 декабря 2015 12:07 Охотник за головами / The Bounty Hunter (2010) BDRip 720p .torrent   [Информация о файле (нажмите для просмотра)] Перевод: Профессиональный (полное дублирование)Качество: BDRip 720pФормат: MKVВидео: H.264, 1280x544, 23.976 fps, ~2823 kbpsЗвук: Аудио 1Аудио 1: Русский: AC3, 48.0 KHz, 6 ch.,~384 kbps Неперетянутая дорога с BDАудио 2: Английский: AC3, 48.0 KHz, 6 ch.,~384 kbps Конвертирован из ENG BD DTS-HD Master AudioСубтитры: русские, английские 2,78 Gb 9 4 24 декабря 2015 12:07 Охотник за головами / The Bounty Hunter (2010) HDRip-AVC .torrent   [Информация о файле (нажмите для просмотра)] Перевод: Профессиональный (полное дублирование)Качество: HDRip-AVCФормат: MKVВидео: 848x360 (2.35:1), 813kbps, 23.976fpsАудио: AAC LC, 2ch, 128kbps, 48khz 746,5 Mb 16 4 24 декабря 2015 12:07 Охотник за Головами / The Bounty Hunter (2010) BDRip от sergeorg .torrent   [Информация о файле (нажмите для просмотра)] Перевод: профессиональный.ДУБЛЯЖЗвук: 1.RUSSIAN 48kHz, AC3 Dolby Digital, 3/2(L,C,R,l,r)+LFE ch, ~192kbps 1,37 Gb 27 3 24 декабря 2015 12:07 Охотник за головами / The Bounty Hunter (2010) BDRip от HQCLUB .torrent   [Информация о файле (нажмите для просмотра)] Перевод: Профессиональный (дублированный) + Оригинал +Украинский дубляж (отдельно на Narod.ru)Субтитры: русские [форсированныеи и полные], английские (внешние srt)Формат: AVIКачество: BDRip (источник: HDCLUB / BD-Remux / 1080p)Видео: 720x304 (2.37:1), 23.976 fps, XviD build 50 ~2052 kbps avg, 0.39 bit/pixelАудио #1: 48 kHz, AC3 Dolby Digital 5.1 @ 384 kbps (6 channels)|Russian|Аудио #2: 48 kHz, AC3 Dolby Digital 5.1 @ 384 kbps (6 channels)|English|Аудио #3: 48 kHz, AC3 Dolby Digital 5.1 @ 384 kbps (6 channels)|Ukrainian| 2,18 Gb 18 2 24 декабря 2015 12:07 Охотник за головами / The Bounty Hunter (2010) BDRip от HELLYWOOD .torrent   [Информация о файле (нажмите для просмотра)] Перевод: Профессиональный (полное дублирование) + оригинальная звуковая дорожкаСубтитры: Русские, русские (только надписи), английские .srtФормат: AVIКачество: BDRip (источник: Blu-ray Remux/1080p/) 2,18 Gb 6 2 24 декабря 2015 12:07 Охотник за головами / The Bounty Hunter (2010) BDRip 720p .torrent   [Информация о файле (нажмите для просмотра)] Перевод: Профессиональный (полное дублирование) |Лицензия|Субтитры: АнглийскиеФормат: MKVВидео: MPEG-4 AVC/H.264, ~4145 Kb/s, 1280x544Аудио: Русский, AC3 5.1, 384 Kb/s, Английский, DTS 5.1, 1510 Kb/s 4,66 Gb 5 4

gig-torrent.net

Охотники за головами через торрент

GeneralUnique ID                                : 179396729676767063353300596027912067073 (0x86F68DA91066191282C6C86C81DB9801)Complete name                            : D:\Торенты\Hodejegerne.2011.BDRip-AVC.(2.18).by Matroska.mkvFormat                                   : MatroskaFormat version                           : Version 2File size                                : 2.17 GiBDuration                                 : 1h 40mnOverall bit rate                         : 3 103 KbpsEncoded date                             : UTC 2012-03-23 23:42:40Writing application                      : mkvmerge v5.2.0 ('I can't explain') built on Dec 18 2011 18:12:03Writing library                          : libebml v1.2.3 + libmatroska v1.3.0

VideoID                                       : 1Format                                   : AVCFormat/Info                              : Advanced Video CodecFormat profile                           : [email protected] settings, CABAC                   : YesFormat settings, ReFrames                : 12 framesCodec ID                                 : V_MPEG4/ISO/AVCDuration                                 : 1h 40mnBit rate                                 : 1 921 KbpsWidth                                    : 1 056 pixelsHeight                                   : 440 pixelsDisplay aspect ratio                     : 2.40:1Frame rate                               : 24.000 fpsColor space                              : YUVChroma subsampling                       : 4:2:0Bit depth                                : 8 bitsScan type                                : ProgressiveBits/(Pixel*Frame)                       : 0.172Stream size                              : 1.35 GiB (62%)Title                                    : bOrOdaChWriting library                          : x264 core 119 r2106 07efeb4Encoding settings                        : cabac=1 / ref=12 / deblock=1:-3:-2 / analyse=0x3:0x133 / me=umh / subme=10 / psy=1 / psy_rd=1.00:0.05 / mixed_ref=1 / me_range=32 / chroma_me=1 / trellis=2 / 8x8dct=1 / cqm=0 / deadzone=21,11 / fast_pskip=0 / chroma_qp_offset=-6 / threads=6 / sliced_threads=0 / nr=0 / decimate=1 / interlaced=0 / bluray_compat=0 / constrained_intra=0 / bframes=9 / b_pyramid=2 / b_adapt=2 / b_bias=0 / direct=0 / weightb=1 / open_gop=0 / weightp=2 / keyint=250 / keyint_min=24 / scenecut=40 / intra_refresh=0 / rc_lookahead=60 / rc=crf / mbtree=1 / crf=19.0 / qcomp=0.65 / qpmin=0 / qpmax=69 / qpstep=4 / vbv_maxrate=25000 / vbv_bufsize=31250 / crf_max=0.0 / nal_hrd=none / ip_ratio=1.35 / aq=2:0.90 / zones=140320,144143,q=40Default                                  : YesForced                                   : NoMatrix coefficients                      : BT.709-5, BT.1361, IEC 61966-2-4 709, SMPTE RP177

Audio #1ID                                       : 2Format                                   : AC-3Format/Info                              : Audio Coding 3Mode extension                           : CM (complete main)Muxing mode                              : Header strippingCodec ID                                 : A_AC3Duration                                 : 1h 40mnBit rate mode                            : ConstantBit rate                                 : 448 KbpsChannel(s)                               : 6 channelsChannel positions                        : Front: L C R, Side: L R, LFESampling rate                            : 48.0 KHzBit depth                                : 16 bitsCompression mode                         : LossyStream size                              : 321 MiB (14%)Default                                  : YesForced                                   : No

Audio #2ID                                       : 3Format                                   : AC-3Format/Info                              : Audio Coding 3Mode extension                           : CM (complete main)Muxing mode                              : Header strippingCodec ID                                 : A_AC3Duration                                 : 1h 40mnBit rate mode                            : ConstantBit rate                                 : 448 KbpsChannel(s)                               : 6 channelsChannel positions                        : Front: L C R, Side: L R, LFESampling rate                            : 48.0 KHzBit depth                                : 16 bitsCompression mode                         : LossyStream size                              : 321 MiB (14%)Title                                    : NorwegianDefault                                  : NoForced                                   : No

Audio #3ID                                       : 4Format                                   : AC-3Format/Info                              : Audio Coding 3Mode extension                           : CM (complete main)Muxing mode                              : Header strippingCodec ID                                 : A_AC3Duration                                 : 1h 40mnBit rate mode                            : ConstantBit rate                                 : 224 KbpsChannel(s)                               : 2 channelsChannel positions                        : Front: L RSampling rate                            : 48.0 KHzBit depth                                : 16 bitsCompression mode                         : LossyStream size                              : 161 MiB (7%)Title                                    : Norwegian CommentaryDefault                                  : NoForced                                   : No

Text #1ID                                       : 5Format                                   : UTF-8Codec ID                                 : S_TEXT/UTF8Codec ID/Info                            : UTF-8 Plain TextTitle                                    : RussianDefault                                  : YesForced                                   : No

Text #2ID                                       : 6Format                                   : UTF-8Codec ID                                 : S_TEXT/UTF8Codec ID/Info                            : UTF-8 Plain TextLanguage                                 : NorwegianDefault                                  : NoForced                                   : No

Text #3ID                                       : 7Format                                   : UTF-8Codec ID                                 : S_TEXT/UTF8Codec ID/Info                            : UTF-8 Plain TextLanguage                                 : EnglishDefault                                  : NoForced                                   : No

Menu00:00:00.000                             : no:00:00:00.00000:06:50.458                             : no:00:06:50.45800:12:57.625                             : no:00:12:57.62500:17:13.750                             : no:00:17:13.75000:24:38.958                             : no:00:24:38.95800:30:14.917                             : no:00:30:14.91700:36:21.708                             : no:00:36:21.70800:41:42.292                             : no:00:41:42.29200:48:17.125                             : no:00:48:17.12500:53:49.167                             : no:00:53:49.16700:58:47.500                             : no:00:58:47.50001:05:00.083                             : no:01:05:00.08301:12:10.167                             : no:01:12:10.16701:20:13.042                             : no:01:20:13.04201:27:04.042                             : no:01:27:04.04201:34:20.958                             : no:01:34:20.958

piratbit.ru

Скачать фильм Охотники за головами через торрент в хорошем качестве бесплатно HDRip

Раздают: 1 [ 0 KB/s ]
Размер: 1.36 GB | Добавлен: 5 лет 8 мес. назад | Торрент скачан:10400 раз
Реклама Дарим 3000 рублей за регистрацию, не упусти свой шанс получить шикарный бонус!!!

03-02-2012 19:24 Охотники за головами Скачать торрент  

Охотники за головами / Hodejegerne

Год выпуска: 2011Страна: ГерманияЖанр: боевик, триллер, криминалПродолжительность: 01:40:06Перевод: Профессиональный (полное дублирование) [Лицензия] Тип релиза: лицензияРежиссер: Мортен Тильдум

лицам до 17 лет обязательно присутствие взрослогоМировой рейтинг IMDB 7.50 (4 610)

В ролях: Аксель Хенни, Николай Костер-Вальдау, Синневе Макоди Лунд, Юлье Ольгорд, Карре Хаген Сиднесс, Рейдар Серенсен, Нильс Йорген Каалстад, Йоахим Рафаелсен, Gunnar Skramstad Johnsen, Lars Skramstad Johnsen, Михаил Тихонов, Павел Кипнис, Ольга Голованова

Описание: Роджер Браун — блестящий «охотник за головами», незаменимый специалист по подбору топ-менеджеров для крупнейших фирм. Он может найти нужного человека на любую должность и его рекомендация — залог получения работы. Чтобы удержать красавицу жену, открывшую на деньги мужа картинную галерею в модном районе, Роджер давно уже живет не по средствам, и, пользуясь своим служебным положением, крадет дорогие картины у претендентов на руководящие должности.Однажды Роджер встречает голландца Класа Граафа: идеального кандидата для фирмы специализирующейся на навигационном оборудовании и — вот удача! — владельца картины Рубенса, считавшейся утерянной во время Второй Мировой войны. Кража и последующая продажа шедевра может помочь Роджеру навсегда решить все финансовые проблемы.Но, внезапно, «охотник за головами» сам превращается в добычу.

Похожие раздачи: Охотники за головами

Качество: HDRipФормат: AVIВидео кодек: XviDАудио кодек: AC3Видео: 1494 kb/s, 720x304Аудио#1: AC3, 448 kb (6 ch)

Скачать Охотники за головами через торрент http://pic.pb.wtf/images/2011/qbfirzikek.png Скачать фильм Охотники за головами через торрент бесплантно в хорошем качестве Описание: Роджер Браун — блестящий «охотник за головами», незаменимый специалист по подбору топ-менеджеров для крупнейших фирм. Он может ... 2012-02-03 19:24 10 10 8

Loading...

Loading...

% Раздел Тема Автор DL S | L
Фильмы (Blu-ray, BD-Remux, HDDVD) [ 33.15 GB ] Охотники за головами / Hodejegerne [2011 BD Remux 1080p] [] DUB+AVO [Ю.Сербин] bober100 Скачать
Фильмы [HD 720p, 1080p] (Хороший звук DUB, MVO) [ 14.54 GB ] Охотники за головами / Hodejegerne [2011 BDRip 1080p by msltel] DUB 2 x AVO VO msltel Скачать
Фильмы [HD 720p, 1080p] (Хороший звук DUB, MVO) [ 5.01 GB ] Охотники за головами / Hodejegerne [2011 BDRip 720p by msltel] DUB 2 x AVO VO msltel Скачать
Фильмы [HD 720p, 1080p] (Хороший звук DUB, MVO) [ 10.9 GB ] Охотники за головами / Headhunters / Hodejegerne [2011 BDRip 1080p] DUB Ворон Скачать
Фильмы [HD 720p, 1080p] (Хороший звук DUB, MVO) [ 6.31 GB ] Охотники за головами / Hodejegerne [2011 BDRip 720p от _denis_100 / NNNB] DUB + 2xVO + Original + Sub _denis_100 Скачать
Фильмы [HD 720p, 1080p] (Хороший звук DUB, MVO) [ 5.75 GB ] Охотники за головами / Hodejegerne [2011 BDRip 720p] DUB VO potroks Скачать
Фильмы 2011 [ 2.17 GB ] Охотники за головами / Hodejegerne [2011 Норвегия BDRip-AVC] Dub Ворон Скачать

Рекламный пират

03-02-2012 19:38 Охотники за головами Скачать торрент  

03-02-2012 20:28 Охотники за головами Скачать торрент  

Осенью было уже...)

03-02-2012 21:23 Охотники за головами Скачать торрент  

Кто смотрел отпишитесь пожалуиста как фильм, стоит качать? рейтинг вроде хороший)))....Спасибо

03-02-2012 21:28 Охотники за головами Скачать торрент  

Качаю ! Спасибо !

03-02-2012 22:34 Охотники за головами Скачать торрент  

Старый фильмец. все его ужу посмотрели. Сюжет одноразовый.но посмотреть если нечего делать можно.

03-02-2012 22:50 Охотники за головами Скачать торрент  

04-02-2012 00:54 Охотники за головами Скачать торрент  

Надо посмотреть.

04-02-2012 00:59 Охотники за головами Скачать торрент  

поначалу заинтересовало, но потом такой трэшак начался, типа того что на втором скриншоте. собака на вилах трактора просто добила, а два жирных мента-близнеца чего стоят.

Pекламный агент PB

04-02-2012 02:17 Охотники за головами Скачать торрент  

Ниасилил. Полный бред -раскачиваться пол фильма в современном кинематографе не допустимо.

04-02-2012 04:32 Охотники за головами Скачать торрент  

На постере Хайди Клум?

04-02-2012 06:09 Охотники за головами Скачать торрент  

спасибо!!!

04-02-2012 07:40 Охотники за головами Скачать торрент  

Спасибо за лицензию!

04-02-2012 07:51 Охотники за головами Скачать торрент  

А по мне так наоборот, начало посмотрел, хотел было выключать, но потом события стали стремительно развиваться. В итоге фильм понравился, советую всем.

04-02-2012 07:52 Охотники за головами Скачать торрент  

фильмец прикольный!

04-02-2012 09:52 Охотники за головами Скачать торрент  

Фильм очень интересный стоит смотреть всем !!!

04-02-2012 10:28 Охотники за головами Скачать торрент  

аху...ый фильм неожиданный сюжет и никакой не треш !

Pекламный агент PB

04-02-2012 10:46 Охотники за головами Скачать торрент  

значит надо полюбому скачать))

04-02-2012 10:59 Охотники за головами Скачать торрент  

фильм отличный качайте не пожалеете

04-02-2012 12:52 Охотники за головами Скачать торрент  

Фильм просто супер, после него я окончательно полюбил скандинавский кинематограф

04-02-2012 16:33 Охотники за головами Скачать торрент  

Фильм отличный! сюжет, интрига.... на высоте. и никакой голливудской банальщины.рекомендую, к просмотру!

04-02-2012 17:11 Охотники за головами Скачать торрент  

фильм просто супер -бомба

04-02-2012 18:29 Охотники за головами Скачать торрент  

Фильм очень достойный, советую к просмотру.

05-02-2012 01:47 Охотники за головами Скачать торрент  

Забираю спасибо

05-02-2012 02:12 Охотники за головами Скачать торрент  

Хороший фильмец, хоть и немного раздражает "рыжий" главный актер :) Сюжет есть, интрига в середине фильма появляется) А так 8 из 10! Смотреть однозначно стоит)

Pекламный агент PB

Дорогой пользователь! Огромная просьба, поблагодарите релизера, оцените раздачу и оставьте свои комментарий, если Вы скачали Охотники за головами через торрент бесплатно! Внесите свою лепту в развитие PiratBit!

Комментировать посты могут только пользователи прошедшие не сложную регистрацию

Охотники за головами через торрент Скачать бесплатно Охотники за головами Охотники за головами скачать торрент Охотники за головами смотреть онлайн Cкачать фильм Охотники за головами бесплатно Охотники за головами скачать торрент в хорошем качестве Охотники за головами смотреть онлайн бесплатно в хорошем качестве

Вы не можете начинать темыВы не можете отвечать на сообщенияВы не можете редактировать свои сообщенияВы не можете удалять свои сообщенияВы не можете голосовать в опросахВы не можете прикреплять файлы к сообщениямВы можете скачивать файлы

piratbit.ru


Смотрите также