Обливион торрент скачать в хорошем качестве


Скачать фильм Обливион через торрент в хорошем качестве бесплатно HDRip

piratbit.ru

Размер: 1.46 GB | Добавлен: 3 года 3 мес. назад | Торрент скачан:2241 раз
Реклама Дарим 3000 рублей за регистрацию, не упусти свой шанс получить шикарный бонус!!!

04-08-2013 13:48 Обливион Скачать торрент  

Обливион / Oblivion«Earth is a memory worth fighting for.»
  • Год выпуска:2013
  • Страна:США
  • Жанр:фантастика, боевик, триллер, приключения, мелодрама
  • Продолжительность: 02:04:42
  • Перевод:Профессиональный (полное дублирование) Лицензия Blu-Ray CEE
  • Субтитры: Нет
    • Режиссер:Джозеф Косински / Joseph Kosinski
  • В ролях:Том Круз (Jack), Ольга Куриленко (Julia), Андреа Райзборо (Victoria), Морган Фриман (Beech), Николай Костер-Вальдау (Sykes), Мелисса Лео (Sally), Зои Белл (Kara), Эбигейл Лоу (Julia's Child), Изабель Лоу (Julia's Child), Дэвид Мэдисон (Grow Hall Survivor), Джон Л. Армихо (NASA Ground Control, в титрах не указан), Филеена Барис (Survivor, в титрах не указана)
    • Описание:Земля, пережившая войну с инопланетными захватчиками, опустела; остатки человечества готовятся покинуть непригодную для жизни планету. Главный герой - техник по обслуживанию дронов - находит разбившийся корабль NASA, команда которого погибает у него на глазах. Ему удаётся спасти лишь одну женщину - и вскоре он понимает, что это перевернёт его жизнь.
  • Рейтингkinopoisk.ru: 7.430 (41 139)imdb.com: 7.10 (111 674)MPAA: PG-13 - Детям до 13 лет просмотр не желателен
    • Автор рипа: Vetal
    • Качество:HDRip
    • Формат:AVI
    • Видео кодек: XviD
    • Аудио кодек: AC3
    • Видео: XviD, 720x304 (2.35:1), 1219 kbps, 23,976 fps, 0,232 bpp
    • Аудио: AC3 / 5.1 / 48 kHz / 448 kbps / 16 bit
    ОбщееПолное имя : D:ТорентыОбливион_2013_by Vetal.aviФормат : AVIФормат/Информация : Audio Video InterleaveРазмер файла : 1,46 ГбайтПродолжительность : 2 ч. 4 м.Общий поток : 1677 Кбит/секПрограмма кодирования : VirtualDubMod 1.5.10.3 (build 2550/release)Библиотека кодирования : VirtualDubMod build 2550/release

    ВидеоИдентификатор : 0Формат : MPEG-4 VisualПрофиль формата : Advanced [email protected]Параметр BVOP формата : 2Параметр QPel формата : НетПараметр GMC формата : Без точки переходаПараметр матрицы формата : Default (MPEG)Идентификатор кодека : XVIDИдентификатор кодека/Подсказка : XviDПродолжительность : 2 ч. 4 м.Битрейт : 1220 Кбит/секШирина : 720 пикселейВысота : 304 пикселяСоотношение сторон : 2,35:1Частота кадров : 23,976 кадра/секЦветовое пространство : YUVСубдискретизация насыщенности : 4:2:0Битовая глубина : 8 битТип развёртки : ПрогрессивнаяМетод сжатия : С потерямиБит/(Пиксели*Кадры) : 0.232Размер потока : 1,06 Гбайт (73%)Библиотека кодирования : XviD 1.2.1 (UTC 2008-12-04)

    АудиоИдентификатор : 1Формат : AC-3Формат/Информация : Audio Coding 3Расширение режима : CM (complete main)Параметр Endianness формата : BigИдентификатор кодека : 2000Продолжительность : 2 ч. 4 м.Вид битрейта : ПостоянныйБитрейт : 448 Кбит/секКаналы : 6 каналовРасположение каналов : Front: L C R, Side: L R, LFEЧастота : 48,0 КГцБитовая глубина : 16 битМетод сжатия : С потерямиРазмер потока : 400 Мбайт (27%)Выравнивание : Разделение по промежуткамПродолжительность промежутка : 42 мс. (1,00 видеокадр)Время предзагрузки промежутка : 500 мс.

    © Оформление by Vetal
  • Скачать Обливион через торрент http://i2.imageban.ru/out/2013/08/04/8fcf4fcebe44d982a6e81ee09a872d05.png Скачать фильм Обливион через торрент бесплантно в хорошем качестве Описание:Земля, пережившая войну с инопланетными захватчиками, опустела; остатки человечества готовятся покинуть непригодную для жизни ... 2014-07-20 01:04 9.4 10 265

    Loading...

    Loading...

    Последний раз редактировалось: Ворон (2014-07-20 01:04), всего редактировалось 2 раз(а)

    Рекламный пират

    04-08-2013 15:27 Обливион Скачать торрент  

    Вчера глянул не дождался лицухи.Фильм отличный чего то необычного в нем нет , идея реализована хорошо игра актеров на уровне, посмотрел с удовольствием.

    06-08-2013 10:07 Обливион Скачать торрент  

    Фильм классный.Том Круз классно сыграл

    06-08-2013 12:57 Обливион Скачать торрент  

    фильм разовый

    08-08-2013 04:10 Обливион Скачать торрент  

    Спасибо, посмотрим на Круза

    08-08-2013 18:39 Обливион Скачать торрент  

    Очень хороший , и достаточно оригинальный фильм. Качественный и смысловой "Сюжет". Отличные актеры ( Том Круз в свои 51 , выглядит Отлично!)Вообщем, качайте. Время зря не потеряете.

    08-08-2013 19:35 Обливион Скачать торрент  

    фильм нормальный, но на один раз

    09-08-2013 10:10 Обливион Скачать торрент  

    Мда...фильм неплох!

    09-08-2013 15:56 Обливион Скачать торрент  

    Joss076 писал(а):

    фильм нормальный, но на один раз

    как будто ктото чтото по нескольку раз смотрит

    Pекламный агент PB

    10-08-2013 10:02 Обливион Скачать торрент  

    ходил на него в кино, жаль потраченых денег(

    10-08-2013 10:44 Обливион Скачать торрент  

    Отличный фильм:просмотра достоин.

    10-08-2013 19:17 Обливион Скачать торрент  

    Фильм супер, смотрел не отрываясь, неожиданный happy end)))

    11-08-2013 12:41 Обливион Скачать торрент  

    Релизеру Vetаl спасибо!!! :good2:

    14-08-2013 20:07 Обливион Скачать торрент  

    Отличный фильм. В последнее время так мало хорошей фантастики. Этот не разочаровал. Рекомендую к просмотру.

    15-08-2013 05:55 Обливион Скачать торрент  

    Diavol писал(а):

    Фильм супер, смотрел не отрываясь, неожиданный happy end)))

    ага , неожиданней не бывает.. втроем в один голос неожиданно сказали чем кончится=), какой то бессмысленный фильм - на твердую тройку по пятибальной шкале.., ожидал лучшего, актеры то какие....

    15-08-2013 13:06 Обливион Скачать торрент  

    фильм хороший но не супер

    16-08-2013 17:48 Обливион Скачать торрент  

    не очень, посмотрел и сразу забыл что смотрел! не впечатлил вообще.

    Pекламный агент PB

    17-08-2013 19:59 Обливион Скачать торрент  

    Мне фильм понравился. В целом интересно смотреть.Смотрел ночью,не уснул))

    18-08-2013 07:19 Обливион Скачать торрент  

    отличный фильм

    18-08-2013 11:44 Обливион Скачать торрент  

    не понравилось...

    18-08-2013 11:59 Обливион Скачать торрент  

    прикольный фильмец

    18-08-2013 12:20 Обливион Скачать торрент  

    как-то фильм оставил странные впечатления.....вроде и интересная задумка, и сюжет и довольно интересно закручен, НО.......концовка просто г***о Я ожидал увидеть большего в конце, а не просто желез*********** ** ** **** **** **** ***** треугольник

    18-08-2013 14:46 Обливион Скачать торрент  

    Тоже смотрел в кинозале, тоже пожалел времени. Думал ведь еще на мультик пойти вместо "этого"... :)

    19-08-2013 06:07 Обливион Скачать торрент  

    УдаленоМодератор

    20-08-2013 12:27 Обливион Скачать торрент  

    Фильм отличный! Задумка хорошая, реализация на уровне.

    Pекламный агент PB

    Дорогой пользователь! Огромная просьба, поблагодарите релизера, оцените раздачу и оставьте свои комментарий, если Вы скачали Обливион через торрент бесплатно! Внесите свою лепту в развитие PiratBit!

    Комментировать посты могут только пользователи прошедшие не сложную регистрацию

    Обливион через торрент Скачать бесплатно Обливион Обливион скачать торрент Обливион смотреть онлайн Cкачать фильм Обливион бесплатно Обливион скачать торрент в хорошем качестве Обливион смотреть онлайн бесплатно в хорошем качестве

    Вы не можете начинать темыВы не можете отвечать на сообщенияВы не можете редактировать свои сообщенияВы не можете удалять свои сообщенияВы не можете голосовать в опросахВы не можете прикреплять файлы к сообщениямВы можете скачивать файлы

    Скачать фильм Обливион через торрент в хорошем качестве бесплатно 1080p

    GeneralUnique ID : 172034571040685940951985202816533659567 (0x816CA7370C23F3CDA436ED9AFC2FFFAF)Complete name : F:\Обливион.mkvFormat : MatroskaFormat version : Version 4 / Version 2File size : 13.0 GiBDuration : 2h 4mnOverall bit rate : 15.0 MbpsEncoded date : UTC 2015-09-17 13:08:51Writing application : mkvmerge v7.4.0 ('Circles') 64bit built on Dec 12 2014 12:19:56Writing library : libebml v1.3.0 + libmatroska v1.4.1_STATISTICS_WRITING_APP : mkvmerge v7.4.0 ('Circles') 64bit built on Dec 12 2014 12:19:56_STATISTICS_WRITING_DATE_UTC : 2015-09-17 13:08:51_STATISTICS_TAGS : BPS DURATION NUMBER_OF_FRAMES NUMBER_OF_BYTESDURATION : 02:04:42.304000000NUMBER_OF_FRAMES : 233822NUMBER_OF_BYTES : 598584320

    VideoID : 1Format : AVCFormat/Info : Advanced Video CodecFormat profile : [email protected] settings, CABAC : YesFormat settings, ReFrames : 4 framesCodec ID : V_MPEG4/ISO/AVCDuration : 2h 4mnBit rate : 13.8 MbpsWidth : 1 920 pixelsHeight : 804 pixelsDisplay aspect ratio : 2.40:1Frame rate mode : ConstantFrame rate : 59.880 fpsOriginal frame rate : 59.940 fpsColor space : YUVChroma subsampling : 4:2:0Bit depth : 8 bitsScan type : ProgressiveBits/(Pixel*Frame) : 0.149Stream size : 11.7 GiB (89%)Writing library : x264 core 146 r2538 121396cEncoding settings : cabac=1 / ref=3 / deblock=1:0:0 / analyse=0x3:0x113 / me=umh / subme=9 / psy=1 / psy_rd=1.00:0.20 / mixed_ref=1 / me_range=32 / chroma_me=1 / trellis=2 / 8x8dct=1 / cqm=0 / deadzone=21,11 / fast_pskip=0 / chroma_qp_offset=-3 / threads=6 / lookahead_threads=1 / sliced_threads=0 / nr=0 / decimate=0 / interlaced=0 / bluray_compat=0 / constrained_intra=0 / bframes=16 / b_pyramid=2 / b_adapt=2 / b_bias=0 / direct=3 / weightb=1 / open_gop=0 / weightp=2 / keyint=600 / keyint_min=59 / scenecut=40 / intra_refresh=0 / rc_lookahead=40 / rc=2pass / mbtree=0 / bitrate=13800 / ratetol=1.0 / qcomp=0.60 / qpmin=0 / qpmax=69 / qpstep=4 / cplxblur=20.0 / qblur=0.5 / vbv_maxrate=14000 / vbv_bufsize=14000 / nal_hrd=none / filler=0 / ip_ratio=1.40 / pb_ratio=1.30 / aq=1:1.00Language : EnglishDefault : YesForced : NoDURATION : 02:04:42.283000000NUMBER_OF_FRAMES : 448488NUMBER_OF_BYTES : 12787140042_STATISTICS_WRITING_APP : mkvmerge v7.4.0 ('Circles') 64bit built on Dec 12 2014 12:19:56_STATISTICS_WRITING_DATE_UTC : 2015-09-17 13:08:51_STATISTICS_TAGS : BPS DURATION NUMBER_OF_FRAMES NUMBER_OF_BYTES

    Audio #1ID : 2Format : AC-3Format/Info : Audio Coding 3Mode extension : CM (complete main)Format settings, Endianness : BigCodec ID : A_AC3Duration : 2h 4mnBit rate mode : ConstantBit rate : 640 KbpsChannel(s) : 6 channelsChannel positions : Front: L C R, Side: L R, LFESampling rate : 48.0 KHzCompression mode : LossyStream size : 571 MiB (4%)Default : YesForced : No

    Audio #2ID : 3Format : AC-3Format/Info : Audio Coding 3Mode extension : CM (complete main)Format settings, Endianness : BigCodec ID : A_AC3Duration : 2h 4mnBit rate mode : ConstantBit rate : 640 KbpsChannel(s) : 6 channelsChannel positions : Front: L C R, Side: L R, LFESampling rate : 48.0 KHzCompression mode : LossyStream size : 571 MiB (4%)Default : NoForced : No

    Text #1ID : 4Format : UTF-8Codec ID : S_TEXT/UTF8Codec ID/Info : UTF-8 Plain TextTitle : BluRayLanguage : RussianDefault : NoForced : No

    Text #2ID : 5Format : UTF-8Codec ID : S_TEXT/UTF8Codec ID/Info : UTF-8 Plain TextTitle : EnglishLanguage : EnglishDefault : NoForced : No

    Menu00:00:00.000 : :00:04:31.354 : :00:12:51.813 : :00:21:25.284 : :00:27:20.138 : :00:35:30.337 : :00:40:06.779 : :00:46:16.023 : :00:52:22.181 : :01:01:59.716 : :01:07:59.409 : :01:16:25.831 : :01:22:08.173 : :01:25:31.752 : :01:30:22.542 : :01:36:30.368 : :01:40:29.106 : :01:46:27.423 : :01:53:05.320 : :

    piratbit.ru

    Скачать фильм Обливион через торрент в хорошем качестве бесплатно 720p от potroks

    GeneralUnique ID                                : 233967562753210261972448452804480106764 (0xB0048375889B681CB0DF58F9A060810C)Complete name                            : N:\Фантастика\Oblivion.2013.TRIPLE.BDRip.720p.-HELLYWOOD.mkvFormat                                   : MatroskaFormat version                           : Version 4 / Version 2File size                                : 5.37 GiBDuration                                 : 2h 4mnOverall bit rate                         : 6 167 KbpsMovie name                               : Oblivion (2013) - HELLYWOODEncoded date                             : UTC 2010-02-22 21:41:31Writing application                      : mkvmerge v5.8.0 ('No Sleep / Pillow') built on Sep 30 2012 10:57:14Writing library                          : libebml v1.3.0 + libmatroska v1.4.0

    VideoID                                       : 1Format                                   : AVCFormat/Info                              : Advanced Video CodecFormat profile                           : [email protected] settings, CABAC                   : YesFormat settings, ReFrames                : 10 framesCodec ID                                 : V_MPEG4/ISO/AVCDuration                                 : 2h 4mnBit rate                                 : 4 117 KbpsWidth                                    : 1 280 pixelsHeight                                   : 536 pixelsDisplay aspect ratio                     : 2.40:1Frame rate                               : 23.976 fpsColor space                              : YUVChroma subsampling                       : 4:2:0Bit depth                                : 8 bitsScan type                                : ProgressiveBits/(Pixel*Frame)                       : 0.250Stream size                              : 3.49 GiB (65%)Title                                    : potroksWriting library                          : x264 core 146 r2538 121396cEncoding settings                        : cabac=1 / ref=10 / deblock=1:-3:-3 / analyse=0x3:0x113 / me=umh / subme=11 / psy=1 / psy_rd=1.05:0.15 / mixed_ref=1 / me_range=48 / chroma_me=1 / trellis=2 / 8x8dct=1 / cqm=0 / deadzone=21,11 / fast_pskip=0 / chroma_qp_offset=-3 / threads=10 / lookahead_threads=2 / sliced_threads=0 / nr=0 / decimate=0 / interlaced=0 / bluray_compat=0 / constrained_intra=0 / bframes=8 / b_pyramid=2 / b_adapt=2 / b_bias=0 / direct=3 / weightb=1 / open_gop=0 / weightp=2 / keyint=250 / keyint_min=25 / scenecut=40 / intra_refresh=0 / rc_lookahead=60 / rc=2pass / mbtree=0 / bitrate=4117 / ratetol=1.0 / qcomp=0.72 / qpmin=0 / qpmax=69 / qpstep=4 / cplxblur=20.0 / qblur=0.5 / vbv_maxrate=14000 / vbv_bufsize=14000 / nal_hrd=none / filler=0 / ip_ratio=1.35 / pb_ratio=1.25 / aq=1:0.70Language                                 : EnglishDefault                                  : YesForced                                   : No

    Audio #1ID                                       : 2Format                                   : DTSFormat/Info                              : Digital Theater SystemsCodec ID                                 : A_DTSDuration                                 : 2h 4mnBit rate mode                            : ConstantBit rate                                 : 755 KbpsChannel(s)                               : 6 channelsChannel positions                        : Front: L C R, Side: L R, LFESampling rate                            : 48.0 KHzBit depth                                : 24 bitsCompression mode                         : LossyStream size                              : 673 MiB (12%)Title                                    : Dub | DTS 5.1 @ 768 kbps - Blu-Ray CEELanguage                                 : RussianDefault                                  : YesForced                                   : No

    Audio #2ID                                       : 3Format                                   : AC-3Format/Info                              : Audio Coding 3Mode extension                           : CM (complete main)Codec ID                                 : A_AC3Duration                                 : 2h 4mnBit rate mode                            : ConstantBit rate                                 : 640 KbpsChannel(s)                               : 6 channelsChannel positions                        : Front: L C R, Side: L R, LFESampling rate                            : 48.0 KHzBit depth                                : 16 bitsCompression mode                         : LossyStream size                              : 571 MiB (10%)Title                                    : AVO | DD 5.1 @ 640 kbps - Ю.СербинLanguage                                 : RussianDefault                                  : NoForced                                   : No

    Audio #3ID                                       : 4Format                                   : AC-3Format/Info                              : Audio Coding 3Mode extension                           : CM (complete main)Codec ID                                 : A_AC3Duration                                 : 2h 4mnBit rate mode                            : ConstantBit rate                                 : 640 KbpsChannel(s)                               : 6 channelsChannel positions                        : Front: L C R, Side: L R, LFESampling rate                            : 48.0 KHzBit depth                                : 16 bitsCompression mode                         : LossyStream size                              : 571 MiB (10%)Title                                    : Original | DD 5.1 @ 640 kbpsLanguage                                 : EnglishDefault                                  : NoForced                                   : No

    Text #1ID                                       : 5Format                                   : UTF-8Codec ID                                 : S_TEXT/UTF8Codec ID/Info                            : UTF-8 Plain TextTitle                                    : форс.Language                                 : RussianDefault                                  : YesForced                                   : No

    Text #2ID                                       : 6Format                                   : UTF-8Codec ID                                 : S_TEXT/UTF8Codec ID/Info                            : UTF-8 Plain TextTitle                                    : VoronineLanguage                                 : RussianDefault                                  : NoForced                                   : No

    Text #3ID                                       : 7Format                                   : UTF-8Codec ID                                 : S_TEXT/UTF8Codec ID/Info                            : UTF-8 Plain TextTitle                                    : Blu-RayLanguage                                 : RussianDefault                                  : NoForced                                   : No

    Text #4ID                                       : 8Format                                   : UTF-8Codec ID                                 : S_TEXT/UTF8Codec ID/Info                            : UTF-8 Plain TextTitle                                    : форс.Language                                 : UkrainianDefault                                  : NoForced                                   : No

    Text #5ID                                       : 9Format                                   : UTF-8Codec ID                                 : S_TEXT/UTF8Codec ID/Info                            : UTF-8 Plain TextLanguage                                 : EnglishDefault                                  : NoForced                                   : No

    Text #6ID                                       : 10Format                                   : UTF-8Codec ID                                 : S_TEXT/UTF8Codec ID/Info                            : UTF-8 Plain TextTitle                                    : SDHLanguage                                 : EnglishDefault                                  : NoForced                                   : No

    Text #7ID                                       : 11Format                                   : UTF-8Codec ID                                 : S_TEXT/UTF8Codec ID/Info                            : UTF-8 Plain TextTitle                                    : SDH-ColoredLanguage                                 : EnglishDefault                                  : NoForced                                   : No

    Menu00:00:00.000                             : en:(01)00:00:00:00000:04:31.354                             : en:(02)00:04:31:35400:12:51.812                             : en:(03)00:12:51:81200:21:25.284                             : en:(04)00:21:25:28400:27:20.138                             : en:(05)00:27:20:13800:35:30.335                             : en:(06)00:35:30:33500:40:06.779                             : en:(07)00:40:06:77900:46:16.023                             : en:(08)00:46:16:02300:52:22.180                             : en:(09)00:52:22:18001:01:59.715                             : en:(10)01:01:59:71501:07:59.408                             : en:(11)01:07:59:40801:16:25.831                             : en:(12)01:16:25:83101:22:08.173                             : en:(13)01:22:08:17301:25:31.751                             : en:(14)01:25:31:75101:30:22.542                             : en:(15)01:30:22:54201:36:30.367                             : en:(16)01:36:30:36701:40:29.106                             : en:(17)01:40:29:10601:46:27.422                             : en:(18)01:46:27:42201:53:05.320                             : en:(19)01:53:05:32001:58:23.846                             : en:(20)01:58:23:84602:04:42.057                             : en:(21)02:04:42:057

    piratbit.ru

    / Oblivion ( / Joseph Kosinski) [2013, , , , , BDRip-AVC] L

                     : 250344115586816624793734527412120510687 (0xBC5685DA3794F0619B8461C14FFEE0DF)                                : D:\25Kadr\Oblivion.2013.Bluray.x264.ac3.rus.eng.by.L.mkv                                    : Matroska                            : Version 2                              : 2,18                         : 2 . 4 .                               : 2507 /                           : / Oblivion [2013 .] | L | Unionpeer                          : UTC 2013-08-06 06:30:00                     : mkvmerge v3.2.0 ('Beginnings') built on Feb 12 2010 16:46:17                    : libebml v0.7.9 + libmatroska v0.8.1                             : 1                                    : AVC /                        : Advanced Video Codec                           : [email protected] CABAC                    : ReFrames                 : 11                      : V_MPEG4/ISO/AVC                         : 2 . 4 .                                   : 1609 /                                    : 1046                                    : 438                        : 2,40:1                      :                            : 23,976 /                     : YUV             : 4:2:0                           : 8                             : /(*)                      : 0.146                             : 1,36 (62%)                    : x264 core 133 r2334 a3ac64b                       : cabac=1 / ref=11 / deblock=1:-2:-1 / analyse=0x3:0x133 / me=umh / subme=11 / psy=1 / psy_rd=1.10:0.10 / mixed_ref=1 / me_range=32 / chroma_me=1 / trellis=2 / 8x8dct=1 / cqm=0 / deadzone=21,11 / fast_pskip=0 / chroma_qp_offset=-4 / threads=6 / lookahead_threads=1 / sliced_threads=0 / nr=0 / decimate=1 / interlaced=0 / bluray_compat=0 / constrained_intra=0 / bframes=10 / b_pyramid=2 / b_adapt=2 / b_bias=0 / direct=3 / weightb=1 / open_gop=0 / weightp=2 / keyint=230 / keyint_min=21 / scenecut=40 / intra_refresh=0 / rc_lookahead=0 / rc=2pass / mbtree=0 / bitrate=1609 / ratetol=1.0 / qcomp=0.70 / qpmin=0 / qpmax=69 / qpstep=4 / cplxblur=20.0 / qblur=0.5 / vbv_maxrate=50000 / vbv_bufsize=62500 / nal_hrd=none / ip_ratio=1.35 / pb_ratio=1.25 / aq=2:0.90                                      : English Default                                  : Forced                                   :

    #1

                                : 2                                    : AC-3 /                        : Audio Coding 3                         : CM (complete main) Endianness               : Big                      : A_AC3                         : 2 . 4 .                              :                                   : 448 /                                    : 5                      : Front: L C R, Side: L R                                   : 48,0                           : 16                              :                             : 400 (18%)                                 :                                      : Russian Default                                  : Forced                                   :

    #2

                                : 3                                    : AC-3 /                        : Audio Coding 3                         : CM (complete main) Endianness               : Big                      : A_AC3                         : 2 . 4 .                              :                                   : 448 /                                    : 6                      : Front: L C R, Side: L R, LFE                                   : 48,0                           : 16                              :                             : 400 (18%)                                 :                                      : English Default                                  : Forced                                   :

    #1

                                : 4                                    : UTF-8                      : S_TEXT/UTF8 /          : UTF-8 Plain Text                                 :                                      : Russian Default                                  : Forced                                   :

    #2

                                : 5                                    : UTF-8                      : S_TEXT/UTF8 /          : UTF-8 Plain Text                                 :                                      : Russian Default                                  : Forced                                   :

    #3

                                : 6                                    : UTF-8                      : S_TEXT/UTF8 /          : UTF-8 Plain Text                                 : Voronine                                      : Russian Default                                  : Forced                                   :

    #4

                                : 7                                    : UTF-8                      : S_TEXT/UTF8 /          : UTF-8 Plain Text                                      : English Default                                  : Forced                                   : 00:00:00.000                             : en:00:00:00.000 00:04:31.354                             : en:00:04:31.354 00:12:51.813                             : en:00:12:51.813 00:21:25.284                             : en:00:21:25.284 00:27:20.138                             : en:00:27:20.138 00:35:30.337                             : en:00:35:30.337 00:40:06.779                             : en:00:40:06.779 00:46:16.023                             : en:00:46:16.023 00:52:22.181                             : en:00:52:22.181 01:01:59.716                             : en:01:01:59.716 01:07:59.409                             : en:01:07:59.409 01:16:25.831                             : en:01:16:25.831 01:22:08.173                             : en:01:22:08.173 01:25:31.752                             : en:01:25:31.752 01:30:22.542                             : en:01:30:22.542 01:36:30.368                             : en:01:36:30.368 01:40:29.106                             : en:01:40:29.106 01:46:27.423                             : en:01:46:27.423 01:53:05.320                             : en:01:53:05.320 01:58:23.847                             : en:01:58:23.847

    unionpeer.com


    Смотрите также