Нерв скачать торрент в хорошем качестве


Скачать фильм Нерв через торрент в хорошем качестве бесплатно HDRip

piratbit.ru

Раздают: 7 [ 0 KB/s ]
Размер: 1.37 GB | Добавлен: 11 мес. назад | Торрент скачан:2867 раз
Реклама Дарим 3000 рублей за регистрацию, не упусти свой шанс получить шикарный бонус!!!

26-10-2016 19:48 Нерв Скачать торрент  

Нерв / Nerve

Год выпуска: 2016Страна: США, ГонконгЖанр: триллер, криминал, приключенияПродолжительность: 01:36:39Перевод: Профессиональный (полное дублирование) чистый звукСубтитры: отсутствуют

Режиссер: Генри Джуст, Эриель Шульман

Бюджет: $20 000 000Премьера в мире: 12.07.2016 (США)

В ролях:

Эмма Робертс, Дэйв Франко, Эмили Мид, Майлс Хейзер, Кимико Гленн, Марк Джон Джеффрис, Машин Ган Келли, Брайан «Сене» Марк, Эд Сквайр, Райтор Дойл

Описание:

Поддавшись на уговоры одноклассниц, тихоня Ви открывает для себя мир популярной онлайн-игры «Нерв», где участники выполняют задания разной степени сложности, которые придумывают для них другие пользователи. В случае успеха игроки получают очень неплохие деньги. Ви проявляет неожиданную для самой себя смелость и отсутствие комплексов, и в очередном раунде знакомится с парнем по имени Иэн. Красивая пара нравится зрителям игры, и они решают, что следующие задания Ви и Иэн должны выполнять только вместе. Ставки растут, задания становятся все опаснее, и Ви постепенно понимает, что выйти из игры по собственной воле не получится. Те, кто считают себя игроками, на самом деле всего лишь пешки в руках таинственного сообщества Наблюдателей. И никто из участников игры не знает, какое задание станет следующим – или последним.

Качество: HDRipФормат: AVIВидео кодек: XviDАудио кодек: AC3

Видео: 720x304 (2.37:1), 23.976 fps, XviD build 50 ~1824 kbps, 0.35 bit/pixelАудио#1: 48 kHz, AC3 Dolby Digital, 2/0 (L,R) ch, ~384 kbps

Присутствует реклама.

Скачать Нерв через торрент https://st.kp.yandex.net/images/film_iphone/iphone360_889091.jpg Скачать фильм Нерв через торрент бесплантно в хорошем качестве Описание: Поддавшись на уговоры одноклассниц, тихоня Ви открывает для себя мир популярной онлайн-игры «Нерв», где участники выполняют ... 2016-10-26 19:48 9.7 10 51

Loading...

Loading...

% Раздел Тема Автор DL S | L
Фильмы 2016 [DVDrip, WEB-DLRip, HDrip] (DUB, MVO) [ 2.14 GB ] Нерв / Nerve [2016 BDRip-AVC] Dub sokol_ok Скачать
Фильмы 2016 [DVDrip, WEB-DLRip, HDrip] (DUB, MVO) [ 710 MB ] Нерв / Nerve [2016 HDRip ""] coc900 Скачать
Фильмы 2016 [DVDrip, WEB-DLRip, HDrip] (DUB, MVO) [ 746 MB ] Нерв / Nerve [2016 BDRip-AVC] Dub sokol_ok Скачать
Фильмы 2016 [DVDrip, WEB-DLRip, HDrip] (DUB, MVO) [ 1.41 GB ] Нерв / Nerve [2016 BDRip-AVC] Dub sokol_ok Скачать
Фильмы 2016 [DVDrip, WEB-DLRip, HDrip] (DUB, MVO) [ 1.42 GB ] Нерв / Nerve [2016 BDRip] - Twi7ter Скачать
Фильмы [HD 720p, 1080p] (Хороший звук DUB, MVO) [ 6.26 GB ] Нерв / Nerve [2016 BDRip 1080p] bober100 Скачать
Фильмы 2016 [DVDrip, WEB-DLRip, HDrip] (DUB, MVO) [ 2.22 GB ] Нерв / Nerve [2016 BDRip-AVC] bober100 Скачать

Рекламный пират

30-10-2016 21:05 Нерв Скачать торрент  

Рейтинг завышен. Ждал фильм с нетерпением, очень уж хорошие отзывы о нем были.Итог - фильм, на троечку с натяжкой... Начало можно смотреть, но чем дальше тем безмозглее становится

04-12-2016 06:46 Нерв Скачать торрент  

описание один большой спойлер)

20-01-2017 23:20 Нерв Скачать торрент  

фильм хороший и довольно интересный, в общем советую к просмотру)

08-02-2017 10:14 Нерв Скачать торрент  

Народ я че то не пойму когда уже будет звук дубляж? Хочется посмотреть но с номрм звуком!

03-03-2017 11:09 Нерв Скачать торрент  

jason69 писал(а):

Народ я че то не пойму когда уже будет звук дубляж? Хочется посмотреть но с номрм звуком!

10 марта лицензия айтюнс

26-09-2017 06:34 Нерв Скачать торрент  

Дорогой пользователь! Огромная просьба, поблагодарите релизера, оцените раздачу и оставьте свои комментарий, если Вы скачали Нерв через торрент бесплатно! Внесите свою лепту в развитие PiratBit!

Комментировать посты могут только пользователи прошедшие не сложную регистрацию

Нерв через торрент Скачать бесплатно Нерв Нерв скачать торрент Нерв смотреть онлайн Cкачать фильм Нерв бесплатно Нерв скачать торрент в хорошем качестве Нерв смотреть онлайн бесплатно в хорошем качестве

Вы можете начинать темыВы можете отвечать на сообщенияВы не можете редактировать свои сообщенияВы не можете удалять свои сообщенияВы не можете голосовать в опросахВы не можете прикреплять файлы к сообщениямВы можете скачивать файлы

Скачать фильм Нерв через торрент в хорошем качестве бесплатно HDRip

piratbit.ru

Раздают: 3 [ 0 KB/s ]
Размер: 710 MB | Добавлен: 25 д. назад | Торрент скачан:83 раза
Реклама Дарим 3000 рублей за регистрацию, не упусти свой шанс получить шикарный бонус!!!

30-09-2017 18:24 Нерв Скачать торрент  

Нерв / Nerve

Год выпуска: 2016Страна: США / Allison Shearmur Productions, Keep Your Head, LionsgateЖанр: Триллер, криминал, детектив, приключенияПродолжительность: 01:36:18Перевод: Дубляж (iTunes)Субтитры: Русские форсированные - вшитые

Режиссер: Генри Джуст, Эриель Шульман

В ролях: Эмма Робертс, Дэйв Франко, Эмили Мид, Майлс Хейзер, Кимико Гленн, Марк Джон Джеффрис, Машин Ган Келли, Брайан «Сене» Марк, Эд Сквайр, Райтор Дойл, Джульетт Льюис

Описание: Поддавшись на уговоры одноклассниц, тихоня Ви открывает для себя мир популярной онлайн-игры «Нерв», где участники выполняют задания разной степени сложности, которые придумывают для них другие пользователи. В случае успеха игроки получают очень неплохие деньги. Ви проявляет неожиданную для самой себя смелость и отсутствие комплексов, и в очередном раунде знакомится с парнем по имени Иэн. Красивая пара нравится зрителям игры, и они решают, что следующие задания Ви и Иэн должны выполнять только вместе. Ставки растут, задания становятся все опаснее, и Ви постепенно понимает, что выйти из игры по собственной воле не получится. Те, кто считают себя игроками, на самом деле всего лишь пешки в руках таинственного сообщества Наблюдателей. И никто из участников игры не знает, какое задание станет следующим - или последним.

Качество: HDRipФормат: AVIВидео кодек: XviDАудио кодек: AC3Видео: 640x272 (2.35:1), 23.976 fps, XviD build 50 ~893 kbps avg, 0.21 bit/pixelАудио: 48 kHz, MPEG Layer 3, 2 ch, ~128.00 kbps avg

ОбщееПолное имя : F:\ФИЛЬМЫ\Нерв.2016.D.HDRip.aviФормат : AVIФормат/Информация : Audio Video InterleaveРазмер файла : 710 МбайтПродолжительность : 1 ч. 36 м.Общий поток : 1031 Кбит/секПрограмма кодирования : VirtualDubMod 1.5.10.3 | www.virtualdub-fr.org || (build 2550/release)Библиотека кодирования : VirtualDubMod build 2550/release

ВидеоИдентификатор : 0Формат : MPEG-4 VisualПрофиль формата : Advanced [email protected]Настройки формата : BVOP1Параметр BVOP формата : 1Параметр QPel формата : НетПараметр GMC формата : Без точки переходаПараметр матрицы формата : Default (MPEG)Идентификатор кодека : XVIDИдентификатор кодека/Подсказка : XviDПродолжительность : 1 ч. 36 м.Битрейт : 894 Кбит/секШирина : 640 пикселейВысота : 272 пикселяСоотношение сторон : 2,35:1Частота кадров : 23,976 (24000/1001) кадра/секЦветовое пространство : YUVСубдискретизация насыщенности : 4:2:0Битовая глубина : 8 битТип развёртки : ПрогрессивнаяМетод сжатия : С потерямиБит/(Пиксели*Кадры) : 0.214Размер потока : 616 Мбайт (87%)Библиотека кодирования : XviD 1.2.1 (UTC 2008-12-04)

АудиоИдентификатор : 1Формат : MPEG AudioВерсия формата : Version 1Профиль формата : Layer 3Настройки формата : Joint stereo / MS StereoРежим : Joint stereoРасширение режима : MS StereoИдентификатор кодека : 55Идентификатор кодека/Подсказка : MP3Продолжительность : 1 ч. 36 м.Вид битрейта : ПостоянныйБитрейт : 128 Кбит/секКаналы : 2 каналаЧастота : 48,0 КГцМетод сжатия : С потерямиРазмер потока : 88,1 Мбайт (12%)Выравнивание : Соединение по промежуткамПродолжительность промежутка : 42 мс. (1,00 видеокадр)Время предзагрузки промежутка : 504 мс.Библиотека кодирования : LAME3.99rНастройки программы : -m j -V 4 -q 2 -lowpass 17 -b 128

Скачать Нерв через торрент http://pic1.pb.wtf/images/11/iench.jpg Скачать фильм Нерв через торрент бесплантно в хорошем качестве Описание: Поддавшись на уговоры одноклассниц, тихоня Ви открывает для себя мир популярной онлайн-игры «Нерв», где участники выполняют ... 2017-09-30 18:24 9.5 10 2

Loading...

Loading...

% Раздел Тема Автор DL S | L
Фильмы 2016 [DVDrip, WEB-DLRip, HDrip] (DUB, MVO) [ 2.14 GB ] Нерв / Nerve [2016 BDRip-AVC] Dub sokol_ok Скачать
Фильмы 2016 [DVDrip, WEB-DLRip, HDrip] (DUB, MVO) [ 746 MB ] Нерв / Nerve [2016 BDRip-AVC] Dub sokol_ok Скачать
Фильмы 2016 [DVDrip, WEB-DLRip, HDrip] (DUB, MVO) [ 1.41 GB ] Нерв / Nerve [2016 BDRip-AVC] Dub sokol_ok Скачать
Фильмы 2016 [DVDrip, WEB-DLRip, HDrip] (DUB, MVO) [ 1.42 GB ] Нерв / Nerve [2016 BDRip] - Twi7ter Скачать
Фильмы [HD 720p, 1080p] (Хороший звук DUB, MVO) [ 6.26 GB ] Нерв / Nerve [2016 BDRip 1080p] bober100 Скачать
Фильмы 2016 [DVDrip, WEB-DLRip, HDrip] (DUB, MVO) [ 2.22 GB ] Нерв / Nerve [2016 BDRip-AVC] bober100 Скачать
Фильмы 2016 [DVDrip, WEB-DLRip, HDrip] (DUB, MVO) [ 1.42 GB ] Нерв / Nerve [2016 BDRip] bober100 Скачать

Рекламный пират

Дорогой пользователь! Огромная просьба, поблагодарите релизера, оцените раздачу и оставьте свои комментарий, если Вы скачали Нерв через торрент бесплатно! Внесите свою лепту в развитие PiratBit!

Комментировать посты могут только пользователи прошедшие не сложную регистрацию

Нерв через торрент Скачать бесплатно Нерв Нерв скачать торрент Нерв смотреть онлайн Cкачать фильм Нерв бесплатно Нерв скачать торрент в хорошем качестве Нерв смотреть онлайн бесплатно в хорошем качестве

Вы не можете начинать темыВы не можете отвечать на сообщенияВы не можете редактировать свои сообщенияВы не можете удалять свои сообщенияВы не можете голосовать в опросахВы не можете прикреплять файлы к сообщениямВы можете скачивать файлы

Скачать фильм Нерв через торрент в хорошем качестве бесплатно BDRip

piratbit.ru

Раздают: 5 [ 0 KB/s ]
Размер: 1.46 GB | Добавлен: 8 мес. назад | Торрент скачан:642 раза
Реклама Дарим 3000 рублей за регистрацию, не упусти свой шанс получить шикарный бонус!!!

23-02-2017 10:44 Нерв Скачать торрент  

Нерв / Nerve

Год выпуска: 2016Страна: США, ГонконгЖанр: триллер, криминал, приключенияПродолжительность: 01:36:18Перевод: Дубляж - [Чистый звук]Субтитры: отсутствуют

Режиссер: Генри Джуст, Эриель Шульман

В ролях:

Эмма Робертс, Дэйв Франко, Эмили Мид, Майлс Хейзер, Кимико Гленн, Марк Джон Джеффрис, Машин Ган Келли, Брайан «Сене» Марк, Эд Сквайр, Райтор Дойл

Описание:

Поддавшись на уговоры одноклассниц, тихоня Ви открывает для себя мир популярной онлайн-игры «Нерв», где участники выполняют задания разной степени сложности, которые придумывают для них другие пользователи. В случае успеха игроки получают очень неплохие деньги. Ви проявляет неожиданную для самой себя смелость и отсутствие комплексов, и в очередном раунде знакомится с парнем по имени Иэн. Красивая пара нравится зрителям игры, и они решают, что следующие задания Ви и Иэн должны выполнять только вместе. Ставки растут, задания становятся все опаснее, и Ви постепенно понимает, что выйти из игры по собственной воле не получится. Те, кто считают себя игроками, на самом деле всего лишь пешки в руках таинственного сообщества Наблюдателей. И никто из участников игры не знает, какое задание станет следующим — или последним.

Качество: BDRipФормат: AVIВидео кодек: XviDАудио кодек: AC3

Видео: 720x304 (2.37:1), 23.976 fps, XviD build 73 ~1715 kbps, 0.29 bit/pixelАудио#1: 48 kHz, AC3 Dolby Digital, 3/2 (L,C,R,l,r) + LFE ch, ~448 kbps

Скачать Нерв через торрент http://pic1.pb.wtf/images/11/6ro8m.jpg Скачать фильм Нерв через торрент бесплантно в хорошем качестве Описание: Поддавшись на уговоры одноклассниц, тихоня Ви открывает для себя мир популярной онлайн-игры «Нерв», где участники выполняют ... 2017-02-23 10:44 8.8 10 21

Loading...

Loading...

% Раздел Тема Автор DL S | L
Фильмы 2016 [DVDrip, WEB-DLRip, HDrip] (DUB, MVO) [ 2.14 GB ] Нерв / Nerve [2016 BDRip-AVC] Dub sokol_ok Скачать
Фильмы 2016 [DVDrip, WEB-DLRip, HDrip] (DUB, MVO) [ 710 MB ] Нерв / Nerve [2016 HDRip ""] coc900 Скачать
Фильмы 2016 [DVDrip, WEB-DLRip, HDrip] (DUB, MVO) [ 746 MB ] Нерв / Nerve [2016 BDRip-AVC] Dub sokol_ok Скачать
Фильмы 2016 [DVDrip, WEB-DLRip, HDrip] (DUB, MVO) [ 1.41 GB ] Нерв / Nerve [2016 BDRip-AVC] Dub sokol_ok Скачать
Фильмы 2016 [DVDrip, WEB-DLRip, HDrip] (DUB, MVO) [ 1.42 GB ] Нерв / Nerve [2016 BDRip] - Twi7ter Скачать
Фильмы [HD 720p, 1080p] (Хороший звук DUB, MVO) [ 6.26 GB ] Нерв / Nerve [2016 BDRip 1080p] bober100 Скачать
Фильмы 2016 [DVDrip, WEB-DLRip, HDrip] (DUB, MVO) [ 2.22 GB ] Нерв / Nerve [2016 BDRip-AVC] bober100 Скачать

Рекламный пират

01-06-2017 13:58 Нерв Скачать торрент  

очень сильный рассинхрон звука и картинки в некоторых местах

26-09-2017 06:33 Нерв Скачать торрент  

Дорогой пользователь! Огромная просьба, поблагодарите релизера, оцените раздачу и оставьте свои комментарий, если Вы скачали Нерв через торрент бесплатно! Внесите свою лепту в развитие PiratBit!

Комментировать посты могут только пользователи прошедшие не сложную регистрацию

Нерв через торрент Скачать бесплатно Нерв Нерв скачать торрент Нерв смотреть онлайн Cкачать фильм Нерв бесплатно Нерв скачать торрент в хорошем качестве Нерв смотреть онлайн бесплатно в хорошем качестве

Вы можете начинать темыВы можете отвечать на сообщенияВы не можете редактировать свои сообщенияВы не можете удалять свои сообщенияВы не можете голосовать в опросахВы не можете прикреплять файлы к сообщениямВы можете скачивать файлы

Скачать фильм Нерв через торрент в хорошем качестве бесплатно 1080p

piratbit.ru

Раздают: 1 [ 0 KB/s ]
Размер: 6.56 GB | Добавлен: 1 год назад | Торрент скачан:181 раз
Реклама Дарим 3000 рублей за регистрацию, не упусти свой шанс получить шикарный бонус!!!

12-10-2016 09:23 Нерв Скачать торрент  

Нерв / Nerve Год выпуска: 2016Страна: США, ГонконгЖанр: триллер, криминал, приключения

Продолжительность: 01:36:18Перевод: Отсутствует [Оригинал]

Режиссер: Генри Джуст , Эриель ШульманВ ролях: Эмма Робертс (Vee), Дэйв Франко (Ian), Эмили Мид (Sydney), Майлс Хейзер (Tommy), Кимико Гленн (Liv), Марк Джон Джеффрис (Wes), Машин Ган Келли (Ty), Брайан «Сене» Марк (J.P.), Эд Сквайр (Chuck), Райтор Дойл (Bergdorf Salesman), Джош Островский (Dirt Beard), Эрик Д’Алессандро (Hype Boi)Описание: Поддавшись на уговоры одноклассниц, тихоня Ви открывает для себя мир популярной онлайн-игры «Нерв», где участники выполняют задания разной степени сложности, которые придумывают для них другие пользователи. В случае успеха игроки получают очень неплохие деньги. Ви проявляет неожиданную для самой себя смелость и отсутствие комплексов, и в очередном раунде знакомится с парнем по имени Иэн. Красивая пара нравится зрителям игры, и они решают, что следующие задания Ви и Иэн должны выполнять только вместе. Ставки растут, задания становятся все опаснее, и Ви постепенно понимает, что выйти из игры по собственной воле не получится. Те, кто считают себя игроками, на самом деле всего лишь пешки в руках таинственного сообщества Наблюдателей. И никто из участников игры не знает, какое задание станет следующим - или последним. MPAA: PG-13 - Детям до 13 лет просмотр не желателенКачество: BDRip 1080pФормат: MKVВидео: AVC, 1920x800 (2.40:1), 8979 kbps, 23,976 fps, 0,244 bppАудио: английский / DTS / 2.0 / 48 kHz / 768 kbps / 24 bitНавигация по главам: есть GeneralUnique ID Nerve.2016.1080p.mkvFormat : MatroskaFormat version : Version 4 / Version 2File size : 6.56 GiBDuration : 1 h 36 minOverall bit rate : 9 748 kb/sEncoded date : UTC 2016-10-12 05:46:15Writing application : mkvmerge v8.3.0 ('Over the Horizon') 64bitWriting library : libebml v1.3.1 + libmatroska v1.4.2

VideoID : 1Format : AVCFormat/Info : Advanced Video CodecFormat profile : [email protected] settings, CABAC : YesFormat settings, ReFrames : 5 framesCodec ID : V_MPEG4/ISO/AVCDuration : 1 h 36 minBit rate : 8 979 kb/sWidth : 1 920 pixelsHeight : 800 pixelsDisplay aspect ratio : 2.40:1Frame rate mode : ConstantFrame rate : 23.976 FPSColor space : YUVChroma subsampling : 4:2:0Bit depth : 8 bitsScan type : ProgressiveBits/(Pixel*Frame) : 0.244Stream size : 6.04 GiB (92%)Writing library : x264 core 148 r2692 64f4e24Encoding settings : cabac=1 / ref=5 / deblock=1:0:0 / analyse=0x3:0x133 / me=umh / subme=7 / psy=1 / psy_rd=1.00:0.00 / mixed_ref=1 / me_range=16 / chroma_me=1 / trellis=1 / 8x8dct=1 / cqm=0 / deadzone=21,11 / fast_pskip=0 / chroma_qp_offset=-2 / threads=24 / lookahead_threads=4 / sliced_threads=0 / nr=0 / decimate=1 / interlaced=0 / bluray_compat=0 / constrained_intra=0 / bframes=3 / b_pyramid=2 / b_adapt=1 / b_bias=0 / direct=1 / weightb=1 / open_gop=0 / weightp=2 / keyint=250 / keyint_min=23 / scenecut=40 / intra_refresh=0 / rc_lookahead=40 / rc=2pass / mbtree=1 / bitrate=8979 / ratetol=1.0 / qcomp=0.60 / qpmin=0 / qpmax=69 / qpstep=4 / cplxblur=20.0 / qblur=0.5 / ip_ratio=1.40 / aq=1:1.00Language : EnglishDefault : YesForced : No

AudioID : 2Format : DTSFormat/Info : Digital Theater SystemsMode : 16Format settings, Endianness : BigCodec ID : A_DTSDuration : 1 h 36 minBit rate mode : ConstantBit rate : 768 kb/sChannel(s) : 2 channelsChannel positions : Front: L RSampling rate : 48.0 kHzFrame rate : 93.750 FPS (512 spf)Bit depth : 24 bitsCompression mode : LossyStream size : 529 MiB (8%)Language : EnglishDefault : YesForced : No

Menu00:00:00.000 : en:00:00:00.00000:05:14.189 : en:00:05:14.18900:13:43.406 : en:00:13:43.40600:20:40.239 : en:00:20:40.23900:28:42.304 : en:00:28:42.30400:33:27.088 : en:00:33:27.08800:38:34.437 : en:00:38:34.43700:43:36.405 : en:00:43:36.40500:49:17.872 : en:00:49:17.87200:53:07.643 : en:00:53:07.64300:58:18.578 : en:00:58:18.57801:05:59.330 : en:01:05:59.33001:10:17.338 : en:01:10:17.33801:14:40.643 : en:01:14:40.64301:19:07.868 : en:01:19:07.86801:27:20.860 : en:01:27:20.860

Скриншоты: Скачать Нерв через торрент http://i4.imageban.ru/out/2016/10/12/ac63e571b66b78a985a9b4718eeea698.jpg Скачать фильм Нерв через торрент бесплантно в хорошем качестве Описание: Поддавшись на уговоры одноклассниц, тихоня Ви открывает для себя мир популярной онлайн-игры «Нерв», где участники выполняют ... 2016-10-12 09:23 10 10 9

Loading...

Loading...

% Раздел Тема Автор DL S | L
Фильмы 2016 [DVDrip, WEB-DLRip, HDrip] (DUB, MVO) [ 2.14 GB ] Нерв / Nerve [2016 BDRip-AVC] Dub sokol_ok Скачать
Фильмы 2016 [DVDrip, WEB-DLRip, HDrip] (DUB, MVO) [ 710 MB ] Нерв / Nerve [2016 HDRip ""] coc900 Скачать
Фильмы 2016 [DVDrip, WEB-DLRip, HDrip] (DUB, MVO) [ 746 MB ] Нерв / Nerve [2016 BDRip-AVC] Dub sokol_ok Скачать
Фильмы 2016 [DVDrip, WEB-DLRip, HDrip] (DUB, MVO) [ 1.41 GB ] Нерв / Nerve [2016 BDRip-AVC] Dub sokol_ok Скачать
Фильмы 2016 [DVDrip, WEB-DLRip, HDrip] (DUB, MVO) [ 1.42 GB ] Нерв / Nerve [2016 BDRip] - Twi7ter Скачать
Фильмы [HD 720p, 1080p] (Хороший звук DUB, MVO) [ 6.26 GB ] Нерв / Nerve [2016 BDRip 1080p] bober100 Скачать
Фильмы 2016 [DVDrip, WEB-DLRip, HDrip] (DUB, MVO) [ 2.22 GB ] Нерв / Nerve [2016 BDRip-AVC] bober100 Скачать

Рекламный пират

16-10-2016 13:54 Нерв Скачать торрент  

раздачи нет не качайте!!!!!!Фильм крут советую!!!!!!

14-11-2016 17:43 Нерв Скачать торрент  

Качество есть!) супер, жаль не русская версия =(

Дорогой пользователь! Огромная просьба, поблагодарите релизера, оцените раздачу и оставьте свои комментарий, если Вы скачали Нерв через торрент бесплатно! Внесите свою лепту в развитие PiratBit!

Комментировать посты могут только пользователи прошедшие не сложную регистрацию

Нерв через торрент Скачать бесплатно Нерв Нерв скачать торрент Нерв смотреть онлайн Cкачать фильм Нерв бесплатно Нерв скачать торрент в хорошем качестве Нерв смотреть онлайн бесплатно в хорошем качестве

Вы не можете начинать темыВы не можете отвечать на сообщенияВы не можете редактировать свои сообщенияВы не можете удалять свои сообщенияВы не можете голосовать в опросахВы не можете прикреплять файлы к сообщениямВы можете скачивать файлы


Смотрите также