Непристойное предложение скачать в хорошем качестве торрент


Непристойное предложение 1993 - скачать бесплатно через торрент в хорошем качестве. Без регистрации

Название: Непристойное предложение / Indecent Proposal (1993) BDRip-AVC от ExKinoRay | D, P, P2, A
Качество видео: BDRip (AVC)
Перевод: Дублированный, профессиональный многоголосый, профессиональный двухголосый, авторский
Видео: H.264 MPEG-4 AVC, 2553 Кбит/с, 1024x576
Аудио: Аудио №1: Русский (AC3, 2 ch, 192 Кбит/с) - Дублированный
Скачать

Загрузка начнется в течение 5 сек.

4.81 GB

Название: Непристойное предложение / Indecent Proposal (1993) BDRip 1080p от NNNB | P, P2, A
Качество видео: BDRip 1080p (исходник Blu-ray Disc Remux) (Спасибо, URALMIX)
Перевод: Профессиональный (многоголосый, закадровый), Профессиональный (двехголосый, закадровый), Авторский (Л.Володарский) (А.Гаврилов)
Видео: 1920x1080, 11121 Кбит/сек, 23,976 кадр/сек, AVC, x264, [email protected], 16:9, 0.224 Бит/[Пиксели*Кадры]
Аудио: AC-3, 448 Кбит/сек, 6 канала(ов), 48,0 КГц - Двухголосый закадровый, НТВ+ / Русский *AC-3, 384 Кбит/сек, 6 канала(ов), 48,0 КГц - Многоголосый закадровый, НТВ+ по заказу НТВ / Русский **AC-3, 448 Кбит/сек, 6 канала(ов), 48,0 КГц - Многоголосый закадровый / Русский ***AC-3, 448 Кбит/сек, 6 канала(ов), 48,0 КГц - Многоголосый закадровый, R5 / РусскийAC-3, 192 Кбит/сек, 2 канала(ов), 48,0 КГц - Многоголосый закадровый / РусскийAC-3, 192 Кбит/сек, 2 канала(ов), 48,0 КГц - Одноголосый закадровый, Л.Володарский / РусскийAC-3, 448 Кбит/сек, 6 канала(ов), 48,0 КГц - Одноголосый закадровый, А.Гаврилов / РусскийAC-3, 448 Кбит/сек, 6 канала(ов), 48,0 КГц - Оригинал / Английский
Скачать

Загрузка начнется в течение 5 сек.

11.52 GB

Название: Непристойное предложение / Indecent Proposal (1993) BDRemux 1080p от URALMIX | P, P2, A | Лицензия
Качество видео: Blu-Ray Remux (1080p)
Перевод: Профессиональный многоголосый закадровый, профессиональный двухголосый закадровый, авторский одноголосый закадровый
Видео: MPEG-4 AVC, 35099 Мбит/с, 1920х1080, 23.976 кадр/с
Аудио: Русский (AC3, 2 ch, 192 Кбит/с), (AC3, 6 ch, 384 Кбит/с), (AC3, 6 ch, 448 Кбит/с), (DTS-HD MA , 6 ch, 3573 Кбит/с), английский (AC3, 2 ch, 224 Кбит/с), (DTS-HD MA , 6 ch, 3484 Кбит/с)
Скачать

Загрузка начнется в течение 5 сек.

33.85 GB

www.kinovit.net

Скачать фильм Непристойное предложение (1993) через торрент

22 сентября 2016 07:04 Непристойное предложение / Indecent Proposal (1993) BDRip-AVC от ExKinoRay | D, P, P2, A .torrent   [Информация о файле (нажмите для просмотра)] Перевод: Дублированный, профессиональный многоголосый, профессиональный двухголосый, авторскийСубтитры: Русские, английскиеВидео: Идентификатор : 1 Формат : AVC Формат/Информация : Advanced Video Codec Профиль формата : [email protected] Параметр CABAC формата : Да Параметр ReFrames формата : 8 кадров Идентификатор кодека : V_MPEG4/ISO/AVC Продолжительность : 1 ч. 56 м. Битрейт : 2553 Кбит/сек Ширина : 1024 пикс. Высота : 576 пикс. Соотношение сторон : 16:9 Частота кадров : 23,976 кадр/сек Цветовое пространство : YUV Подвыборка цветности : 4:2:0 Битовая глубина : 8 бит Тип развёртки : Прогрессивная Бит/(Пиксели*Кадры) : 0.181 Размер потока : 1,99 Гбайт (41%) Заголовок : Rip by Enigma-Vladislav71 Библиотека кодирования : x264 core 142 r2431 ac76440 Настройки программы : cabac=1 / ref=8 / deblock=1:-2:-2 / analyse=0x3:0x133 / me=umh / subme=11 / psy=1 / psy_rd=1.00:0.00 / mixed_ref=1 / me_range=48 / chroma_me=1 / trellis=2 / 8x8dct=1 / cqm=0 / deadzone=21,11 / fast_pskip=0 / chroma_qp_offset=-2 / threads=3 / lookahead_threads=1 / sliced_threads=0 / nr=0 / decimate=0 / interlaced=0 / bluray_compat=0 / constrained_intra=0 / bframes=8 / b_pyramid=2 / b_adapt=2 / b_bias=0 / direct=3 / weightb=1 / open_gop=0 / weightp=2 / keyint=240 / keyint_min=23 / scenecut=40 / intra_refresh=0 / rc_lookahead=40 / rc=2pass / mbtree=0 / bitrate=2553 / ratetol=1.0 / qcomp=0.60 / qpmin=10 / qpmax=51 / qpstep=4 / cplxblur=20.0 / qblur=0.5 / vbv_maxrate=62500 / vbv_bufsize=78125 / nal_hrd=none / filler=0 / ip_ratio=1.40 / pb_ratio=1.30 / aq=2:1.00 Язык : EnglishАудио #1: Идентификатор : 2 Формат : AC-3 Формат/Информация : Audio Coding 3 Расширение режима : CM (complete main) Идентификатор кодека : A_AC3 Продолжительность : 1 ч. 56 м. Вид битрейта : Постоянный Битрейт : 192 Кбит/сек Каналы : 2 канала Расположение каналов : Front: L R Частота : 48,0 КГц Битовая глубина : 16 бит Метод сжатия : С потерями Размер потока : 161 Мбайт (3%) Заголовок : Дублированный Язык : RussianАудио #2: Идентификатор : 3 Формат : AC-3 Формат/Информация : Audio Coding 3 Расширение режима : CM (complete main) Идентификатор кодека : A_AC3 Продолжительность : 1 ч. 56 м. Вид битрейта : Постоянный Битрейт : 448 Кбит/сек Каналы : 6 каналов Расположение каналов : Front: L C R, Side: L R, LFE Частота : 48,0 КГц Битовая глубина : 16 бит Метод сжатия : С потерями Размер потока : 375 Мбайт (8%) Заголовок : многоголосый - лицензия Universal Russia Язык : RussianАудио #3: Идентификатор : 4 Формат : AC-3 Формат/Информация : Audio Coding 3 Расширение режима : CM (complete main) Идентификатор кодека : A_AC3 Продолжительность : 1 ч. 56 м. Вид битрейта : Постоянный Битрейт : 448 Кбит/сек Каналы : 6 каналов Расположение каналов : Front: L C R, Side: L R, LFE Частота : 48,0 КГц Битовая глубина : 16 бит Метод сжатия : С потерями Размер потока : 375 Мбайт (8%) Заголовок : многоголосый - Андрей Градов, Алексей Борзунов, Ирина Маликова Язык : RussianАудио #4: Идентификатор : 5 Формат : AC-3 Формат/Информация : Audio Coding 3 Расширение режима : CM (complete main) Идентификатор кодека : A_AC3 Продолжительность : 1 ч. 56 м. Вид битрейта : Постоянный Битрейт : 192 Кбит/сек Каналы : 2 канала Расположение каналов : Front: L R Частота : 48,0 КГц Битовая глубина : 16 бит Метод сжатия : С потерями Размер потока : 161 Мбайт (3%) Заголовок : многоголосый Язык : RussianАудио #5: Идентификатор : 6 Формат : AC-3 Формат/Информация : Audio Coding 3 Расширение режима : CM (complete main) Идентификатор кодека : A_AC3 Продолжительность : 1 ч. 56 м. Вид битрейта : Постоянный Битрейт : 448 Кбит/сек Каналы : 6 каналов Расположение каналов : Front: L C R, Side: L R, LFE Частота : 48,0 КГц Битовая глубина : 16 бит Метод сжатия : С потерями Размер потока : 375 Мбайт (8%) Заголовок : НТВ+ (Игорь Тарадайкин и Наталья Казначеева) Язык : RussianАудио #6: Идентификатор : 7 Формат : AC-3 Формат/Информация : Audio Coding 3 Расширение режима : CM (complete main) Идентификатор кодека : A_AC3 Продолжительность : 1 ч. 56 м. Вид битрейта : Постоянный Битрейт : 384 Кбит/сек Каналы : 6 каналов Расположение каналов : Front: L C R, Side: L R, LFE Частота : 48,0 КГц Битовая глубина : 16 бит Метод сжатия : С потерями Размер потока : 321 Мбайт (7%) Заголовок : НТВ+ по заказу НТВ Язык : RussianАудио #7: Идентификатор : 8 Формат : AC-3 Формат/Информация : Audio Coding 3 Расширение режима : CM (complete main) Идентификатор кодека : A_AC3 Продолжительность : 1 ч. 56 м. Вид битрейта : Постоянный Битрейт : 192 Кбит/сек Каналы : 2 канала Расположение каналов : Front: L R Частота : 48,0 КГц Битовая глубина : 16 бит Метод сжатия : С потерями Размер потока : 161 Мбайт (3%) Заголовок : aвторский - Леонид Володарский Язык : RussianАудио #8: Идентификатор : 9 Формат : AC-3 Формат/Информация : Audio Coding 3 Расширение режима : CM (complete main) Идентификатор кодека : A_AC3 Продолжительность : 1 ч. 56 м. Вид битрейта : Постоянный Битрейт : 448 Кбит/сек Каналы : 6 каналов Расположение каналов : Front: L C R, Side: L R, LFE Частота : 48,0 КГц Битовая глубина : 16 бит Метод сжатия : С потерями Размер потока : 375 Мбайт (8%) Заголовок : aвторский - Гаврилов Язык : RussianАудио #9: Идентификатор : 10 Формат : AC-3 Формат/Информация : Audio Coding 3 Расширение режима : CM (complete main) Идентификатор кодека : A_AC3 Продолжительность : 1 ч. 56 м. Вид битрейта : Постоянный Битрейт : 192 Кбит/сек Каналы : 2 канала Расположение каналов : Front: L R Частота : 48,0 КГц Битовая глубина : 16 бит Метод сжатия : С потерями Размер потока : 161 Мбайт (3%) Заголовок : aвторский - Живов Язык : RussianАудио #10: Идентификатор : 11 Формат : AC-3 Формат/Информация : Audio Coding 3 Расширение режима : CM (complete main) Идентификатор кодека : A_AC3 Продолжительность : 1 ч. 56 м. Вид битрейта : Постоянный Битрейт : 384 Кбит/сек Каналы : 6 каналов Расположение каналов : Front: L C R, Side: L R, LFE Частота : 48,0 КГц Битовая глубина : 16 бит Метод сжатия : С потерями Размер потока : 321 Мбайт (7%) Заголовок : английский Язык : EnglishКодек: H.264Качество: BDRip (AVC)Видео: MPEG-4 AVC, 2553 Кбит/с, 1024x576Звук: Аудио №1: Русский (AC3, 2 ch, 192 Кбит/с) - Дублированный Аудио №2: Русский (AC3, 6 ch, 448 Кбит/с) - Профессиональный многоголосый (лицензия Universal Russia) Аудио №3: Русский (AC3, 6 ch, 448 Кбит/с) - Профессиональный многоголосый Аудио №4: Русский (AC3, 2 ch, 192 Кбит/с) - Профессиональный многоголосый Аудио №5: Русский (AC3, 6 ch, 384 Кбит/с) - Профессиональный многоголосый (НТВ+) Аудио №6: Русский (AC3, 6 ch, 448 Кбит/с) - Профессиональный двухголосый (НТВ+Игорь Тарадайкин и Наталья Казначеева) Аудио №7: Русский (AC3, 2 ch, 192 Кбит/с) - Авторский одноголосый (Володарский) Аудио №8: Русский (AC3, 6 ch, 448 Кбит/с) - Авторский одноголосый (А.Гаврилов) Аудио №9: Русский (AC3, 2 ch, 192 Кбит/с) - Авторский одноголосый (Ю.Живов) Аудио №10: Английский (AC3, 6 ch, 448 Кбит/с) 4,81 Gb 3 2 22 сентября 2016 07:04 Непристойное предложение / Indecent Proposal (1993) BDRip 1080p от NNNB | P, P2, A .torrent   [Информация о файле (нажмите для просмотра)] Перевод: Профессиональный (многоголосый, закадровый), Профессиональный (двехголосый, закадровый), Авторский (Л.Володарский) (А.Гаврилов)Качество: BDRip 1080p (исходник Blu-ray Disc Remux) (Спасибо, URALMIX)Видео: 1920x1080, 11121 Кбит/сек, 23,976 кадр/сек, AVC, x264, [email protected], 16:9, 0.224 Бит/[Пиксели*Кадры]Аудио 1: AC-3, 448 Кбит/сек, 6 канала(ов), 48,0 КГц - Двухголосый закадровый, НТВ+ / Русский *Аудио 2: AC-3, 384 Кбит/сек, 6 канала(ов), 48,0 КГц - Многоголосый закадровый, НТВ+ по заказу НТВ / Русский **Аудио 3: AC-3, 448 Кбит/сек, 6 канала(ов), 48,0 КГц - Многоголосый закадровый / Русский ***Аудио 4: AC-3, 448 Кбит/сек, 6 канала(ов), 48,0 КГц - Многоголосый закадровый, R5 / РусскийАудио 5: AC-3, 192 Кбит/сек, 2 канала(ов), 48,0 КГц - Многоголосый закадровый / РусскийАудио 6: AC-3, 192 Кбит/сек, 2 канала(ов), 48,0 КГц - Одноголосый закадровый, Л.Володарский / РусскийАудио 7: AC-3, 448 Кбит/сек, 6 канала(ов), 48,0 КГц - Одноголосый закадровый, А.Гаврилов / РусскийАудио 8: AC-3, 448 Кбит/сек, 6 канала(ов), 48,0 КГц - Оригинал / АнглийскийСубтитры: Русские | Полные, Английские | Полные 11,52 Gb 4 2 22 сентября 2016 07:04 Непристойное предложение / Indecent Proposal (1993) BDRemux 1080p от URALMIX | P, P2, A | Лицензия .torrent   [Информация о файле (нажмите для просмотра)] Качество: Blu-Ray Remux (1080p)Видео: MPEG-4 AVC, 35099 Мбит/с, 1920х1080, 23.976 кадр/сАудио: Русский (AC3, 2 ch, 192 Кбит/с), (AC3, 6 ch, 384 Кбит/с), (AC3, 6 ch, 448 Кбит/с), (DTS-HD MA , 6 ch, 3573 Кбит/с), английский (AC3, 2 ch, 224 Кбит/с), (DTS-HD MA , 6 ch, 3484 Кбит/с)Перевод: Профессиональный многоголосый закадровый, профессиональный двухголосый закадровый, авторский одноголосый закадровыйСубтитры: Русские, английскиеВидео: Идентификатор : 1 Формат : AVC Формат/Информация : Advanced Video Codec Профиль формата : [email protected] Параметр CABAC формата : Да Параметр ReFrames формата : 2 кадра Идентификатор кодека : V_MPEG4/ISO/AVC Продолжительность : 1 ч. 56 м. Вид битрейта : Переменный Ширина : 1920 пикселей Высота : 1080 пикселей Соотношение сторон : 16:9 Режим частоты кадров : Постоянный Частота кадров : 23,976 кадра/сек Цветовое пространство : YUV Субдискретизация насыщенности : 4:2:0 Битовая глубина : 8 бит Тип развёртки : Прогрессивная Заголовок : uralmix Язык : English Default : Нет Forced : НетАудио #1: Идентификатор : 2 Формат : AC-3 Формат/Информация : Audio Coding 3 Расширение режима : CM (complete main) Параметр Endianness формата : Big Идентификатор кодека : A_AC3 Продолжительность : 1 ч. 56 м. Вид битрейта : Постоянный Битрейт : 448 Кбит/сек Каналы : 6 каналов Расположение каналов : Front: L C R, Side: L R, LFE Частота : 48,0 КГц Битовая глубина : 16 бит Метод сжатия : С потерями Размер потока : 375 Мбайт (1%) Заголовок : НТВ+ (Игорь Тарадайкин и Наталья Казначеева) Язык : Russian Default : Да Forced : НетАудио #2: Идентификатор : 3 Формат : AC-3 Формат/Информация : Audio Coding 3 Расширение режима : CM (complete main) Параметр Endianness формата : Big Идентификатор кодека : A_AC3 Продолжительность : 1 ч. 56 м. Вид битрейта : Постоянный Битрейт : 384 Кбит/сек Каналы : 6 каналов Расположение каналов : Front: L C R, Side: L R, LFE Частота : 48,0 КГц Битовая глубина : 16 бит Метод сжатия : С потерями Размер потока : 321 Мбайт (1%) Заголовок : НТВ+ по заказу НТВ Язык : Russian Default : Нет Forced : НетАудио #3: Идентификатор : 4 Формат : AC-3 Формат/Информация : Audio Coding 3 Расширение режима : CM (complete main) Параметр Endianness формата : Big Идентификатор кодека : A_AC3 Продолжительность : 1 ч. 56 м. Вид битрейта : Постоянный Битрейт : 448 Кбит/сек Каналы : 6 каналов Расположение каналов : Front: L C R, Side: L R, LFE Частота : 48,0 КГц Битовая глубина : 16 бит Метод сжатия : С потерями Размер потока : 375 Мбайт (1%) Заголовок : многоголосый - Андрей Градов, Алексей Борзунов, Ирина Маликова Язык : Russian Default : Нет Forced : НетАудио #4: Идентификатор : 5 Формат : AC-3 Формат/Информация : Audio Coding 3 Расширение режима : CM (complete main) Параметр Endianness формата : Big Идентификатор кодека : A_AC3 Продолжительность : 1 ч. 56 м. Вид битрейта : Постоянный Битрейт : 448 Кбит/сек Каналы : 6 каналов Расположение каналов : Front: L C R, Side: L R, LFE Частота : 48,0 КГц Битовая глубина : 16 бит Метод сжатия : С потерями Размер потока : 375 Мбайт (1%) Заголовок : многоголосый - лицензия Universal Russia Язык : Russian Default : Нет Forced : НетАудио #5: Идентификатор : 6 Формат : AC-3 Формат/Информация : Audio Coding 3 Расширение режима : CM (complete main) Параметр Endianness формата : Big Идентификатор кодека : A_AC3 Продолжительность : 1 ч. 56 м. Вид битрейта : Постоянный Битрейт : 192 Кбит/сек Каналы : 2 канала Расположение каналов : Front: L R Частота : 48,0 КГц Битовая глубина : 16 бит Метод сжатия : С потерями Размер потока : 161 Мбайт (0%) Заголовок : многоголосый Язык : Russian Default : Нет Forced : НетАудио #6: Идентификатор : 7 Формат : AC-3 Формат/Информация : Audio Coding 3 Расширение режима : CM (complete main) Параметр Endianness формата : Big Идентификатор кодека : A_AC3 Продолжительность : 1 ч. 56 м. Вид битрейта : Постоянный Битрейт : 192 Кбит/сек Каналы : 2 канала Расположение каналов : Front: L R Частота : 48,0 КГц Битовая глубина : 16 бит Метод сжатия : С потерями Размер потока : 161 Мбайт (0%) Заголовок : aвторский - Леонид Володарский Язык : Russian Default : Нет Forced : НетАудио #7: Идентификатор : 8 Формат : DTS Формат/Информация : Digital Theater Systems Профиль формата : MA / Core Режим : 16 Параметр Endianness формата : Big Идентификатор кодека : A_DTS Продолжительность : 1 ч. 56 м. Вид битрейта : Переменный Битрейт : Неизвестно / 1509 Кбит/сек Каналы : 6 каналов Расположение каналов : Front: L C R, Side: L R, LFE Частота : 48,0 КГц Битовая глубина : 24 бит Метод сжатия : Без потерь / Lossy Заголовок : авторский - Андрей Гаврилов Язык : Russian Default : Нет Forced : НетАудио #8: Идентификатор : 9 Формат : DTS Формат/Информация : Digital Theater Systems Профиль формата : MA / Core Режим : 16 Параметр Endianness формата : Big Идентификатор кодека : A_DTS Продолжительность : 1 ч. 56 м. Вид битрейта : Переменный Битрейт : Неизвестно / 1509 Кбит/сек Каналы : 6 каналов Расположение каналов : Front: L C R, Side: L R, LFE Частота : 48,0 КГц Битовая глубина : 24 бит Метод сжатия : Без потерь / Lossy Язык : English Default : Нет Forced : НетАудио #9: Идентификатор : 10 Формат : AC-3 Формат/Информация : Audio Coding 3 Профиль формата : Dolby Digital Расширение режима : CM (complete main) Параметр Endianness формата : Big Идентификатор кодека : A_AC3 Продолжительность : 1 ч. 56 м. Вид битрейта : Постоянный Битрейт : 224 Кбит/сек Каналы : 2 канала Расположение каналов : Front: L R Частота : 48,0 КГц Битовая глубина : 16 бит Метод сжатия : С потерями Размер потока : 187 Мбайт (1%) Заголовок : Commentary with Director Adrian Lyne Язык : English Default : Нет Forced : Нет 33,85 Gb 4 3 22 сентября 2016 07:04 Непристойное предложение / Indecent Proposal (1993) BDRip 1008p .torrent   [Информация о файле (нажмите для просмотра)] Перевод: Профессиональный (многоголосый закадровый) НТВ+Кодек: MKVКачество: BDRip 1008pВидео: AVC,1920 X 1080,14.5 Mbps,23.976 fps,0.291 bitsАудио 1: Russian:48 kHz, AC3, 3/2 (L,C,R,l,r) + LFE ch, ~384.00 kbps avgАудио 2: Russian:48 kHz, AC3, 3/2 (L,C,R,l,r) + LFE ch, ~448.00 kbps avgАудио 3: Russian:48 kHz, AC3, 3/2 (L,C,R,l,r) + LFE ch, ~384.00 kbps avgАудио 4: English: 48 kHz, DTS, 3/2 (L,C,R,l,r) + LFE ch, ~1536.00 kbps avgСубтитры: английские 14,02 Gb 4 1 22 сентября 2016 07:03 Непристойное предложение / Indecent Proposal (1993) BDRip от HQCLUB .torrent   [Информация о файле (нажмите для просмотра)] Перевод: Профессиональный (многоголосый, закадровый) НТВ + Оригинальная звуковая дорожка +Профессиональный (полное дублирование) Хлопушка (thx alex7691/smit009)Субтитры: Русские, Английские (внешние srt*)Формат: AVIКачество: BDRip (источник / Blu-ray Remux / 1080p)Видео: 720x400 (1.80:1), 23,976 fps, XviD build 62 ~1894 kbps avg, 0.27 bit/pixelАудио #1: 48 kHz, AC3 Dolby Digital, 3/2 (L,C,R,l,r) + LFE ch, ~384.00 kbps avgАудио #2: 48 kHz, AC3 Dolby Digital, 3/2 (L,C,R,l,r) + LFE ch, ~384.00 kbps avgАудио #3: 48 kHz, AC3 Dolby Digital, 2/0 (L,R), ~192.00 kbps avg(отдельно, http)Аудио #4: 48 kHz, AC3 Dolby Digital, 3/2 (L,C,R,l,r) + LFE ch, ~384.00 kbps avg(отдельно Narod.Ru)Аудио #5: 48 kHz, AC3 Dolby Digital, 3/2 (L,C,R,l,r) + LFE ch, ~384.00 kbps avg(отдельно Narod.Ru)Аудио #6: 48 kHz, AC3 Dolby Digital, 3/2 (L,C,R,l,r) + LFE ch, ~384.00 kbps avg(отдельно Narod.Ru)Аудио #7: 48 kHz, AC3 Dolby Digital, 3/2 (L,C,R,l,r) + LFE ch, ~384.00 kbps avg(отдельно Narod.Ru)Аудио #8: 48 kHz, AC3 Dolby Digital, 2/0 (L,R), ~192.00 kbps avg(отдельно, http) 2,18 Gb 6 3 22 сентября 2016 07:03 Непристойное предложение / Indecent Proposal (1993) HDRip .torrent   [Информация о файле (нажмите для просмотра)] Перевод: Профессиональный (двухголосый) СТС Профессиональный (многоголосый, закадровый) НТВ+ Профессиональный (многоголосый, закадровый) с переизданий R1 Профессиональный (многоголосый, закадровый)Кодек: XviDКачество: HDRipВидео: 688x384 (1.79:1), 23.976 fps, XviD build 47 ~1389 kbps avg, 0.22 bit/pixelЗвук: Аудио: 48 kHz, MPEG Layer 3, 2 ch, ~128.00 kbps avg (СТС) Аудио: 48 kHz, MPEG Layer 3, 2 ch, ~128.00 kbps avg (НТВ+) Работа со звуком MARIO Аудио: 48 kHz, MPEG Layer 3, 2 ch, ~128.00 kbps avg (R1) Аудио: 22.050 kHz, MPEG Layer 3, 2 ch, ~64.00 kbps avg 1,52 Gb 18 3

gig-torrent.net

/ Indecent Proposal ( / Adrian Lyne) [1993 ., , BDRip 1080p] MVO(R5 Universal Russia, R1, , +) + AVO(, ) + Original + Subs(Rus, Eng)

Format : Matroska File size : 18.5 GiB Duration : 1h 56mn Overall bit rate : 22.6 Mbps Encoded date : UTC 2011-05-28 13:11:34 Writing application : mkvmerge v4.7.0 ('Just Like You Imagined') Apr 21 2011 01:13:14 Writing library : libebml v1.2.0 + libmatroska v1.1.0

Video

ID : 1 Format : AVC Format/Info : Advanced Video Codec Format profile : [email protected] Format settings, CABAC : Yes Format settings, ReFrames : 4 frames Codec ID : V_MPEG4/ISO/AVC Duration : 1h 56mn Bit rate : 17.5 Mbps Width : 1 920 pixels Height : 1 080 pixels Display aspect ratio : 16:9 Frame rate : 23.976 fps Color space : YUV Chroma subsampling : 4:2:0 Bit depth : 8 bits Scan type : Progressive Bits/(Pixel*Frame) : 0.352 Stream size : 13.7 GiB (74%) Writing library : x264 core 114 r1900 60ef1f8 Encoding settings : cabac=1 / ref=4 / deblock=1:-3:-3 / analyse=0x3:0x133 / me=umh / subme=10 / psy=1 / psy_rd=1.10:0.10 / mixed_ref=1 / me_range=32 / chroma_me=1 / trellis=2 / 8x8dct=1 / cqm=0 / deadzone=21,11 / fast_pskip=0 / chroma_qp_offset=-3 / threads=9 / sliced_threads=0 / nr=0 / decimate=0 / interlaced=0 / constrained_intra=0 / bframes=7 / b_pyramid=2 / b_adapt=2 / b_bias=0 / direct=3 / weightb=1 / open_gop=0 / weightp=2 / keyint=250 / keyint_min=23 / scenecut=40 / intra_refresh=0 / rc_lookahead=40 / rc=abr / mbtree=0 / bitrate=17500 / ratetol=1.0 / qcomp=0.65 / qpmin=0 / qpmax=40 / qpstep=4 / vbv_maxrate=50000 / vbv_bufsize=50000 / nal_hrd=none / ip_ratio=1.25 / pb_ratio=1.25 / aq=1:0.65 Language : English

Audio #1

ID : 2 Format : AC-3 Format/Info : Audio Coding 3 Mode extension : CM (complete main) Codec ID : A_AC3 Duration : 1h 56mn Bit rate mode : Constant Bit rate : 448 Kbps Channel(s) : 6 channels Channel positions : Front: L C R, Side: L R, LFE Sampling rate : 48.0 KHz Bit depth : 16 bits Compression mode : Lossy Stream size : 375 MiB (2%) Title : AC3 5.1 @ 448 kbps | , R5 Universal Russia| Language : Russian

Audio #2

ID : 3 Format : AC-3 Format/Info : Audio Coding 3 Mode extension : CM (complete main) Codec ID : A_AC3 Duration : 1h 56mn Bit rate mode : Constant Bit rate : 448 Kbps Channel(s) : 6 channels Channel positions : Front: L C R, Side: L R, LFE Sampling rate : 48.0 KHz Bit depth : 16 bits Compression mode : Lossy Stream size : 375 MiB (2%) Title : AC3 5.1 @ 448 kbps | , R1| Language : Russian

Audio #3

ID : 4 Format : AC-3 Format/Info : Audio Coding 3 Mode extension : CM (complete main) Codec ID : A_AC3 Duration : 1h 56mn Bit rate mode : Constant Bit rate : 448 Kbps Channel(s) : 6 channels Channel positions : Front: L C R, Side: L R, LFE Sampling rate : 48.0 KHz Bit depth : 16 bits Compression mode : Lossy Stream size : 375 MiB (2%) Title : AC3 5.1 @ 448 kbps | , +| Language : Russian

Audio #4

ID : 5 Format : AC-3 Format/Info : Audio Coding 3 Mode extension : CM (complete main) Codec ID : A_AC3 Duration : 1h 56mn Bit rate mode : Constant Bit rate : 384 Kbps Channel(s) : 6 channels Channel positions : Front: L C R, Side: L R, LFE Sampling rate : 48.0 KHz Bit depth : 16 bits Compression mode : Lossy Stream size : 321 MiB (2%) Title : AC3 5.1 @ 384 kbps | , | Language : Russian

Audio #5

ID : 6 Format : AC-3 Format/Info : Audio Coding 3 Mode extension : CM (complete main) Codec ID : A_AC3 Duration : 1h 56mn Bit rate mode : Constant Bit rate : 192 Kbps Channel(s) : 2 channels Channel positions : Front: L R Sampling rate : 48.0 KHz Bit depth : 16 bits Compression mode : Lossy Stream size : 161 MiB (1%) Title : AC3 2.0 @ 192 kbps | | Language : Russian

Audio #6

ID : 7 Format : AC-3 Format/Info : Audio Coding 3 Mode extension : CM (complete main) Codec ID : A_AC3 Duration : 1h 56mn Bit rate mode : Constant Bit rate : 192 Kbps Channel(s) : 2 channels Channel positions : Front: L R Sampling rate : 48.0 KHz Bit depth : 16 bits Compression mode : Lossy Stream size : 161 MiB (1%) Title : AC3 2.0 @ 192 kbps | , | Language : Russian

Audio #7

ID : 8 Format : DTS Format/Info : Digital Theater Systems Codec ID : A_DTS Duration : 1h 56mn Bit rate mode : Constant Bit rate : 1 510 Kbps Channel(s) : 6 channels Channel positions : Front: L C R, Side: L R, LFE Sampling rate : 48.0 KHz Bit depth : 24 bits Compression mode : Lossy Stream size : 1.23 GiB (7%) Title : DTS 5.1 @ 1536 kbps | , | Language : Russian

Audio #8

ID : 9 Format : DTS Format/Info : Digital Theater Systems Codec ID : A_DTS Duration : 1h 56mn Bit rate mode : Constant Bit rate : 1 510 Kbps Channel(s) : 6 channels Channel positions : Front: L C R, Side: L R, LFE Sampling rate : 48.0 KHz Bit depth : 24 bits Compression mode : Lossy Stream size : 1.23 GiB (7%) Title : DTS 5.1 @ 1536 kbps || Language : English

Audio #9

ID : 10 Format : AC-3 Format/Info : Audio Coding 3 Format profile : Dolby Digital Mode extension : CM (complete main) Codec ID : A_AC3 Duration : 1h 56mn Bit rate mode : Constant Bit rate : 224 Kbps Channel(s) : 2 channels Channel positions : Front: L R Sampling rate : 48.0 KHz Bit depth : 16 bits Compression mode : Lossy Stream size : 187 MiB (1%) Title : AC3 2.0 @ 224 kbps || Language : English

Text #1

ID : 11 Format : UTF-8 Codec ID : S_TEXT/UTF8 Codec ID/Info : UTF-8 Plain Text Language : Russian

Text #2

ID : 12 Format : UTF-8 Codec ID : S_TEXT/UTF8 Codec ID/Info : UTF-8 Plain Text Language : English

Menu

00:00:00.000 : en:00:00:00.000 00:09:48.421 : en:00:09:48.421 00:22:06.367 : en:00:22:06.367 00:29:20.717 : en:00:29:20.717 00:37:21.114 : en:00:37:21.114 00:41:56.347 : en:00:41:56.347 00:45:02.742 : en:00:45:02.742 00:57:48.674 : en:00:57:48.674 01:07:27.585 : en:01:07:27.585 01:15:33.863 : en:01:15:33.863 01:21:58.080 : en:01:21:58.080 01:32:54.277 : en:01:32:54.277 01:38:19.143 : en:01:38:19.143 01:44:49.158 : en:01:44:49.158 01:48:57.281 : en:01:48:57.281 01:52:17.481 : en:01:52:17.481

unionpeer.com

Скачать фильм Непристойное предложение через торрент в хорошем качестве бесплатно HDRip

Размер: 1.46 GB | Добавлен: 6 лет 5 мес. назад | Торрент скачан:163 раза
Реклама Дарим 3000 рублей за регистрацию, не упусти свой шанс получить шикарный бонус!!!

14-05-2011 07:04 Непристойное предложение Скачать торрент  

Непристойное предложение / Indecent Proposal

Год выпуска: 1993Страна: СШАЖанр: драма, мелодрамаПродолжительность: 01:56:58Перевод: Профессиональный (многоголосый, закадровый)

Режиссер: Эдриан ЛайнПродюссер: Алекс Гартнер, Шерри Лэнсинг, Том ШульманСценарий: Джек Энгелхард, Эми Холден Джонс

Бюджет: $38 000 000

R

-Лицам до 17 лет обязательно присутствие взрослогоМировой рейтинг IMDB 5.40 (20 923)

В ролях: Роберт Редфорд, Деми Мур, Вуди Харрельсон, Сеймур Кэссел, Оливер Плэтт, Билли Боб Торнтон, Рип Тейлор, Билли Коннолли, Джоэл Брукс, Пьер Эпстайн

Описание: Как вы отнесетесь к непристойному предложению? Вам предлагается миллион долларов всего за одну ночь с вашей женой. Никаких лишних вопросов. Никаких обид. Никакого обмана. Все ваши финансовые вопросы будут решены в одно мгновение. Все ваши неосуществимые мечты станут реальностью. Как вы сами понимаете, речь идет об очень больших деньгах. Одна ночь с вашей женой. Согласны? Именно с такой дилеммой столкнулся архитектор Дэйвид Мерфи, после того, как миллиардер-финансист, очарованный красотой его супруги Дайэны, сделал предложение, от которого почти невозможно отказаться. Одна ночь с Дайэной — миллион долларов! Смогут ли молодые люди пойти на эту сделку? Готовы ли они заплатить столь большую цену за столь большие деньги?

Качество: HDRipФормат: AVIВидео кодек: XviDАудио кодек: AC3Видео: 688x384 (1.79:1), 23.976 fps, XviD build 47 ~1392 kbps avg, 0.22 bit/pixelАудио: 48 kHz, AC3 Dolby Digital, 3/2 (L,C,R,l,r) + LFE ch, ~384.00 kbps avg

Скачать Непристойное предложение через торрент http://i2.fastpic.ru/big/2011/0514/5a/4222cb124c09f82afe6727546675095a.jpg Скачать фильм Непристойное предложение через торрент бесплантно в хорошем качестве Описание: Как вы отнесетесь к непристойному предложению? Вам предлагается миллион долларов всего за одну ночь с вашей женой. Никаких лишних ... 2011-05-14 07:04 10 10 1

Loading...

Loading...

Рекламный пират

Дорогой пользователь! Огромная просьба, поблагодарите релизера, оцените раздачу и оставьте свои комментарий, если Вы скачали Непристойное предложение через торрент бесплатно! Внесите свою лепту в развитие PiratBit!

Комментировать посты могут только пользователи прошедшие не сложную регистрацию

Непристойное предложение через торрент Скачать бесплатно Непристойное предложение Непристойное предложение скачать торрент Непристойное предложение смотреть онлайн Cкачать фильм Непристойное предложение бесплатно Непристойное предложение скачать торрент в хорошем качестве Непристойное предложение смотреть онлайн бесплатно в хорошем качестве

Вы не можете начинать темыВы не можете отвечать на сообщенияВы не можете редактировать свои сообщенияВы не можете удалять свои сообщенияВы не можете голосовать в опросахВы не можете прикреплять файлы к сообщениямВы можете скачивать файлы

piratbit.ru

Скачать фильм Непристойное предложение через торрент в хорошем качестве бесплатно 1080p] MVO

Format                                   : MatroskaFormat version                           : Version 2File size                                : 11.5 GiBDuration                                 : 1h 56mnOverall bit rate                         : 14.1 MbpsMovie name                               : Непристойное предложение.(1993).BDRip.1080p.[envy]Encoded date                             : UTC 2015-02-01 10:04:08Writing application                      : mkvmerge v5.8.0 ('No Sleep / Pillow') built on Sep  2 2012 15:37:04Writing library                          : libebml v1.2.3 + libmatroska v1.3.0

VideoID                                       : 1Format                                   : AVCFormat/Info                              : Advanced Video CodecFormat profile                           : [email protected] settings, CABAC                   : YesFormat settings, ReFrames                : 4 framesCodec ID                                 : V_MPEG4/ISO/AVCDuration                                 : 1h 56mnBit rate                                 : 11.1 MbpsWidth                                    : 1 920 pixelsHeight                                   : 1 080 pixelsDisplay aspect ratio                     : 16:9Frame rate mode                          : ConstantFrame rate                               : 23.976 fpsColor space                              : YUVChroma subsampling                       : 4:2:0Bit depth                                : 8 bitsScan type                                : ProgressiveBits/(Pixel*Frame)                       : 0.224Stream size                              : 8.84 GiB (77%)Title                                    : Непристойное предложение.(1993).BDRip.1080p.[envy]Writing library                          : x264 core 144 r2525 40bb568Encoding settings                        : cabac=1 / ref=4 / deblock=1:-3:-2 / analyse=0x3:0x113 / me=umh / subme=11 / psy=1 / psy_rd=1.00:0.00 / mixed_ref=1 / me_range=32 / chroma_me=1 / trellis=2 / 8x8dct=1 / cqm=0 / deadzone=21,11 / fast_pskip=0 / chroma_qp_offset=-2 / threads=12 / lookahead_threads=2 / sliced_threads=0 / nr=0 / decimate=1 / interlaced=0 / bluray_compat=0 / constrained_intra=0 / bframes=8 / b_pyramid=2 / b_adapt=2 / b_bias=0 / direct=3 / weightb=1 / open_gop=0 / weightp=2 / keyint=240 / keyint_min=23 / scenecut=40 / intra_refresh=0 / rc=2pass / mbtree=0 / bitrate=11121 / ratetol=2.0 / qcomp=0.60 / qpmin=0 / qpmax=69 / qpstep=4 / cplxblur=20.0 / qblur=0.5 / ip_ratio=1.40 / pb_ratio=1.30 / aq=2:0.90Language                                 : EnglishDefault                                  : YesForced                                   : No

Audio #1ID                                       : 2Format                                   : AC-3Format/Info                              : Audio Coding 3Mode extension                           : CM (complete main)Format settings, Endianness              : BigCodec ID                                 : A_AC3Duration                                 : 1h 56mnBit rate mode                            : ConstantBit rate                                 : 448 KbpsChannel(s)                               : 6 channelsChannel positions                        : Front: L C R, Side: L R, LFESampling rate                            : 48.0 KHzBit depth                                : 16 bitsCompression mode                         : LossyStream size                              : 375 MiB (3%)Title                                    : НТВ+Language                                 : RussianDefault                                  : YesForced                                   : No

Audio #2ID                                       : 3Format                                   : AC-3Format/Info                              : Audio Coding 3Mode extension                           : CM (complete main)Format settings, Endianness              : BigCodec ID                                 : A_AC3Duration                                 : 1h 56mnBit rate mode                            : ConstantBit rate                                 : 384 KbpsChannel(s)                               : 6 channelsChannel positions                        : Front: L C R, Side: L R, LFESampling rate                            : 48.0 KHzBit depth                                : 16 bitsCompression mode                         : LossyStream size                              : 321 MiB (3%)Title                                    : НТВ+/НТВLanguage                                 : RussianDefault                                  : NoForced                                   : No

Audio #3ID                                       : 4Format                                   : AC-3Format/Info                              : Audio Coding 3Mode extension                           : CM (complete main)Format settings, Endianness              : BigCodec ID                                 : A_AC3Duration                                 : 1h 56mnBit rate mode                            : ConstantBit rate                                 : 448 KbpsChannel(s)                               : 6 channelsChannel positions                        : Front: L C R, Side: L R, LFESampling rate                            : 48.0 KHzBit depth                                : 16 bitsCompression mode                         : LossyStream size                              : 375 MiB (3%)Title                                    : MVOLanguage                                 : RussianDefault                                  : NoForced                                   : No

Audio #4ID                                       : 5Format                                   : AC-3Format/Info                              : Audio Coding 3Mode extension                           : CM (complete main)Format settings, Endianness              : BigCodec ID                                 : A_AC3Duration                                 : 1h 56mnBit rate mode                            : ConstantBit rate                                 : 448 KbpsChannel(s)                               : 6 channelsChannel positions                        : Front: L C R, Side: L R, LFESampling rate                            : 48.0 KHzBit depth                                : 16 bitsCompression mode                         : LossyStream size                              : 375 MiB (3%)Title                                    : MVO R5Language                                 : RussianDefault                                  : NoForced                                   : No

Audio #5ID                                       : 6Format                                   : AC-3Format/Info                              : Audio Coding 3Mode extension                           : CM (complete main)Format settings, Endianness              : BigCodec ID                                 : A_AC3Duration                                 : 1h 56mnBit rate mode                            : ConstantBit rate                                 : 192 KbpsChannel(s)                               : 2 channelsChannel positions                        : Front: L RSampling rate                            : 48.0 KHzBit depth                                : 16 bitsCompression mode                         : LossyStream size                              : 161 MiB (1%)Title                                    : MVOLanguage                                 : RussianDefault                                  : NoForced                                   : No

Audio #6ID                                       : 7Format                                   : AC-3Format/Info                              : Audio Coding 3Mode extension                           : CM (complete main)Format settings, Endianness              : BigCodec ID                                 : A_AC3Duration                                 : 1h 56mnBit rate mode                            : ConstantBit rate                                 : 192 KbpsChannel(s)                               : 2 channelsChannel positions                        : Front: L RSampling rate                            : 48.0 KHzBit depth                                : 16 bitsCompression mode                         : LossyStream size                              : 161 MiB (1%)Title                                    : VolodarskijLanguage                                 : RussianDefault                                  : NoForced                                   : No

Audio #7ID                                       : 8Format                                   : AC-3Format/Info                              : Audio Coding 3Mode extension                           : CM (complete main)Format settings, Endianness              : BigCodec ID                                 : A_AC3Duration                                 : 1h 56mnBit rate mode                            : ConstantBit rate                                 : 448 KbpsChannel(s)                               : 6 channelsChannel positions                        : Front: L C R, Side: L R, LFESampling rate                            : 48.0 KHzBit depth                                : 16 bitsCompression mode                         : LossyStream size                              : 375 MiB (3%)Title                                    : GavrilovLanguage                                 : RussianDefault                                  : NoForced                                   : No

Audio #8ID                                       : 9Format                                   : AC-3Format/Info                              : Audio Coding 3Mode extension                           : CM (complete main)Format settings, Endianness              : BigCodec ID                                 : A_AC3Duration                                 : 1h 56mnBit rate mode                            : ConstantBit rate                                 : 448 KbpsChannel(s)                               : 6 channelsChannel positions                        : Front: L C R, Side: L R, LFESampling rate                            : 48.0 KHzBit depth                                : 16 bitsCompression mode                         : LossyStream size                              : 375 MiB (3%)Title                                    : EngLanguage                                 : EnglishDefault                                  : NoForced                                   : No

Text #1ID                                       : 10Format                                   : UTF-8Codec ID                                 : S_TEXT/UTF8Codec ID/Info                            : UTF-8 Plain TextTitle                                    : fullLanguage                                 : RussianDefault                                  : NoForced                                   : No

Text #2ID                                       : 11Format                                   : UTF-8Codec ID                                 : S_TEXT/UTF8Codec ID/Info                            : UTF-8 Plain TextTitle                                    : fullLanguage                                 : EnglishDefault                                  : NoForced                                   : No

Menu00:00:00.000                             : en:00:00:00.00000:09:48.421                             : en:00:09:48.42100:22:06.366                             : en:00:22:06.36600:29:20.717                             : en:00:29:20.71700:37:21.112                             : en:00:37:21.11200:41:56.347                             : en:00:41:56.34700:45:02.741                             : en:00:45:02.74100:57:48.673                             : en:00:57:48.67301:07:27.585                             : en:01:07:27.58501:15:33.862                             : en:01:15:33.86201:21:58.079                             : en:01:21:58.07901:32:54.277                             : en:01:32:54.27701:38:19.143                             : en:01:38:19.14301:44:49.157                             : en:01:44:49.15701:48:57.280                             : en:01:48:57.28001:52:17.479                             : en:01:52:17.479

piratbit.ru

«Непристойное предложение» скачать торрент в хорошем качестве

Скачать торрент фильм непристойное предложение

Опубликовал(а): VORON в: 21.02.2017

Video)» Скачать торрент Непристойное предложение / Indecent Proposal Если увидел, что кто-то делает какой-то фильм - хочешь. Скачать фильмы бесплатно» Мелодрама» скачать фильм Непристойное предложение бесплатно с торрента. Скачать Непристойное предложение через торрент в хорошем качестве и на высокой скорости! Фильмы в хорошем.

Видео по теме

Как скачать фильм с торрента

Вуди Харрельсон - шикарный актер, который скачать торрент фильм непристойное предложение сыграл свою роль. Ещё раз, чтобы напомнить мужской половине, что свою половинку нужно ценить, не нужно устраивать скандалы на ровном месте сюрприз, но в фильме это действительно больше свойственно мужчинам. В общем возмутил меня этот фильм и точка! На деле эта парочка послала бы друг друга куда подальше. Люди любят хорохориться, педалируя свою честность и неподкупность, скачать торрент фильм непристойное предложение чаще это происходит от того, что им попросту не поступало соответствующего предложения. Если кто-то из них тратит деньги и как говорят, сорит ими только при других с целью показать всем, дескать посмотрите, какой я богатый, как много у меня денег, завидуйте и восхищайтесь мной! Очень сильно фильм меня тронул. А Дайэна, увидев в подобном предложении некий налет романтичности, уже не столь категорична в своем решении отказать миллиардеру. Хотелось бы конечно ремукс или блю-рэй увидеть. Добавь в Мой Мир. Перескочив через пару жизненных ступеней, она застряла на необоримом перепутье. А у нравственного выбора не должно быть цены, потому скачать торрент фильм непристойное предложение он бесценен. Понравилась она ему настолько сильно, что он просто не в силах сдерживать. Абсолютно бесплатно для наших пользователей! Хотя поначалу юмором и не пахнет, а драматизм интриги, можно сказать, хвантанирует через край. Скачать Смотреть онлайн Непристойное предложение в хорошем качестве Обновилось шоппинг-приложение для Андроид. Муж Дайэны, Дэвид, пребывает в состоянии шока. Дайэна и не представляла, что однажды одновременно испытает неприязнь и тайное удовлетворение, услышав цену, которую назначил за ночь с ней некий миллиардер. Привлекательный старикан оказался внимательным и щедрым,к тому же, "на деле" - далеко не дряхлый сморчок! Лента о том самом,а сколько ты стоишь? Роль фильма в антологии. Хуже всего этого - только попытаться потом все это прекратить, побежать за ней следом в последний момент, чтобы все-таки этого не случилось.

Или: Скачать торрент фильм непристойное предложение

АЛГЕБРА 9 КЛАСС ГДЗ ТЕЛЯКОВСКИЙ 2012 543
Скачать торрент фильм непристойное предложение И получил сто долларов. Но так или иначе женщина всегда сама решает. Скачать торрент фильм непристойное предложение свою любимую, даже за миллион долларов - не достойно уважения. Не надо брать большие кредиты, если не уверен в завтрашнем дне. Как на первых страницах Библии, где описывается грехопадение первых людей. Скачать торрент Непристойное предложение - Indecent Proposal. Дэми Мур - шикарна, как и всегда!!!
ЗНАКИ БЕЗОПАСНОСТИ ОХРАНА ТРУДА ГОСТ 891
Дворец и крепость фильм скачать 480

svh-remont.ru

Блондинка приняла непристойное предложение [2011 Group sex DVDRip] скачать через торрент

Размер: 492 MB | Добавлен: 5 лет 8 мес. назад | Торрент скачан:126 раз
Реклама Дарим 3000 рублей за регистрацию, не упусти свой шанс получить шикарный бонус!!!

03-02-2012 18:06 Блондинка приняла непристойное предложение Скачать торрент  

Блондинка приняла непристойное предложение

Год выпуска: 2011Жанр: Group sexПродолжительность: 00:43:18

Описание: Блондинка приняла непристойное предложение

Качество: DVDRipФормат: WMVВидео кодек: XviDАудио кодек: MP3 Видео: Xvid 512x384 29.98fps 1480 Kbps[Stream 00]Аудио#1: MPEG Audio Layer 3 48000Hz stereo 96kbps [Stream 01]

Скачать Блондинка приняла непристойное предложение через торрент http://i29.fastpic.ru/big/2012/0203/a9/b960b4ea561c5e9c5e0181fefcf11ea9.jpg Скачать фильм Блондинка приняла непристойное предложение [2011 г., Group sex, DVDRip]через торрент бесплантно в хорошем качестве Описание: Блондинка приняла непристойное ... 2012-02-03 18:06 5 10 1

Loading...

Loading...

Рекламный пират

04-02-2012 15:51 Блондинка приняла непристойное предложение Скачать торрент  

у неё на лице написано что на всё согласна

Дорогой пользователь! Огромная просьба, поблагодарите релизера, оцените раздачу и оставьте свои комментарий, если Вы скачали Блондинка приняла непристойное предложение через торрент бесплатно! Внесите свою лепту в развитие PiratBit!

Комментировать посты могут только пользователи прошедшие не сложную регистрацию

Блондинка приняла непристойное предложение через торрент Скачать бесплатно Блондинка приняла непристойное предложение Блондинка приняла непристойное предложение скачать торрент Блондинка приняла непристойное предложение смотреть онлайн Cкачать фильм Блондинка приняла непристойное предложение бесплатно Блондинка приняла непристойное предложение скачать торрент в хорошем качестве Блондинка приняла непристойное предложение смотреть онлайн бесплатно в хорошем качестве

Вы не можете начинать темыВы не можете отвечать на сообщенияВы не можете редактировать свои сообщенияВы не можете удалять свои сообщенияВы не можете голосовать в опросахВы не можете прикреплять файлы к сообщениямВы можете скачивать файлы

piratbit.ru


Смотрите также