Немножко женаты скачать торрент в хорошем качестве


Скачать фильм Немножко женаты (2012) через торрент

26 января 2016 06:56 Немножко женаты / The Five-Year Engagement (2012) DVD5 сжатый | Лицензия .torrent   [Информация о файле (нажмите для просмотра)] Перевод: Профессиональный (полное дублирование)Качество: DVD5 (сжатый)Формат: DVD VideoВидео: MPEG2; PAL 16:9 (720x576)Аудио #1: Dolby AC3, 6 ch, 384 KbpsRussianАудио #2: Dolby AC3, 6 ch, 384 KbpsEnglishСубтитры: русские, английские (SDH), украинские, литовские, латвийские, чешские, венгерские, эстонские, болгарские, греческиеВидео: Идентификатор : 224 (0xE0) Формат : MPEG Video Версия формата : Version 2 Профиль формата : [email protected] Параметр BVOP формата : Да Параметр матрицы формата : Выборочная Продолжительность : 26 м. Вид битрейта : Переменный Битрейт : 4459 Кбит/сек Максимальный битрейт : 8030 Кбит/сек Ширина : 720 пикселей Высота : 576 пикселей Соотношение сторон : 16:9 Частота кадров : 25,000 кадров/сек Стандарт вещания : PAL Цветовое пространство : YUV Субдискретизация насыщенности : 4:2:0 Битовая глубина : 8 бит Тип развёртки : Чересстрочная Порядок развёртки : Верхнее поле первое Метод сжатия : С потерями Бит/(Пиксели*Кадры) : 0.430 Размер потока : 856 Мбайт (84%)Аудио #1: Идентификатор : 189 (0xBD)-128 (0x80) Формат : AC-3 Формат/Информация : Audio Coding 3 Расширение режима : CM (complete main) Режим смешивания : DVD-Video Продолжительность : 26 м. Вид битрейта : Постоянный Битрейт : 384 Кбит/сек Каналы : 6 каналов Расположение каналов : Front: L C R, Side: L R, LFE Частота : 48,0 КГц Битовая глубина : 16 бит Метод сжатия : С потерями Размер потока : 73,7 Мбайт (7%)Аудио #2: Идентификатор : 189 (0xBD)-130 (0x82) Формат : AC-3 Формат/Информация : Audio Coding 3 Расширение режима : CM (complete main) Режим смешивания : DVD-Video Продолжительность : 26 м. Вид битрейта : Постоянный Битрейт : 384 Кбит/сек Каналы : 6 каналов Расположение каналов : Front: L C R, Side: L R, LFE Частота : 48,0 КГц Битовая глубина : 16 бит Метод сжатия : С потерями Размер потока : 73,7 Мбайт (7%) 4,37 Gb 4 3 26 января 2016 06:56 Немножко женаты / The Five-Year Engagement (2012) DVD9 от New-Team | лицензия .torrent   [Информация о файле (нажмите для просмотра)] Перевод: Профессиональный (полное дублирование) Субтитры: русский, английский (SDH), украинский, литовский, латвийский, чешский, венгерский, эстонский, болгарский, греческийКонтейнер: DVD-VideoВидео: PAL 16:9 (720x576) VBR 5641 Kbps, 25 fps, Auto LetterboxedАудио 1: Английский (Dolby AC3, 6 ch) 384 Kbps 48kHzАудио 2: Венгерский (Dolby AC3, 6 ch) 384 Kbps 48kHzАудио 3: Русский (Dolby AC3, 6 ch) 384 Kbps 48kHzАудио 4: Чешский (Dolby AC3, 6 ch) 384 Kbps 48kHz 6,9 Gb 2 2 26 января 2016 06:56 Немножко женаты / The Five-Year Engagement (2012) BDRip от HQCLUB | Лицензия .torrent   [Информация о файле (нажмите для просмотра)] Перевод: профессиональный (полное дубирование)Субтитры: русские (полные, форсированные), английские (SDH), украинские (полные, форсированные)Формат: AVIКачество: BDRip (источник:Видео: 704x384 (1.83:1), 23.976 fps, XviD build 65 ~2058 kbps avg, 0.32 bit/pixelАудио #1: 48 kHz, AC3 Dolby Digital, 3/2 (L,C,R,l,r) + LFE ch, ~448 kbps avg (RUS)Аудио #2: 48 kHz, AC3 Dolby Digital, 3/2 (L,C,R,l,r) + LFE ch, ~448 kbps avg (ENG)(отдельно) 2,18 Gb 30 1 26 января 2016 06:56 Немножко женаты / The Five-Year Engagement (2012) HDRip от Scarabey | Расширенная версия / UNRATED .torrent   [Информация о файле (нажмите для просмотра)] Перевод: Профессиональный (полное дублирование) Качество: HDRipФормат: AVIВидео: 704x384 (1.83:1), 23.976 fps, XviD build 50 ~1381 kbps avg, 0.21 bit/pixelАудио: 48 kHz, AC3 Dolby Digital, 2/0 (L,R) ch, ~192.00 kbps avg 1,45 Gb 20 1 26 января 2016 06:56 Немножко женаты / The Five-Year Engagement (2012) BDRip-AVC 720р l Лицензия .torrent   [Информация о файле (нажмите для просмотра)] Субтитры: Русские (полные, фосированные), Английские (полные, форсированные)Качество: BDRip-AVC 720рФормат: MPEG-4Видео: 5106Кбит/сек,1280х694(16.9),в 25.000кадр/сек,AVC()(1Ref Frames) 4,84 Gb 6 4 26 января 2016 06:56 Немножко женаты / The Five-Year Engagement (2012) BDRip от HELLYWOOD | Лицензия .torrent   [Информация о файле (нажмите для просмотра)] Перевод: Профессиональный дублированный | ЛицензияСубтитры: Русские, Украинские, Английские(внешние, *.srt)Формат: AVIКачество: BDRip (источник: /Blu-Ray Disc /1080p) Видео: 704x384 (1.83:1), 23.976 fps, XviD build 65, 2057 kbps avg, 0.32 bit/pixelАудио #1: 48 kHz, AC3 Dolby Digital, 3/2 (L,C,R,l,r) + LFE ch, ~448 kbps|DUB|Аудио #2: 48 kHz, AC3 Dolby Digital, 3/2 (L,C,R,l,r) + LFE ch, ~448 kbps|ENG| 2,18 Gb 12 4 26 января 2016 06:56 Немножко женаты / The Five-Year Engagement (2012) HDRip от Scarabey | Расширенная версия / UNRATED .torrent   [Информация о файле (нажмите для просмотра)] Перевод: Профессиональный (полное дублирование) Качество: HDRipФормат: AVIВидео: 592x320 (1.85:1), 23.976 fps, XviD build 50 ~655 kbps avg, 0.14 bit/pixelАудио: 48 kHz, MPEG Layer 3, 2 ch, ~128.00 kbps avg 744,94 Mb 11 2 26 января 2016 06:55 Немножко женаты / The Five-Year Engagement (2012) BDRip 720p .torrent   [Информация о файле (нажмите для просмотра)] Перевод: Профессиональный (полное дублирование)ЛицензияКачество: BDRip 720pВидео: AVC, 1280x694 (16:9), 23.976 fps, 4 598 Kbps (0.216 bit/pixel)Аудио 1: DTS, 48.0 KHz, 6 ch, 755 Kbps, CBR| Russian |Аудио 2: DTS, 48.0 KHz, 6 ch, 1 510 Kbps, CBR| English |Субтитры: русские, украинские, английские 6,09 Gb 12 2 26 января 2016 06:55 Немножко женаты / The Five-Year Engagement (2012) HDRip от Scarabey | Лицензия .torrent   [Информация о файле (нажмите для просмотра)] Перевод: Профессиональный (полное дублирование) Качество: HDRipФормат: AVIВидео: 704x384 (1.83:1), 23.976 fps, XviD build 50 ~1468 kbps avg, 0.23 bit/pixelАудио: 48 kHz, AC3 Dolby Digital, 2/0 (L,R) ch, ~192.00 kbps avg 1,45 Gb 23 2 26 января 2016 06:55 Немножко женаты / The Five-Year Engagement (2012) HDRip от Scarabey | Лицензия .torrent   [Информация о файле (нажмите для просмотра)] Перевод: Профессиональный (полное дублирование) Качество: HDRipФормат: AVIВидео: 592x320 (1.85:1), 23.976 fps, XviD build 50 ~697 kbps avg, 0.15 bit/pixelАудио: 48 kHz, MPEG Layer 3, 2 ch, ~128.00 kbps avg 743,33 Mb 6 5 26 января 2016 06:55 Немножко женаты / The Five-Year Engagement (2012) HDRip .torrent   [Информация о файле (нажмите для просмотра)] Перевод: Профессиональный (полное дублирование)ЛицензияКачество: HDRipВидео: 640x352 (1.82:1), 23.976 fps, XviD build 50 ~645 kbps avg, 0.12 bit/pixelАудио: 48 kHz, MPEG Layer 3, 2 ch, ~128.00 kbps avg 696,89 Mb 2 4 26 января 2016 06:55 Немножко женаты / The Five-Year Engagement (2012) HDRip | UNRATED .torrent   [Информация о файле (нажмите для просмотра)] Перевод: Профессиональный (полное дублирование)ЛицензияКачество: HDRipВидео: 720x384 (1.88:1), 23.976 fps, XviD build 64 ~1444 kbps avg, 0.21 bit/pixelАудио #1: 48 kHz, AC3 Dolby Digital, 3/2 (L,C,R,l,r) + LFE ch, ~448.00 kbps avg| Russian | DUBАудио #2: 48 kHz, AC3 Dolby Digital, 3/2 (L,C,R,l,r) + LFE ch, ~448.00 kbps avg| English | OriginalСубтитры: Русские, английские 2,16 Gb 2 5 26 января 2016 06:55 Немножко женаты / The Five-Year Engagement (2012) HDRip | Лицензия .torrent   [Информация о файле (нажмите для просмотра)] Формат: AVI (XviD)Качество: HDRipВидео: 1221 kb/s, 720x384Аудио: AC3, 448 kb/s (6 ch) 1,46 Gb 13 2 26 января 2016 06:55 Немножко женаты / The Five-Year Engagement (2012) HDRip | Лицензия .torrent   [Информация о файле (нажмите для просмотра)] Формат: AVI (XviD)Качество: HDRipВидео: 1904 kb/s, 720x384Аудио: AC3, 448 kb/s (6 ch) 2,05 Gb 24 10

gig-torrent.net

Скачать фильм Немножко женаты через торрент в хорошем качестве бесплатно BDRip

Размер: 2.18 GB | Добавлен: 5 лет 1 мес. назад | Торрент скачан:726 раз
Реклама Дарим 3000 рублей за регистрацию, не упусти свой шанс получить шикарный бонус!!!

14-09-2012 14:16 Немножко женаты Скачать торрент  

Немножко женаты / The Five-Year Engagement

Год выпуска: 2012Страна: СШАЖанр: мелодрама, комедияПродолжительность: 02:04:27Перевод: Дубляж, Лицензия Оригинал (Отдельно)

Субтитры: Русские, Украинские, Английские (внешние, *.srt)Режиссер: Николас Столлер / Nicholas StollerВ ролях: Джейсон Сигел, Эмили Блант, Крис Прэтт, Элисон Бри, Лоурен Уидман, Мими Кеннеди, Дэвид Пэймер, Джеки Уивер, Джим Пиддок, Эрик КуперОписание: Он — предложил, она — согласилась! Казалось бы, дело в шляпе — почти женаты. Но свадьба становится невыполнимой миссией, когда в дело вступает отряд бывших подружек жениха, босс невесты, трещащий по швам список гостей и престарелые родственники, имеющие тенденцию умирать в самый неподходящий момент. И вроде бы немножко женаты, но все как-то не до конца…Качество: BDRip (источник: /Blu-Ray Disc /1080p) Формат: AVIВидео кодек: XviDАудио кодек: AC3Видео:704x384, 23.976 fps, XviD build 65, 2052 kbps avg, 0.32 bit/pixelАудио #1: 48 kHz, AC3 Dolby Digital, 3/2 (L,C,R,l,r) + LFE ch, ~448 kbps |DUB|Аудио #2: 48 kHz, AC3 Dolby Digital, 3/2 (L,C,R,l,r) + LFE ch, ~448 kbps |ENG| (отдельным файлом на narod.ru) Автор рипа: VOLKiGORОбщееПолное имя : D:\Торенты\Nemnozhko.zhenaty.2012.RUS.BDRip.XviD.AC3.-HELLYWOOD\Nemnozhko.zhenaty.2012.RUS.BDRip.XviD.AC3.-HELLYWOOD.aviФормат : AVIФормат/Информация : Audio Video InterleaveПрофиль формата : OpenDMLРазмер файла : 2,18 ГбайтПродолжительность : 2 ч. 4 м.Общий поток : 2512 Кбит/секНазвание фильма : Немножко женаты / The Five-Year Engagement (2012) BDRipРежиссёр : VOLKiGORПрограмма кодирования : VirtualDubMod 1.5.10.2 (build 2540/release)

ВидеоИдентификатор : 0Формат : MPEG-4 VisualПрофиль формата : Advanced [email protected]Параметр BVOP формата : 2Параметр QPel формата : НетПараметр GMC формата : Без точки переходаПараметр матрицы формата : ВыборочнаяИдентификатор кодека : XVIDИдентификатор кодека/Подсказка : XviDПродолжительность : 2 ч. 4 м.Битрейт : 2052 Кбит/секШирина : 704 пикс.Высота : 384 пикс.Соотношение сторон : 16:9Частота кадров : 23,976 кадр/секЦветовое пространство : YUVПодвыборка цветности : 4:2:0Битовая глубина : 8 битТип развёртки : ПрогрессивнаяМетод сжатия : С потерямиБит/(Пиксели*Кадры) : 0.317Размер потока : 1,78 Гбайт (82%)Библиотека кодирования : XviD 65

АудиоИдентификатор : 1Формат : AC-3Формат/Информация : Audio Coding 3Расширение режима : CM (complete main)Идентификатор кодека : 2000Продолжительность : 2 ч. 4 м.Вид битрейта : ПостоянныйБитрейт : 448 Кбит/секКаналы : 6 каналовРасположение каналов : Front: L C R, Side: L R, LFEЧастота : 48,0 КГцБитовая глубина : 16 битМетод сжатия : С потерямиРазмер потока : 398 Мбайт (18%)Выравнивание : Разделение по промежуткамПродолжительность промежутка : 42 мс. (1,00 видеокадр)Время предзагрузки промежутка : 500 ms

Скачать Немножко женаты через торрент http://i40.fastpic.ru/big/2012/0823/24/f8ffc5a9ca33130ae66826f81719df24.jpeg Скачать фильм Немножко женаты через торрент бесплантно в хорошем качестве Описание: Он — предложил, она — согласилась! Казалось бы, дело в шляпе — почти женаты. Но свадьба становится невыполнимой миссией, когда в ... 2012-09-14 14:16 5 10 1

Loading...

Loading...

Последний раз редактировалось: Ворон (2012-09-14 16:20), всего редактировалось 1 раз

Рекламный пират

14-09-2012 16:01 Немножко женаты Скачать торрент  

Дорогой пользователь! Огромная просьба, поблагодарите релизера, оцените раздачу и оставьте свои комментарий, если Вы скачали Немножко женаты через торрент бесплатно! Внесите свою лепту в развитие PiratBit!

Комментировать посты могут только пользователи прошедшие не сложную регистрацию

Немножко женаты через торрент Скачать бесплатно Немножко женаты Немножко женаты скачать торрент Немножко женаты смотреть онлайн Cкачать фильм Немножко женаты бесплатно Немножко женаты скачать торрент в хорошем качестве Немножко женаты смотреть онлайн бесплатно в хорошем качестве

Вы не можете начинать темыВы не можете отвечать на сообщенияВы не можете редактировать свои сообщенияВы не можете удалять свои сообщенияВы не можете голосовать в опросахВы не можете прикреплять файлы к сообщениямВы можете скачивать файлы

piratbit.ru

Скачать фильм Немножко женаты через торрент в хорошем качестве бесплатно 720p

GeneralUnique ID : 221409492496791289303623313948738389740 (0xA691EACACF06CDB59C2B89FA4B1506EC)Complete name : E:\Nemnozhko.zhenaty.2012.D.BDRip.720p.IRONCLUB.mkvFormat : MatroskaFormat version : Version 2File size : 6.09 GiBDuration : 2h 4mnOverall bit rate : 7 002 KbpsMovie name : IRONCLUBEncoded date : UTC 2012-09-12 10:55:55Writing application : mkvmerge v4.9.1 ('Ich will') сборка от Jul 11 2011 23:53:15Writing library : libebml v1.2.1 + libmatroska v1.1.1

VideoID : 1Format : AVCFormat/Info : Advanced Video CodecFormat profile : [email protected] settings, CABAC : YesFormat settings, ReFrames : 9 framesCodec ID : V_MPEG4/ISO/AVCBit rate : 4 598 KbpsWidth : 1 280 pixelsHeight : 694 pixelsDisplay aspect ratio : 1.85:1Frame rate mode : VariableOriginal frame rate : 23.976 fpsColor space : YUVChroma subsampling : 4:2:0Bit depth : 8 bitsScan type : ProgressiveTitle : The Five-Year Engagement 2012 720p BluRay DTS x264-IRONCLUBWriting library : x264 core 125 r2200 999b753Encoding settings : cabac=1 / ref=9 / deblock=1:-3:-3 / analyse=0x3:0x113 / me=umh / subme=11 / psy=1 / psy_rd=1.20:0.00 / mixed_ref=1 / me_range=32 / chroma_me=1 / trellis=2 / 8x8dct=1 / cqm=0 / deadzone=21,11 / fast_pskip=0 / chroma_qp_offset=-2 / threads=12 / lookahead_threads=2 / sliced_threads=0 / nr=0 / decimate=1 / interlaced=0 / bluray_compat=0 / constrained_intra=0 / bframes=9 / b_pyramid=2 / b_adapt=2 / b_bias=0 / direct=3 / weightb=1 / open_gop=0 / weightp=2 / keyint=250 / keyint_min=23 / scenecut=40 / intra_refresh=0 / rc_lookahead=40 / rc=crf / mbtree=0 / crf=17.0 / qcomp=0.60 / qpmin=10 / qpmax=69 / qpstep=4 / vbv_maxrate=50000 / vbv_bufsize=62500 / crf_max=0.0 / nal_hrd=none / ip_ratio=1.40 / pb_ratio=1.30 / aq=1:1.00Language : EnglishDefault : YesForced : YesMatrix coefficients : BT.709

Audio #1ID : 2Format : DTSFormat/Info : Digital Theater SystemsCodec ID : A_DTSDuration : 2h 4mnBit rate mode : ConstantBit rate : 755 KbpsChannel(s) : 6 channelsChannel positions : Front: L C R, Side: L R, LFESampling rate : 48.0 KHzBit depth : 24 bitsCompression mode : LossyStream size : 672 MiB (11%)Title : DTS 5.1 @ 768 kbps - Dub, BD CEELanguage : RussianDefault : YesForced : Yes

Audio #2ID : 3Format : DTSFormat/Info : Digital Theater SystemsCodec ID : A_DTSDuration : 2h 4mnBit rate mode : ConstantBit rate : 1 510 KbpsChannel(s) : 6 channelsChannel positions : Front: L C R, Side: L R, LFESampling rate : 48.0 KHzBit depth : 24 bitsCompression mode : LossyStream size : 1.31 GiB (22%)Title : DTS 5.1 @ 1536 kbpsLanguage : EnglishDefault : NoForced : No

Text #1ID : 4Format : UTF-8Codec ID : S_TEXT/UTF8Codec ID/Info : UTF-8 Plain TextTitle : ForcedLanguage : RussianDefault : NoForced : No

Text #2ID : 5Format : UTF-8Codec ID : S_TEXT/UTF8Codec ID/Info : UTF-8 Plain TextLanguage : RussianDefault : NoForced : No

Text #3ID : 6Format : UTF-8Codec ID : S_TEXT/UTF8Codec ID/Info : UTF-8 Plain TextLanguage : UkrainianDefault : NoForced : No

Text #4ID : 7Format : UTF-8Codec ID : S_TEXT/UTF8Codec ID/Info : UTF-8 Plain TextTitle : SDHLanguage : EnglishDefault : NoForced : No

Menu00:00:00.000 : en:00:00:00.00000:06:55.373 : en:00:06:55.37300:12:23.617 : en:00:12:23.61700:17:45.773 : en:00:17:45.77300:23:14.476 : en:00:23:14.47600:29:03.658 : en:00:29:03.65800:34:46.626 : en:00:34:46.62600:39:08.387 : en:00:39:08.38700:44:46.892 : en:00:44:46.89200:50:13.844 : en:00:50:13.84400:56:20.293 : en:00:56:20.29301:02:18.484 : en:01:02:18.48401:09:24.118 : en:01:09:24.11801:17:04.161 : en:01:17:04.16101:23:15.573 : en:01:23:15.57301:31:34.739 : en:01:31:34.73901:39:33.926 : en:01:39:33.92601:44:52.244 : en:01:44:52.24401:49:51.668 : en:01:49:51.66801:56:54.382 : en:01:56:54.382

piratbit.ru

Немножко женаты скачать через торрент » Торрент Кино

------------------------------------------Фильм построен по типичной ромкомовской канве: Влюбленная пара-«Мы вместе до конца!»- Проблемы- Решение расстаться с непременной фразой:«Мы слишком разные»- Осознание обоими героями, что лучше своего экс-партнера им не найти-Торжественное воссоединение- «Теперь мы точно вместе до самого конца!». И все счастливы, и в конце поцелуйчики и радостное пение. Навевает тоску? Ещё как!

Давно хотелось посмотреть «Немножко женаты» и из-за участия любимой актрисы Эмили Блант, ну и просто потому, что я ожидала увидеть хорошую комедию. Ничего не имею против качественных, действительно душевных (и смешных!) ромкомов, но в данном случае нам просто подкинули мелодраму в чистом виде. Все возможные шутки, которые планировались создателями фильма как комедийная составляющая, настолько затерты ('Ничего, переживут»-говорит жених о родственниках по поводу очередного откладывания свадьбы, а в следующей сцене кто-то из родни умирает) и даже вызывают жалость, что просто невозможно принять «Немножко женаты» за комедию. Максимум- фильм вызовет у вас пару улыбочек. Но это же катастрофически мало! Только добрый и милый конец, когда герои одновременно делают друг другу предложение и по-быстрому бегут жениться, оставит хорошее настроение и немного сгладит затянутость фильма. Хотя это уже постоянная тенденция современных американских ромкомов, в которых из десяти обычно достоин внимания и пересмотра только один. Хороших романтических комедий сейчас- на пересчет. И данный фильм в число лучших представителей жанра явно не входит.

Однако его можно посмотреть, всего один раз, вприкуску с ужином. В фильме идея лишь одна: ради семейного счастья необходимо идти на компромисс, чем-то даже жертвовать. Эту мысль «Немножко женаты» раскрывает просто идеально, так что молодым супружеским парам он прямо показан к совместному просмотру. Но, опять же, не факт, что один из зрителей не заскучает ещё на середине фильма.

Вывод: талантливые актеры на главных ролях- это ещё далеко не гарантия талантливо снятого фильма. Смотреть, конечно, можно, но это кино- стопроцентно одноразовое. На следующий день после просмотра вы не вспомните даже имен главных героев.------------------------------------------------------------------------------------Судя по всему, сценарист решил уделать Квентина Тарантино: если в «Криминальном чтиве» слово «F*ck» звучит 157 раз, то в «Немножко женаты» слова «прости» и «люблю» прозвучали как минимум не меньше. И что можно ожидать от фильма с таким обилием подобных слов? Правильно, фильм - сплошная слюнявость.

Том обовенчался на Виолетте, но то денег не хватает, то переезд, то пятое-десятое, в итоге до свадьбы все не доходит и не доходит. Оно и не мудрено - на протяжении всего фильма герои тупят все больше и больше: Том - типичный мямля, который по любому поводу извиняется и расшаркивается минут пять, Виолетта дико любит Тома и знает его как пять пальцев, но только в середине фильма до нее доходит, что с Томом что-то не то, и только ближе к концу она прям совсем понимает, что что-то определенно не то. В итоге полтора часа герои друг другу признаются в любви и жуют сопли и совершают кучу алогичных событий, и только последние минут пять начинает хоть какой-то драйв.

Очень много времени в фильме уделено родителям, но что у Тома, что у Виолетты они получились какие-то взбалмошные и ненатуральные. Остальных родственников (сестра Виолетты, муж сестры Виолетты - по совместительству коллега Тома) сценарист попытался описать максимально разнополюсными, чтобы сыграть на контрасте. В итоге вся эта мешанина второстепенных героев смотрится как винегрет в итальянском ресторане - совершенно не к месту.

Да и главные герои, если честно, тоже были не особо к месту, потому что таким людям место лишь на закрытом острове. Том (Дейсон Сигел) так натянуто играл лузера, что даже настоящие лузеры закидали бы его тухлыми помидорами. Виолетта (Эмили Блант) - ну на ее лице вообще сложно понять хоть какие-то эмоции, она даже улыбается как-то странно.

Остальных актеров я вообще не знаю, но кинопоиск дал наводку - нигде, кроме сериалов, большинство из них до этого и не снималось. И слава б-гу, знаете ли.

В общем и целом, два невероятно долгих часа, за которые я успел три раза покурить, долго и мучительно рассказывали, как-де отношения портятся. Очень много фраз повторялось, половину сцен без ущерба для фильма можно было поскипать, и вообще было похоже, что сценарист хотел написать хорошо, но на двадцатой странице вдохновение закончилось и началось высасывание из пальца, иначе нечем объяснить такое обилие воды. И взять тот же «Руби Спаркс» для примера - фильм на полтора часа, и рассказано же примерно то же самое, но уровень фильма совершенно другой, при том, что фильмы имеют 15-кратную разницу в бюджете в пользу «Немножко женаты».

Единственное, что в этом фильме понравилось - концовка, ярко раскрывающая мысль о том, что у 93 процентов людей есть мечта, которую можно исполнить до конца недели, а они делают из нее мечту всей своей жизни. Но вопрос о том, зачем же ради этого два часа компостировать мозги зрителям невнятным жеванием соплей, так и остался без ответа.

Если бы я знал, что меня ждет, я бы начал просмотр с середины. А еще лучше посмотрел бы десять минут в начале и десять минут в конце, это было бы просто идеально: вот они пять лет мнутся-мнутся, а потом за пять минут оформляют свой брак. А так - почти два часа скукоты ради пяти минут драйва.------------------------------------------Свадьба длинною в жизнь...------------------------------------------Немножко женаты, смотрел на нон-стопе с девушкой. Пошли туда по сути, чтобы просто побыть вместе ну и посмотреть новинки кинопрома заодно. Этот фильм был первым. Фильм понравился. Это какая-то смесь комедии, с драмой порой доходящая до абсурда. Смотреть было интересно в первую очередь из-за того что история очень жизненная. Понравилась идея очень длинной предсвадьбы которая до церемонии могла бы и не дойти.

Очень порадовала главная идея фильма. Нельзя ставить свои интересы превыше всего.

Такая жизнь, в конечном счете, приведет к тому, что ты возненавидишь себя и все свое существование. И ещё дорогие дамы этот фильм очень хорошо показывает в кого превращаются мужчины если они становятся домохозяйками и это ужасно. Не надо так поступать, всегда можно найти компромисс. Единственно мне кажется, что они немного переборщили с этой охотой, а точнее с бородой главного героя. Это было лишнее.

Очень понравились моменты, когда они оба пытались сделать друг другу предложение. Особенно в конце, когда они выбирали все на ходу, было очень круто. Ещё очень хорошо обыграли то насколько долго все это длилось. «Подождем ещё немного, никто же не умирает» и умирающие по очереди родственники. Это конечно грустно но в данном контексте это выглядело очень смешно.

В общем, неплохой фильм для просмотра парой, но не семейный, детей пускать нельзя.

torrent-kino.org


Смотрите также