Напролом скачать торрент в хорошем качестве


Скачать фильм Напролом (2011) через торрент

gig-torrent.net

23 января 2016 14:55 Напролом / Lockout (2012) HDRip от NNM-CLUB | D, A | Unrated .torrent   [Информация о файле (нажмите для просмотра)] Перевод: Дублированный, авторский (одноголосый, закадровый) х5Субтитры: отсутствуютВидео: MPEG4, XviD, 720x304 (2.35:1), 23.976 fps, 1 546 Kbps (0.295 bit/pixel)Аудио #1: AC-3, 48.0 KHz, 2 ch, 160 Kbps, CBR - дубляжАудио #2: AC-3, 48.0 KHz, 2 ch, 160 Kbps, CBR - А.ГавриловАудио #3: AC-3, 48.0 KHz, 2 ch, 160 Kbps, CBR - М.ЯроцкийАудио #4: AC-3, 48.0 KHz, 2 ch, 160 Kbps, CBR - А.КарповскийАудио #5: AC-3, 48.0 KHz, 2 ch, 160 Kbps, CBR - А.ДольскийАудио #6: AC-3, 48.0 KHz, 2 ch, 160 Kbps, CBR - Ю.НемаховВидео: Идентификатор : 0 Формат : MPEG-4 Visual Профиль формата : Advanced [email protected] Параметр BVOP формата : 1 Параметр QPel формата : Нет Параметр GMC формата : Без точки перехода Параметр матрицы формата : Выборочная Идентификатор кодека : XVID Идентификатор кодека/Подсказка : XviD Продолжительность : 1 ч. 35 м. Битрейт : 1546 Кбит/сек Ширина : 720 пикселей Высота : 304 пикселя Соотношение сторон : 2,35:1 Частота кадров : 23,976 кадра/сек Цветовое пространство : YUV Субдискретизация насыщенности : 4:2:0 Битовая глубина : 8 бит Тип развёртки : Прогрессивная Метод сжатия : С потерями Бит/(Пиксели*Кадры) : 0.295 Размер потока : 1,03 Гбайт (61%) Библиотека кодирования : XviD 1.2.1 (UTC 2008-12-04)Аудио #1: Идентификатор : 1 Формат : AC-3 Формат/Информация : Audio Coding 3 Расширение режима : CM (complete main) Параметр Endianness формата : Big Идентификатор кодека : 2000 Продолжительность : 1 ч. 35 м. Вид битрейта : Постоянный Битрейт : 160 Кбит/сек Каналы : 2 канала Расположение каналов : Front: L R Частота : 48,0 КГц Битовая глубина : 16 бит Метод сжатия : С потерями Размер потока : 109 Мбайт (6%) Выравнивание : Разделение по промежуткам Продолжительность промежутка : 42 мс. (1,00 видеокадр) Время предзагрузки промежутка : 500 мс. Заголовок : ДубляжАудио #2: Идентификатор : 2 Формат : AC-3 Формат/Информация : Audio Coding 3 Расширение режима : CM (complete main) Параметр Endianness формата : Big Идентификатор кодека : 2000 Продолжительность : 1 ч. 35 м. Вид битрейта : Постоянный Битрейт : 160 Кбит/сек Каналы : 2 канала Расположение каналов : Front: L R Частота : 48,0 КГц Битовая глубина : 16 бит Метод сжатия : С потерями Размер потока : 109 Мбайт (6%) Выравнивание : Разделение по промежуткам Продолжительность промежутка : 42 мс. (1,00 видеокадр) Время предзагрузки промежутка : 500 мс. Заголовок : ГавриловАудио #3: Идентификатор : 3 Формат : AC-3 Формат/Информация : Audio Coding 3 Расширение режима : CM (complete main) Параметр Endianness формата : Big Идентификатор кодека : 2000 Продолжительность : 1 ч. 35 м. Вид битрейта : Постоянный Битрейт : 160 Кбит/сек Каналы : 2 канала Расположение каналов : Front: L R Частота : 48,0 КГц Битовая глубина : 16 бит Метод сжатия : С потерями Размер потока : 109 Мбайт (6%) Выравнивание : Разделение по промежуткам Продолжительность промежутка : 42 мс. (1,00 видеокадр) Время предзагрузки промежутка : 500 мс. Заголовок : ЯроцкийАудио #4: Идентификатор : 4 Формат : AC-3 Формат/Информация : Audio Coding 3 Расширение режима : CM (complete main) Параметр Endianness формата : Big Идентификатор кодека : 2000 Продолжительность : 1 ч. 35 м. Вид битрейта : Постоянный Битрейт : 160 Кбит/сек Каналы : 2 канала Расположение каналов : Front: L R Частота : 48,0 КГц Битовая глубина : 16 бит Метод сжатия : С потерями Размер потока : 109 Мбайт (6%) Выравнивание : Разделение по промежуткам Продолжительность промежутка : 42 мс. (1,00 видеокадр) Время предзагрузки промежутка : 500 мс. Заголовок : КарповскийАудио #5: Идентификатор : 5 Формат : AC-3 Формат/Информация : Audio Coding 3 Расширение режима : CM (complete main) Параметр Endianness формата : Big Идентификатор кодека : 2000 Продолжительность : 1 ч. 35 м. Вид битрейта : Постоянный Битрейт : 160 Кбит/сек Каналы : 2 канала Расположение каналов : Front: L R Частота : 48,0 КГц Битовая глубина : 16 бит Метод сжатия : С потерями Размер потока : 109 Мбайт (6%) Выравнивание : Разделение по промежуткам Продолжительность промежутка : 42 мс. (1,00 видеокадр) Время предзагрузки промежутка : 500 мс. Заголовок : ДольскийАудио #6: Идентификатор : 6 Формат : AC-3 Формат/Информация : Audio Coding 3 Расширение режима : CM (complete main) Параметр Endianness формата : Big Идентификатор кодека : 2000 Продолжительность : 1 ч. 35 м. Вид битрейта : Постоянный Битрейт : 160 Кбит/сек Каналы : 2 канала Расположение каналов : Front: L R Частота : 48,0 КГц Битовая глубина : 16 бит Метод сжатия : С потерями Размер потока : 109 Мбайт (6%) Выравнивание : Разделение по промежуткам Продолжительность промежутка : 42 мс. (1,00 видеокадр) Время предзагрузки промежутка : 500 мс. Заголовок : Немахов 1,69 Gb 105 5
23 января 2016 14:55 Напролом / Lockout (2012) BDRip 720p от NNNB | Расширенная версия | 60 fps .torrent   [Информация о файле (нажмите для просмотра)] Перевод: ДублированныйКачество: BDRip 720p (исходник Blu-ray Disc Remux)Видео: 1280x536, 5346 Кбит/сек, 59.940 кадр/сек, AVC, x264, [email protected], 2.40:1, 0.130 Бит/[Пиксели*Кадры]Аудио 1: AC-3, 448 Кбит/сек, 6 канала(ов), 48,0 КГц - Дублированный / РусскийАудио 2: AC-3, 448 Кбит/сек, 6 канала(ов), 48,0 КГц - Оригинал / АнглийскийСубтитры: Русские | Полные, Английские | Полные 4,24 Gb 125 5
23 января 2016 14:55 Напролом / Lockout (2012) BDRip-AVC от MediaClub | D, A | Unrated .torrent   [Информация о файле (нажмите для просмотра)] Перевод: Дублированный, авторскийКодек: x264Качество: BDRip-AVCВидео: MPEG-4 AVC, 1750 Кбит/с, 1024x428, 23.976 кадр/сЗвук: Аудио #1: Русский (AC3, 6 ch, 448 Кбит/с) / Дублированный (Blu-Ray) Аудио #2: Русский (AC3, 6 ch, 448 Кбит/с) / Авторский одноголосый (А.Карповский) Аудио #3: Украинский (AC3, 2 ch, 192 Кбит/с) / Дублированный (1+1) Аудио #4: Английский (AC3, 6 ch, 448 Кбит/с)Субтитры: Русский (Voronin), украинские (Д. Урсуляк), английский (SDH) 2,19 Gb 60 4
23 января 2016 14:55 Напролом / Lockout (2012) BDRip 720p от Leonardo and Scarabey | Лицензия | Расширенная версия .torrent   [Информация о файле (нажмите для просмотра)] Перевод: Профессиональный (полное дублирование) ЛицензияФормат: MKVВидео кодек: MPEG-4 AVC Аудио кодек: AC3Видео: AVC, 1280x536 (2.40:1) at 23.976 fps, AVC at 2608 kbps avg, 0.159 bit/pixelАудио: Russian: 48 kHz; AC3 5.1; 384.00 kbps avg; профессиональный, полное дублированиеСубтитры: Русские, английские 2,03 Gb 196 12
23 января 2016 14:46 Напролом / Lockout (2012) BDRip-AVC от HELLYWOOD | Расширенная версия .torrent   [Информация о файле (нажмите для просмотра)] Перевод: Профессиональный (полное дублирование)Субтитры: Русские (Voronine), английскиеКачество: BDRip-AVC [Lockout 2012 BluRay 1080p DTS-HD MA 5.1 AVC REMUX-FraMeSToR]Формат: MKVВидео: H.264, 1056x440 (2,40:1), 23.976 fps, 1810 Кbps, 0.162 bit/pixelАудио: 48 kHz, AC3 Dolby Digital, 3/2 (L,C,R,l,r) + LFE ch, 384.00 kbps 1,46 Gb 27 2
23 января 2016 14:46 Напролом / Lockout (2012) BDRip от Rulya74 | Расширенная версия .torrent   [Информация о файле (нажмите для просмотра)] Перевод: Дубляж (Blu-ray)+ Профессиональный (одноголосый закадровый - А.Карповский) + Оригинал (Английский)Кодек: XVIDКачество: BDRipВидео: 720х304 (2,35:1), 23.976 fps, 1713 kbps, 0.326 bit/pixelАудио#1: 48 kHz, AC3 5.1, 448.00 kbps / Дубляж (Русский)Аудио#2: 48 kHz, AC3 5.1 448.00 kbps / Профессиональный (одноголосый закадровый - А.Карповский)Аудио#3: 48 kHz, AC3 5.1, 448.00 kbps / Оригинал (Английский) 2,05 Gb 57 3
23 января 2016 14:46 Напролом / Lockout (2012) BDRip 1080p | Расширенная версия .torrent   [Информация о файле (нажмите для просмотра)] Перевод: ДублированныйКодек: H.264Качество: BDRip 1080Видео: MPEG-4 AVC, 13.3 Мбит/с, 1920x804Звук: Русский (DTS, 6 ch, 755 Кбит/с) английский (DTS, 6 ch, 1510 Кбит/с)Субтитры: Русские, английские 10,33 Gb 77 2
23 января 2016 14:46 Напролом / Lockout (2012) HDRip от Scarabey | Лицензия | Расширенная версия .torrent   [Информация о файле (нажмите для просмотра)] Перевод: ДубляжКодек: XviDКачество: HDRipВидео: 704x288 (2.44:1), 23.976 fps, XviD build 50 ~1719 kbps avg, 0.35 bit/pixelЗвук: 48 kHz, AC3 Dolby Digital, 3/2 (L,C,R,l,r) + LFE ch, ~448.00 kbps avgСубтитры: нет 1,45 Gb 162 5
23 января 2016 14:46 Напролом / Lockout (2011) BDRip от HELLYWOOD | Лицензия | Расширенная версия .torrent   [Информация о файле (нажмите для просмотра)] Перевод: Профессиональный (полное дублирование) -(Лицензия с Blu-Ray Rus)Субтитры: Русские, Английские (внешние, *.srt)Формат: AVIКачество: BDRip (источник: /Blu-Ray Remux/1080p) Видео: 720x304 (2.37:1), 23.976 fps, XviD build 65, 1723 kbps avg, 0.33 bit/pixelАудио #1: 48 kHz, AC3 Dolby Digital, 3/2 (L,C,R,l,r) + LFE ch, ~448 kbps|DUB|Аудио #2: 48 kHz, AC3 Dolby Digital, 3/2 (L,C,R,l,r) + LFE ch, ~448 kbps|ENG| 1,45 Gb 58 9
23 января 2016 14:46 Напролом / Lockout (2012) BDRip 1080p | Расширенная версия .torrent   [Информация о файле (нажмите для просмотра)] Перевод: Дублированный (лицензия)Кодек: x264Качество: BDRip (источник: Blu-ray Disc)Видео: 1920x800 (2,40:1), 23.976 fps, 7755 kbpsАудио #1: AC-3, 6 ch, 448 kbps (Rus)Аудио #2: AC-3, 6 ch, 448 kbps (Eng)Субтитры: Русские, АнглийскиеВидео: Идентификатор : 1 Формат : AVC Формат/Информация : Advanced Video Codec Профиль формата : [email protected] Параметр CABAC формата : Да Параметр ReFrames формата : 5 кадров Идентификатор кодека : V_MPEG4/ISO/AVC Продолжительность : 1 ч. 35 м. Битрейт : 7755 Кбит/сек Ширина : 1920 пикселей Высота : 800 пикселей Соотношение сторон : 2,40:1 Частота кадров : 23,976 кадра/сек Цветовое пространство : YUV Субдискретизация насыщенности : 4:2:0 Битовая глубина : 8 бит Тип развёртки : Прогрессивная Бит/(Пиксели*Кадры) : 0.211 Размер потока : 5,05 Гбайт (88%) Заголовок : Release by AlexKa Библиотека кодирования : x264 core 125 r2200 999b753 Настройки программы : cabac=1 / ref=5 / deblock=1:-3:-3 / analyse=0x3:0x133 / me=umh / subme=10 / psy=1 / psy_rd=1.00:0.10 / mixed_ref=1 / me_range=32 / chroma_me=1 / trellis=2 / 8x8dct=1 / cqm=0 / deadzone=21,11 / fast_pskip=0 / chroma_qp_offset=-3 / threads=12 / lookahead_threads=2 / sliced_threads=0 / nr=0 / decimate=0 / interlaced=0 / bluray_compat=0 / constrained_intra=0 / bframes=5 / b_pyramid=2 / b_adapt=2 / b_bias=0 / direct=3 / weightb=1 / open_gop=0 / weightp=2 / keyint=240 / keyint_min=23 / scenecut=40 / intra_refresh=0 / rc_lookahead=60 / rc=2pass / mbtree=1 / bitrate=7755 / ratetol=1.0 / qcomp=0.60 / qpmin=0 / qpmax=69 / qpstep=4 / cplxblur=20.0 / qblur=0.5 / ip_ratio=1.40 / aq=1:1.00 Язык : FrenchАудио #1: Идентификатор : 2 Формат : AC-3 Формат/Информация : Audio Coding 3 Расширение режима : CM (complete main) Идентификатор кодека : A_AC3 Продолжительность : 1 ч. 35 м. Вид битрейта : Постоянный Битрейт : 448 Кбит/сек Каналы : 6 каналов Расположение каналов : Front: L C R, Side: L R, LFE Частота : 48,0 КГц Битовая глубина : 16 бит Метод сжатия : С потерями Размер потока : 305 Мбайт (5%) Заголовок : Rus Язык : RussianАудио #2: Идентификатор : 3 Формат : AC-3 Формат/Информация : Audio Coding 3 Расширение режима : CM (complete main) Идентификатор кодека : A_AC3 Продолжительность : 1 ч. 35 м. Вид битрейта : Постоянный Битрейт : 448 Кбит/сек Каналы : 6 каналов Расположение каналов : Front: L C R, Side: L R, LFE Частота : 48,0 КГц Битовая глубина : 16 бит Метод сжатия : С потерями Размер потока : 305 Мбайт (5%) Заголовок : Eng Язык : English 5,76 Gb 221 21
23 января 2016 14:46 Напролом / Lockout (2012) DVD5 | Лицензия | Расширенная версия .torrent   [Информация о файле (нажмите для просмотра)] Перевод: Профессиональный (полное дублирование)Качество: DVD5 (сжатый)Формат: DVD VideoВидео: MPEG2; PAL 16:9 (720x576)Аудио #1: Dolby AC3, 6 ch, 448 KbpsRussianАудио #2: Dolby AC3, 6 ch, 256 KbpsEnglishСубтитры: русскиеВидео: Идентификатор : 224 (0xE0) Формат : MPEG Video Версия формата : Version 2 Профиль формата : [email protected] Параметр BVOP формата : Да Параметр матрицы формата : Выборочная Параметр GOP формата : M=3, N=15 Продолжительность : 21 м. Вид битрейта : Переменный Битрейт : 5689 Кбит/сек Максимальный битрейт : 8300 Кбит/сек Ширина : 720 пикселей Высота : 576 пикселей Соотношение сторон : 16:9 Частота кадров : 25,000 кадров/сек Стандарт вещания : PAL Цветовое пространство : YUV Субдискретизация насыщенности : 4:2:0 Битовая глубина : 8 бит Тип развёртки : Чересстрочная Порядок развёртки : Верхнее поле первое Метод сжатия : С потерями Бит/(Пиксели*Кадры) : 0.549 Размер потока : 893 Мбайт (87%)Аудио #1: Идентификатор : 189 (0xBD)-128 (0x80) Формат : AC-3 Формат/Информация : Audio Coding 3 Расширение режима : CM (complete main) Режим смешивания : DVD-Video Продолжительность : 21 м. Вид битрейта : Постоянный Битрейт : 448 Кбит/сек Каналы : 6 каналов Расположение каналов : Front: L C R, Side: L R, LFE Частота : 48,0 КГц Битовая глубина : 16 бит Метод сжатия : С потерями Размер потока : 70,3 Мбайт (7%)Аудио #2: Идентификатор : 189 (0xBD)-130 (0x82) Формат : AC-3 Формат/Информация : Audio Coding 3 Расширение режима : CM (complete main) Режим смешивания : DVD-Video Продолжительность : 21 м. Вид битрейта : Постоянный Битрейт : 256 Кбит/сек Каналы : 6 каналов Расположение каналов : Front: L C R, Side: L R, LFE Частота : 48,0 КГц Битовая глубина : 16 бит Метод сжатия : С потерями Размер потока : 40,2 Мбайт (4%) 4,35 Gb 1 4
23 января 2016 14:46 Напролом / Lockout (2012) BDRip | КПК от Generalfilm | Расширенная версия .torrent   [Информация о файле (нажмите для просмотра)] Качество: ВDRip | КПКВидео: кодеккодек: x264,формат: mp4,размер кадра: 480х200, битрейт: 350 кб/сАудио: языкрусский, перевод: Дублированный (дубляж), 327,19 Mb 72 5
23 января 2016 14:46 Напролом / Lockout (2012) DVD9 от New-Team | R5 | UNRATED | лицензия .torrent   6,84 Gb 1 5
23 января 2016 14:46 Напролом / Lockout (2012) BDRip-AVC от HQ-ViDEO | Лицензия | Расширенная версия .torrent   [Информация о файле (нажмите для просмотра)] Перевод: Профессиональный дублированный (Лицензия) + Английская дорожка (Отдельно)Субтитры: Русские, Английские |.srt|Видео: x.264 / 1032 x 432 / 2.40:1 / 1801 kbps / 23,976 fpsАудио 1: Русский / AC3 Dolby Digital / 48 KHz / 384 kbps / 3/2 (L,C,R,l,r) + LFE chАудио 2: Английский / AC3 Dolby Digital / 48 KHz / 384 kbps / 3/2 (L,C,R,l,r) + LFE ch| narod.ru 1,46 Gb 34 4
23 января 2016 14:46 Напролом / Lockout (2012) BDRip от HQ-ViDEO | Лицензия | Расширенная версия .torrent   [Информация о файле (нажмите для просмотра)] Перевод: Профессиональный дублированный (Лицензия) + Английская дорожка (Отдельно)Субтитры: Русские, Английские |.srt|Видео: XviD / 720 x 304 / 2.40:1 / 1792 kbps / 23,976 fpsАудио 1: Русский / AC3 Dolby Digital / 48 KHz / 384 kbps / 3/2 (L,C,R,l,r) + LFE chАудио 2: Английский / AC3 Dolby Digital / 48 KHz / 384 kbps / 3/2 (L,C,R,l,r) + LFE ch| narod.ru 1,46 Gb 23 3
23 января 2016 14:46 Напролом / Lockout (2012) BDRip-AVC от potroks | Лицензия | Расширенная версия .torrent   [Информация о файле (нажмите для просмотра)] Перевод: Профессиональный (полное дублирование) [лицензия]Субтитры: Русские (Voronine), английскиеКачество: BDRip-AVC [Lockout.2012.BluRay.1080p.DTS-HD.MA.5.1.AVC.REMUX-FraMeSToR]Формат: MKVВидео: H.264, 1056x440 (2,40:1), 23,976 кадр/сек, 2350 Кбит/сек, 0.211 bit/pixelАудио#1: 48 kHz, AC3 Dolby Digital, 3/2 (L,C,R,l,r) + LFE ch, ~448.00 kbps avg |RUSАудио#2: 48 kHz, AC3 Dolby Digital, 3/2 (L,C,R,l,r) + LFE ch, ~448.00 kbps avg |ENG 2,16 Gb 102 7
23 января 2016 14:46 Напролом / Lockout (2012) BDRip 1080p от DHT-Movies | UNRATED .torrent   [Информация о файле (нажмите для просмотра)] Перевод: Дубляж (Профессиональный[Лицензия R5]) + Оригинал (Английский)Субтитры: Русские UTF-8 (full)Качество: BDRip1080pФормат: MKVВидео: 1920x800/2.40:1/23.976 fps/8 452 Kbps/0.230 Bits/(Pixel*Frame) 6,22 Gb 12 2
23 января 2016 14:46 Напролом / Lockout (2012) HDRip от Scarabey | Лицензия | Расширенная версия .torrent   [Информация о файле (нажмите для просмотра)] Перевод: ДубляжКодек: XviDКачество: HDRipВидео: 704x288 (2.44:1), 23.976 fps, XviD build 50 ~956 kbps avg, 0.20 bit/pixelЗвук: 48 kHz, MPEG Layer 3, 2 ch, ~128.00 kbps avgСубтитры: нет 745,82 Mb 56 8
23 января 2016 14:45 Напролом / Lockout (2012) BDRip от HQCLUB | Лицензия | Расширенная версия .torrent   [Информация о файле (нажмите для просмотра)] Перевод: профессиональный (полное дублирование) R5Субтитры: русские (voronine), английские (внешние, srt*)Формат: AVIКачество: BDRip (источник:Видео: 720x304 (2.37:1), 23.976 fps, XviD build 72 ~1723 kbps avg, 0.33 bit/pixelАудио #1: 48 kHz, AC3 Dolby Digital, 3/2 (L,C,R,l,r) + LFE ch, ~448 kbps (RUS) |DUB - R5| Аудио #2: 48 kHz, AC3 Dolby Digital, 3/2 (L,C,R,l,r) + LFE ch, ~448 kbps (RUS)|VO - zamez|Аудио #3: 48 kHz, AC3 Dolby Digital, 3/2 (L,C,R,l,r) + LFE ch, ~448 kbps (ENG)|ORIGINAL| 1,45 Gb 353 12
23 января 2016 14:45 Напролом / Lockout (2012) BDRip 720p | UNRATED | Лицензия .torrent   [Информация о файле (нажмите для просмотра)] Перевод: Дублированный [лицензия]Формат: MKV (H.264)Качество: BDRip 720pВидео: 4600 kb/s, 1280x536Аудио: Russian: DTS, 768 kb/s (6 ch) / English: DTS, 1510 kb/s (6 ch)Субтитры: Russian, English 4,57 Gb 19 4
23 января 2016 14:45 Напролом / Lockout (2012) BD-Remux | Unrated .torrent   [Информация о файле (нажмите для просмотра)] Перевод: ДублированныйКодек: MPEG-4 AVCКачество: BD-Remux 1080, битрейт 24848 kbps 1080p / 23,976 fps / 16:9 / High Profile 4.1Звук: 1. DTS-HD Английский 5.1 48 kHz 4155 kbps 24-bit (DTS Core: 5.1 48 kHz 1509 kbps 24-bit) 2. DTS Русский 5.1 48 kHz 768 kbps 16-bit (Дублированный)Субтитры: Английские, Русские (Voronin) 20,97 Gb 16 6
23 января 2016 14:45 Напролом / Lockout (2012) HDRip | КПК от MultiBits .torrent   [Информация о файле (нажмите для просмотра)] Формат: MP4 (x264)Качество: HDRipВидео: 640x272, 970 Kb/sАудио: AAC, 128 Kb/s (2 ch) 749,97 Mb 6 3
23 января 2016 14:45 Напролом / Lockout (2012) HDRip 1080p | Трейлер .torrent   [Информация о файле (нажмите для просмотра)] Перевод: ДубляжФормат: MP4Качество: HDRip 1080pВидео: MPEG4 Video (h364) 1920x804 29.97fps 8 157 KbpsЗвук: AAC 48000Hz stereo 128kbps 140,63 Mb 7 2

Напролом 2012 - скачать бесплатно через торрент в хорошем качестве. Без регистрации

www.kinovit.net

Название: Напролом / Lockout (2012) BDRip-AVC от ExKinoRay | UNRATED | D
Качество видео: BDRip-AVC (Blu-Ray Remux 1080p)
Перевод: Профессиональный (полное дублирование)
Формат видео: MKV
Видео: MPEG-4 AVC, 768x320, ~ 1016 Кбит/с
Аудио: AAC-LC, 2 ch, ~ 76 Кбит/с
Скачать

Загрузка начнется в течение 5 сек.

745.91 MB

Название: Напролом / Lockout (2012) BDRip 720p от HELLYWOOD | Unrated | D, A, L1
Перевод: Дубляж [Blu-ray RUS], авторский (одноголосый), любительский (одноголосый)
Видео: AVC, 1280x536 (2,40:1), 5322 kbps, 24 fps, 0.323 bpp
Аудио: AC3 / 5.1 / 48 kHz / 640 kbps / 16 bit | DUB - Blu-ray RUSAC3 / 5.1 / 48 kHz / 640 kbps / 16 bit | А.ГавриловAC3 / 5.1 / 48 kHz / 640 kbps / 16 bit | А.ДольскийAC3 / 5.1 / 48 kHz / 640 kbps / 16 bit | Ю.НемаховAC3 / 5.1 / 48 kHz / 640 kbps / 16 bit | А.КарповскийAC3 / 5.1 / 48 kHz / 640 kbps / 16 bit | М.ЯроцкийAC3 / 5.1 / 48 kHz / 640 kbps / 16 bit | В.ЗамезAC3 / 5.1 / 48 kHz / 640 kbps / 16 bit | ENG
Скачать

Загрузка начнется в течение 5 сек.

6.95 GB

Название: Напролом / Lockout (2012) BDRip-HEVC 1080p | D
Качество видео: BDRip-HEVC 1080p
Перевод: Дубляж (Blu-Ray RUS)
Видео: HEVC 1920x804 at 23.976 fps, [email protected] [email protected]@Main, crf, ~6400 kbps avg
Аудио: Аудио#1: Russian: 48 kHz, AC3, 3/2 (L,C,R,l,r) + LFE ch, ~640.00 kbps avg
Скачать

Загрузка начнется в течение 5 сек.

5.12 GB

Название: Напролом / Lockout (2012) HDRip | D, A | Unrated
Качество видео: HDRip
Перевод: Дублированный, авторский (одноголосый, закадровый) х5
Видео: MPEG4, XviD, 720x304 (2.35:1), 23.976 fps, 1 546 Kbps (0.295 bit/pixel)
Аудио: AC-3, 48.0 KHz, 2 ch, 160 Kbps, CBR - дубляжAC-3, 48.0 KHz, 2 ch, 160 Kbps, CBR - А.ГавриловAC-3, 48.0 KHz, 2 ch, 160 Kbps, CBR - В.ЯроцкийAC-3, 48.0 KHz, 2 ch, 160 Kbps, CBR - А.КарповскийAC-3, 48.0 KHz, 2 ch, 160 Kbps, CBR - А.ДольскийAC-3, 48.0 KHz, 2 ch, 160 Kbps, CBR - Ю.Немахов
Скачать

Загрузка начнется в течение 5 сек.

1.69 GB

Название: Напролом / Lockout (2012) BDRip 720p от NNNB | Расширенная версия | 60 fps
Качество видео: BDRip 720p (исходник Blu-ray Disc Remux)
Перевод: Дублированный
Видео: 1280x536, 5346 Кбит/сек, 59.940 кадр/сек, AVC, x264, [email protected], 2.40:1, 0.130 Бит/[Пиксели*Кадры]
Аудио: AC-3, 448 Кбит/сек, 6 канала(ов), 48,0 КГц - Дублированный / РусскийAC-3, 448 Кбит/сек, 6 канала(ов), 48,0 КГц - Оригинал / Английский
Скачать

Загрузка начнется в течение 5 сек.

4.24 GB

Название: Напролом / Lockout (2012) HDRip-AVC | D
Качество видео: HDRip-AVC | BDRip 720p
Перевод: Профессиональный (полное дублирование)
Видео: x264 760x318 (2,35), 23,976 fps, ~1013 Kbps, 0.175 bit/pixel
Аудио: 48 KHz, HE-AAC, 2 ch, ~80 Kbps
Скачать

Загрузка начнется в течение 5 сек.

745.24 MB

Название: Напролом / Lockout (Unrated) 2012 BDRip-AVC от MediaClub | D, A
Качество видео: BDRip-AVC
Перевод: Дублированный, авторский
Видео: x264 MPEG-4 AVC, 1750 Кбит/с, 1024x428, 23.976 кадр/с
Аудио: Аудио #1: Русский (AC3, 6 ch, 448 Кбит/с) / Дублированный (Blu-Ray)
Скачать

Загрузка начнется в течение 5 сек.

2.19 GB

Название: Напролом / Lockout (2012) BDRip-AVC от HELLYWOOD | Расширенная версия
Перевод: Профессиональный (полное дублирование) лицензия
Формат видео: MKV
Видео: H.264, 1056x440 (2,40:1), 23.976 fps, 1810 Кbps, 0.162 bit/pixel
Аудио: 48 kHz, AC3 Dolby Digital, 3/2 (L,C,R,l,r) + LFE ch, 384.00 kbps
Скачать

Загрузка начнется в течение 5 сек.

1.46 GB

Название: Напролом / Lockout (2012) HDRip-AVC | Расширенная версия
Качество видео: HDRip-AVC [BDRip 720p]
Перевод: Профессиональный (полное дублирование)
Формат видео: MKV
Видео: H.264, 760x318 (2,35), 23,976 fps, ~1013 Kbps, 0.175 bit/pixel
Аудио: Русский: 48 KHz, HE-AAC, 2 ch, ~80 Kbps
Скачать

Загрузка начнется в течение 5 сек.

745.24 MB

Название: Напролом / Lockout (2012) BDRip от Rulya74 | Расширенная версия
Качество видео: BDRip
Перевод: Дубляж (Blu-ray)+ Профессиональный (одноголосый закадровый - А.Карповский) + Оригинал (Английский)
Видео: XVID 720х304 (2,35:1), 23.976 fps, 1713 kbps, 0.326 bit/pixel
Аудио: 48 kHz, AC3 5.1, 448.00 kbps / Дубляж (Русский)48 kHz, AC3 5.1 448.00 kbps / Профессиональный (одноголосый закадровый - А.Карповский)48 kHz, AC3 5.1, 448.00 kbps / Оригинал (Английский)
Скачать

Загрузка начнется в течение 5 сек.

2.05 GB

Название: Напролом / Lockout (2012) BDRip 1080p | Расширенная версия / Unrated Edition
Качество видео: BDRip 1080
Перевод: Дублированный
Видео: H.264 MPEG-4 AVC, 13.3 Мбит/с, 1920x804
Аудио: Русский (DTS, 6 ch, 755 Кбит/с)
Скачать

Загрузка начнется в течение 5 сек.

10.33 GB

Название: Напролом / Lockout (2012) HDRip от Scarabey | Лицензия | Расширенная версия / Unrated Edition
Качество видео: HDRip
Перевод: Дубляж
Видео: XviD 704x288 (2.44:1), 23.976 fps, XviD build 50 ~1719 kbps avg, 0.35 bit/pixel
Аудио: 48 kHz, AC3 Dolby Digital, 3/2 (L,C,R,l,r) + LFE ch, ~448.00 kbps avg
Скачать

Загрузка начнется в течение 5 сек.

1.45 GB

Название: Напролом / Lockout (2011) BDRip | Расширенная версия / Unrated Edition от HELLYWOOD | Лицензия
Качество видео: BDRip (источник: /Blu-Ray Remux/1080p)
Перевод: Профессиональный (полное дублирование) - (Лицензия с Blu-Ray Rus)
Формат видео: AVI
Видео: 720x304 (2.37:1), 23.976 fps, XviD build 65, 1723 kbps avg, 0.33 bit/pixel
Аудио: 48 kHz, AC3 Dolby Digital, 3/2 (L,C,R,l,r) + LFE ch, ~448 kbps |DUB|48 kHz, AC3 Dolby Digital, 3/2 (L,C,R,l,r) + LFE ch, ~448 kbps |ENG| (отдельным файлом на narod.ru)
Скачать

Загрузка начнется в течение 5 сек.

1.45 GB

Название: Напролом / Lockout [Unrated] (2012) BD-Remux 1080
Качество видео: BD-Remux 1080, битрейт 24848 kbps 1080p / 23,976 fps / 16:9 / High Profile 4.1
Перевод: Дублированный
Видео: MPEG-4 AVC
Аудио: 1. DTS-HD Английский 5.1 48 kHz 4155 kbps 24-bit (DTS Core: 5.1 48 kHz 1509 kbps 24-bit)
Скачать

Загрузка начнется в течение 5 сек.

20.97 GB

Название: Напролом / Lockout (2012) BDRip 1080p от R.G. GoldenShara | Лицензия
Качество видео: BDRip [1080p]
Перевод: Профессиональный (полное дублирование) [Лицензия]
Видео: 1920x800, 6175 Кбит/сек, 23,976 кадр/сек, AVC, x264, 2,40:1, 0.168 Бит/[Пиксели*Кадры], 2pass
Аудио: AC-3, 384 Кбит/сек, 6 канала(ов), 48,0 КГц
Скачать

Загрузка начнется в течение 5 сек.

4.37 GB

Название: Напролом / Lockout (2012) BDRip 720p от R.G. GoldenShara | Лицензия
Качество видео: BDRip [720p]
Перевод: Профессиональный (полное дублирование) [Лицензия]
Видео: 1280x528, 2901 Кбит/сек, 23,976 кадр/сек, AVC, x264, 2,40:1, 0.179 Бит/[Пиксели*Кадры], 2pass
Аудио: AC-3, 384 Кбит/сек, 6 канала(ов), 48,0 КГц
Скачать

Загрузка начнется в течение 5 сек.

2.19 GB

Название: Напролом / Lockout (2012) HDRip | КПК от MultiBits
Качество видео: HDRip
Перевод: Дублированное [лицензия]
Формат видео: MP4 (x264)
Видео: 640x272, 970 Kb/s
Аудио: AAC, 128 Kb/s (2 ch)
Скачать

Загрузка начнется в течение 5 сек.

749.97 MB

Название: Напролом / Lockout (2012) BDRip от HQ-ViDEO | Лицензия | Расширенная версия / Unrated Edition
Качество видео: BDRip | исх. Lockout 2012 1080p Blu-Ray AVC DTS-HD MA 5.1-HDChina
Перевод: Профессиональный дублированный (Лицензия) + Английская дорожка (Отдельно)
Видео: XviD / 720 x 304 / 2.40:1 / 1792 kbps / 23,976 fps
Аудио: Русский / AC3 Dolby Digital / 48 KHz / 384 kbps / 3/2 (L,C,R,l,r) + LFE chАнглийский / AC3 Dolby Digital / 48 KHz / 384 kbps / 3/2 (L,C,R,l,r) + LFE ch | narod.ru
Скачать

Загрузка начнется в течение 5 сек.

1.46 GB

Название: Напролом / Lockout (2012) DVD5 | Лицензия | Расширенная версия / Unrated Edition
Качество видео: DVD5 (сжатый)
Перевод: Профессиональный (полное дублирование)
Формат видео: DVD Video
Видео: MPEG2; PAL 16:9 (720x576)
Аудио: Dolby AC3, 6 ch, 448 Kbps RussianDolby AC3, 6 ch, 256 Kbps English
Скачать

Загрузка начнется в течение 5 сек.

4.35 GB

Название: Напролом / Lockout (2012) BDRip-AVC от potroks | Лицензия | Расширенная версия / Unrated Edition
Перевод: Профессиональный (полное дублирование) [лицензия]
Формат видео: MKV
Видео: H.264, 1056x440 (2,40:1), 23,976 кадр/сек, 2350 Кбит/сек, 0.211 bit/pixel
Аудио: 48 kHz, AC3 Dolby Digital, 3/2 (L,C,R,l,r) + LFE ch, ~448.00 kbps avg | RUS48 kHz, AC3 Dolby Digital, 3/2 (L,C,R,l,r) + LFE ch, ~448.00 kbps avg | ENG
Скачать

Загрузка начнется в течение 5 сек.

2.16 GB

Название: Напролом / Lockout (2012) BDRip-AVC от HQ-ViDEO | Лицензия | Расширенная версия / Unrated Edition
Качество видео: BDRip-AVC | исх. Lockout 2012 1080p Blu-Ray AVC DTS-HD MA 5.1-HDChina
Перевод: Профессиональный дублированный (Лицензия) + Английская дорожка (Отдельно)
Видео: x.264 / 1032 x 432 / 2.40:1 / 1801 kbps / 23,976 fps
Аудио: Русский / AC3 Dolby Digital / 48 KHz / 384 kbps / 3/2 (L,C,R,l,r) + LFE chАнглийский / AC3 Dolby Digital / 48 KHz / 384 kbps / 3/2 (L,C,R,l,r) + LFE ch | narod.ru
Скачать

Загрузка начнется в течение 5 сек.

1.46 GB

Название: Напролом / Lockout (2012) BDRip 1080p | Лицензия | Расширенная версия / Unrated Edition
Качество видео: BDRip (источник: Blu-ray Disc)
Перевод: Дублированный
Видео: x264 1920x800 (2,40:1), 23.976 fps, 7755 kbps
Аудио: AC-3, 6 ch, 448 kbps (Rus)AC-3, 6 ch, 448 kbps (Eng)
Скачать

Загрузка начнется в течение 5 сек.

5.76 GB

Название: Напролом / Lockout (2012) DVD9 от Youtracker | R5 | UNRATED
Перевод: Профессиональный (дублированный) Лицензия
Видео: PAL 16:9 (720x576) VBR ~ 5825 kbps, Auto Pan&Scan, Auto Letterboxed
Аудио: английский48 kHz, AC3, 6 ch, 256 kbps, русский48 kHz, DTS, 6 ch, 768 kbps, русский48 kHz, AC3, 6 ch, 256 kbps, английский
Скачать

Загрузка начнется в течение 5 сек.

6.84 GB

Название: Напролом / Lockout [Расширенная версия / Unrated Edition] (2012) BDRip | КПК от Generalfilm
Качество видео: ВDRip | КПК
Видео: кодек: x264, формат: mp4, размер кадра: 480х200, битрейт: 350 кб/с
Аудио: язык: русский, перевод: Дублированный (дубляж), кодек: AAC LC 2.0, битрейт: 128 кб/с
Скачать

Загрузка начнется в течение 5 сек.

327.19 MB

Название: Напролом / Lockout (2012) BDRip-AVC от potroks | Лицензия | Расширенная версия / Unrated Edition
Перевод: Профессиональный (полное дублирование) [лицензия]
Формат видео: MKV
Видео: H.264, 1056x440 (2,40:1), 23,976 кадр/сек, 1810 Кбит/сек, 0.162 bit/pixel
Аудио: 48 kHz, AC3 Dolby Digital, 3/2 (L,C,R,l,r) + LFE ch, ~448.00 kbps avg | RUS48 kHz, AC3 Dolby Digital, 3/2 (L,C,R,l,r) + LFE ch, ~448.00 kbps avg | ENG (narod.ru)
Скачать

Загрузка начнется в течение 5 сек.

1.50 GB

Название: Напролом / Lockout (2012) BDRip 1080p от DHT-Movies | UNRATED
Качество видео: BDRip 1080p | Lockout 2012 1080p UNRATED Blu-Ray Remux AVC DTS-HD MA 5.1-aZA
Перевод: Дубляж (Профессиональный[Лицензия R5]) + Оригинал (Английский)
Формат видео: MKV
Видео: H.264 1920x800/2.40:1/23.976 fps/8 452 Kbps/0.230 Bits/(Pixel*Frame)
Аудио: 48 kHz, AC3 Dolby Digital, 3/2 (L,C,R,l,r) + LFE ch, ~ 448 kbps avg | ( Дубляж)48 kHz, AC3 Dolby Digital, 3/2 (L,C,R,l,r) + LFE ch, ~ 448 kbps avg | (Оригинал)
Скачать

Загрузка начнется в течение 5 сек.

6.22 GB

Название: Напролом / Lockout (2012) HDRip от Scarabey | Лицензия | Расширенная версия / Unrated Edition
Качество видео: HDRip
Перевод: Дубляж
Видео: XviD 704x288 (2.44:1), 23.976 fps, XviD build 50 ~956 kbps avg, 0.20 bit/pixel
Аудио: 48 kHz, MPEG Layer 3, 2 ch, ~128.00 kbps avg
Скачать

Загрузка начнется в течение 5 сек.

745.82 MB

Название: Напролом / Lockout (2012) BDRip от HQCLUB | Лицензия | Расширенная версия / Unrated Edition
Качество видео: BDRip (источник: / Blu-ray / 1080p)
Перевод: профессиональный (полное дублирование) R5
Формат видео: AVI
Видео: 720x304 (2.37:1), 23.976 fps, XviD build 72 ~1723 kbps avg, 0.33 bit/pixel
Аудио: 48 kHz, AC3 Dolby Digital, 3/2 (L,C,R,l,r) + LFE ch, ~448 kbps (RUS) |DUB - R5|48 kHz, AC3 Dolby Digital, 3/2 (L,C,R,l,r) + LFE ch, ~448 kbps (RUS) |VO - zamez| (отдельно)48 kHz, AC3 Dolby Digital, 3/2 (L,C,R,l,r) + LFE ch, ~448 kbps (ENG) |ORIGINAL| (отдельно)
Скачать

Загрузка начнется в течение 5 сек.

1.45 GB

Название: Напролом / Lockout (2012) BDRip 720p | UNRATED | Лицензия
Качество видео: BDRip 720p
Перевод: Дублированный [лицензия]
Формат видео: MKV (H.264)
Видео: 4600 kb/s, 1280x536
Аудио: Russian: DTS, 768 kb/s (6 ch) / English: DTS, 1510 kb/s (6 ch)
Скачать

Загрузка начнется в течение 5 сек.

4.57 GB

Скачать фильм Напролом через торрент в хорошем качестве бесплатно BDRip

piratbit.ru

Размер: 1.46 GB | Добавлен: 5 лет 3 мес. назад | Торрент скачан:13458 раз
Реклама Дарим 3000 рублей за регистрацию, не упусти свой шанс получить шикарный бонус!!!

13-07-2012 09:01 Напролом Скачать торрент  

Напролом | Lockout«В одиночку против 500. В чем проблема?» Год выхода: 2012Выпущено: Франция | Europa Corp., Canal+Жанр: фантастика, боевик, триллерПродолжительность: 01:35:19Перевод: Профессиональный (полное дублирование) |Лицензия|Cубтитры: нетРежиссер:Джеймс Мэтер / James Mather, Стивен Ст. Леджер / Stephen St. LegerВ ролях:Гай Пирс (Snow), Мэгги Грэйс (Emilie Warnock), Винсент Риган (Alex), Джозеф Гилган (Hydell), Ленни Джеймс (Shaw), Петер Стормаре (Langral), Джеки Идо (Hock), Тим Плестер (Mace), Марк Танкерсли (Barnes), Энн-Соленн Хатте (Kathryn), Питер Хадсон (President Warnock), Ник Хардин (Hostage Negotiator)Описание:Отправиться в Космос, проникнуть в самую неприступную тюрьму во Вселенной, прорваться сквозь толпу взбунтовавшихся уголовников и вырвать из их лап дочь президента, пока орбитальная станция не рухнула на Землю. Это может только спецагент Сноу. Потому что он лучший. Потому что он… неуправляем.IMDB | КиноПоиск| Сэмпл|Качество: BDRip [Lockout 2012 1080p Blu-Ray AVC DTS-HD MA 5.1-HDChina]Формат: AVIВидео кодек: XviDАудио кодек: AC3Видео: 720x304 (2.37:1), 23.976 fps, XviD build 65 ~1730 kbps avg, 0.33 bit/pixelАудио: 48 kHz, AC3 Dolby Digital, 3/2 (L,C,R,l,r) + LFE ch, ~448.00 kbps avg Скачать Напролом через торрент http://i41.fastpic.ru/big/2012/0713/79/6ba9c401d63327a89f966221181ced79.png Скачать фильм Напролом через торрент бесплантно в хорошем качестве Описание:Отправиться в Космос, проникнуть в самую неприступную тюрьму во Вселенной, прорваться сквозь толпу взбунтовавшихся уголовников и ... 2012-07-13 09:01 9.8 10 18

Loading...

Loading...

Рекламный пират

13-07-2012 11:08 Напролом Скачать торрент  

14-07-2012 08:14 Напролом Скачать торрент  

Ну вот и дождася!

14-07-2012 10:04 Напролом Скачать торрент  

14-07-2012 10:59 Напролом Скачать торрент  

Сказка. А когда они из космоса на землю падали...

14-07-2012 11:08 Напролом Скачать торрент  

Люди,а реально BD чем лучше HD

14-07-2012 13:40 Напролом Скачать торрент  

Я вот одного не понимаю. С какого перепуга раздача пропускается?Релизер должен предоставить сравнение скриншотов. Чем рип лучше? Или Мы должны "хавать" то что написанно?Может я в чем то не прав? Наврядли...

Может это очередной повод не вешать мои раздачи в шапку?

14-07-2012 15:31 Напролом Скачать торрент  

inktorrentАдмин сам решает какую раздачу повесить в шапку, а какую нет, и не нужно предъявлять претензии мне, если Вам что то не нравится, пишите админу - DEVI, он вешает новинки на трекере !

14-07-2012 17:12 Напролом Скачать торрент  

Юху! Как же я этого ждал! Спасибо

Pекламный агент PB

14-07-2012 17:16 Напролом Скачать торрент  

Гай Пирс красава, но вот в начале фильма спецэфекты, где он на одноколёсном мапеде от погони уходит, выглядят конечно не айс. С космоса падали, это так вообще что то с чем то, кто это придумал? )))) А так фильм в принципе не плох, опять же повторюсь: Пирс красава, фильм вытянул!!!

14-07-2012 20:08 Напролом Скачать торрент  

к просмотру готов))) :hmmm

14-07-2012 20:14 Напролом Скачать торрент  

Фильм на разок,можно даже не смотреть,ни чего не потеряете.Под пивко можо поржать.Впечатлений ноль.

14-07-2012 21:16 Напролом Скачать торрент  

автору 5 баллов!

14-07-2012 21:30 Напролом Скачать торрент  

Фильм кроме улыбки и разочарования ничего не вызывает. Мог бы и обосновать легко, но ...

15-07-2012 08:49 Напролом Скачать торрент  

15-07-2012 08:55 Напролом Скачать торрент  

Такий ніштяч4ок фільм =D

15-07-2012 15:12 Напролом Скачать торрент  

КРУТОЙ ФИЛЬМ всем советаю а актер сыграл шикарно

Pекламный агент PB

15-07-2012 17:28 Напролом Скачать торрент  

Стандартное, комикс про героя и попавшую в беду девушку, слабоумие и отвага героизм и человеколюбие, спецэффекты. Пиво и орешки вам в помощь.

15-07-2012 17:33 Напролом Скачать торрент  

Фильм со стандартным сценарием о супер герое. Чувство юмора +5)!

15-07-2012 19:04 Напролом Скачать торрент  

фильм на 2-...раздающему+

15-07-2012 19:29 Напролом Скачать торрент  

Детский сад! То покакать не могут без разрешения Пентагона, то всех заключенных одним нажатием кнопки выпустили! Где у Вас мозги - режиссеры и сценаристы?

16-07-2012 07:12 Напролом Скачать торрент  

Фильм - "увидел и забыл". Так время убить, на троечку......

16-07-2012 15:32 Напролом Скачать торрент  

Я ожидал большего.Сюжет слегка лекомысленный

16-07-2012 16:53 Напролом Скачать торрент  

16-07-2012 17:46 Напролом Скачать торрент  

Micros1 писал(а):

Как звук???

звук лажа,написано лицензия а звук тс,админ куда ты только смотришь?!

Pекламный агент PB

Дорогой пользователь! Огромная просьба, поблагодарите релизера, оцените раздачу и оставьте свои комментарий, если Вы скачали Напролом через торрент бесплатно! Внесите свою лепту в развитие PiratBit!

Комментировать посты могут только пользователи прошедшие не сложную регистрацию

Напролом через торрент Скачать бесплатно Напролом Напролом скачать торрент Напролом смотреть онлайн Cкачать фильм Напролом бесплатно Напролом скачать торрент в хорошем качестве Напролом смотреть онлайн бесплатно в хорошем качестве

Вы не можете начинать темыВы не можете отвечать на сообщенияВы не можете редактировать свои сообщенияВы не можете удалять свои сообщенияВы не можете голосовать в опросахВы не можете прикреплять файлы к сообщениямВы можете скачивать файлы

Скачать фильм Напролом через торрент в хорошем качестве бесплатно 1080p / Расширенная версия

Общее

Уникальный идентификатор : 242055891275521688717299254097129320946 (0xB61A44D8174B190B9D61AE92CF0D31F2)

Полное имя : Lockout.2012.BDRip.1080p.Rus.Eng.mkv

Формат : Matroska

Версия формата : Version 2

Размер файла : 5,76 Гбайт

Продолжительность : 1 ч. 35 м.

Общий поток : 8651 Кбит/сек

Название фильма : Напролом / Lockout (2012)

Дата кодирования : UTC 2012-07-14 07:43:56

Программа кодирования : mkvmerge v5.5.0 ('Healer') built on Apr 6 2012 21:43:24

Библиотека кодирования : libebml v1.2.3 + libmatroska v1.3.0

Видео

Идентификатор : 1

Формат : AVC

Формат/Информация : Advanced Video Codec

Профиль формата : [email protected]

Параметр CABAC формата : Да

Параметр ReFrames формата : 5 кадров

Идентификатор кодека : V_MPEG4/ISO/AVC

Продолжительность : 1 ч. 35 м.

Битрейт : 7755 Кбит/сек

Ширина : 1920 пикселей

Высота : 800 пикселей

Соотношение сторон : 2,40:1

Частота кадров : 23,976 кадра/сек

Цветовое пространство : YUV

Субдискретизация насыщенности : 4:2:0

Битовая глубина : 8 бит

Тип развёртки : Прогрессивная

Бит/(Пиксели*Кадры) : 0.211

Размер потока : 5,05 Гбайт (88%)

Заголовок : Release by AlexKa

Библиотека кодирования : x264 core 125 r2200 999b753

Настройки программы : cabac=1 / ref=5 / deblock=1:-3:-3 / analyse=0x3:0x133 / me=umh / subme=10 / psy=1 / psy_rd=1.00:0.10 / mixed_ref=1 / me_range=32 / chroma_me=1 / trellis=2 / 8x8dct=1 / cqm=0 / deadzone=21,11 / fast_pskip=0 / chroma_qp_offset=-3 / threads=12 / lookahead_threads=2 / sliced_threads=0 / nr=0 / decimate=0 / interlaced=0 / bluray_compat=0 / constrained_intra=0 / bframes=5 / b_pyramid=2 / b_adapt=2 / b_bias=0 / direct=3 / weightb=1 / open_gop=0 / weightp=2 / keyint=240 / keyint_min=23 / scenecut=40 / intra_refresh=0 / rc_lookahead=60 / rc=2pass / mbtree=1 / bitrate=7755 / ratetol=1.0 / qcomp=0.60 / qpmin=0 / qpmax=69 / qpstep=4 / cplxblur=20.0 / qblur=0.5 / ip_ratio=1.40 / aq=1:1.00

Язык : French

Аудио #1

Идентификатор : 2

Формат : AC-3

Формат/Информация : Audio Coding 3

Расширение режима : CM (complete main)

Идентификатор кодека : A_AC3

Продолжительность : 1 ч. 35 м.

Вид битрейта : Постоянный

Битрейт : 448 Кбит/сек

Каналы : 6 каналов

Расположение каналов : Front: L C R, Side: L R, LFE

Частота : 48,0 КГц

Битовая глубина : 16 бит

Метод сжатия : С потерями

Размер потока : 305 Мбайт (5%)

Заголовок : Rus

Язык : Russian

Аудио #2

Идентификатор : 3

Формат : AC-3

Формат/Информация : Audio Coding 3

Расширение режима : CM (complete main)

Идентификатор кодека : A_AC3

Продолжительность : 1 ч. 35 м.

Вид битрейта : Постоянный

Битрейт : 448 Кбит/сек

Каналы : 6 каналов

Расположение каналов : Front: L C R, Side: L R, LFE

Частота : 48,0 КГц

Битовая глубина : 16 бит

Метод сжатия : С потерями

Размер потока : 305 Мбайт (5%)

Заголовок : Eng

Язык : English

Текст #1

Идентификатор : 4

Формат : UTF-8

Идентификатор кодека : S_TEXT/UTF8

Идентификатор кодека/Информация : UTF-8 Plain Text

Заголовок : Rus

Язык : Russian

Текст #2

Идентификатор : 5

Формат : UTF-8

Идентификатор кодека : S_TEXT/UTF8

Идентификатор кодека/Информация : UTF-8 Plain Text

Заголовок : Eng

Язык : English

Меню

00:00:00.000 : :Chapter 01

00:05:26.200 : :Chapter 02

00:10:16.991 : :Chapter 03

00:15:19.917 : :Chapter 04

00:22:28.972 : :Chapter 05

00:29:18.089 : :Chapter 06

00:35:32.839 : :Chapter 07

00:40:14.661 : :Chapter 08

00:45:55.919 : :Chapter 09

00:50:47.960 : :Chapter 10

00:55:28.575 : :Chapter 11

01:00:47.727 : :Chapter 12

01:05:55.868 : :Chapter 13

01:12:04.778 : :Chapter 14

01:17:49.289 : :Chapter 15

01:22:34.948 : :Chapter 16

piratbit.ru


Смотрите также