На игле 2 скачать торрент в хорошем качестве hd 1080


Скачать торрент Т2 Трейнспоттинг / На игле 2 / T2 Trainspotting (2017) BDRip 1080p от New-Team & qqss44

Мы "В КОНТАКТЕ"

Информация о фильмеНазвание: T2 Трейнспоттинг / На игле 2Оригинальное название: T2 TrainspottingГод выхода: 2017Жанр: ДрамаРежиссер: Дэнни БойлВ ролях: Эван МакГрегор, Юэн Бремнер, Джонни Ли Миллер, Роберт Карлайл, Кевин МакКидд, Кайл Фицпатрик, Келли Макдоналд, Анжела Недялкова, Полин Линч, Джеймс Космо

О фильме: Прошло двадцать лет. Рентон возвращается в единственное место, которое может считать своим домом. Они все ждут его: Кочерыжка, Кайфолом и Бегби. А вместе с ними другие старые знакомые: месть и страх, ненависть и любовь, дружба, сожаление и надежда. Все они выстроились в шеренгу, приветствуя Рентона, и он, кажется, готов к ним присоединиться

Страна: ВеликобританияСтудия: Cloud Eight Films, Creative Scotland, Decibel FilmsПродолжительность: 01:57:22Перевод: Дублированный || Лицензия ||

ФайлФормат: MKV, BDRip 1080pВидео: MPEG-4 AVC, 10900 Кбит/с, 1920x1038Aудио#1: [RUS] AC3 | 48 KHz | 5.1 (Front: L С R Side: L R) + LFE | ~640 kbpsAудио#2: [ENG] AC3 | 48 KHz | 5.1 (Front: L С R Side: L R) + LFE | ~640 kbpsСубтитры: русские (форсированные и полные), английские (форс. и полные)Релиз от:

МИ

Общее Уникальный идентификатор : 246231846202536318299876169711442203091 (0xB93E87516EE4E4A2BD348472920411D3) Полное имя : X:�0000T2.Trainspotting.(2017).BDRip.1080p.(qqss44).mkv Формат : Matroska Версия формата : Version 2 Размер файла : 9,98 Гбайт Продолжительность : 1 ч. 57 м. Общий поток : 12,2 Мбит/сек Название фильма : T2.Trainspotting.(2017).BDRip.1080p.(qqss44) Дата кодирования : UTC 2017-05-28 08:45:53 Программа кодирования : mkvmerge v5.8.0 ('No Sleep / Pillow') built on Sep 2 2012 15:37:04 Библиотека кодирования : libebml v1.2.3 + libmatroska v1.3.0

Видео Идентификатор : 1 Формат : AVC Формат/Информация : Advanced Video Codec Профиль формата : [email protected] Параметр CABAC формата : Да Параметр ReFrames формата : 5 кадров Идентификатор кодека : V_MPEG4/ISO/AVC Продолжительность : 1 ч. 57 м. Битрейт : 10,9 Мбит/сек Ширина : 1920 пикселей Высота : 1038 пикселей Соотношение сторон : 1,85:1 Режим частоты кадров : Постоянный Частота кадров : 23,976 (24000/1001) кадра/сек Цветовое пространство : YUV Субдискретизация насыщенности : 4:2:0 Битовая глубина : 8 бит Тип развёртки : Прогрессивная Бит/(Пиксели*Кадры) : 0.228 Размер потока : 8,73 Гбайт (87%) Заголовок : T2.Trainspotting.(2017).BDRip.1080p.(qqss44) Библиотека кодирования : x264 core 148 r2744kMod b97ae06 Настройки программы : cabac=1 / ref=5 / deblock=1:-3:-3 / analyse=0x3:0x113 / me=umh / subme=11 / psy=1 / fade_compensate=0.00 / psy_rd=1.00:0.00 / mixed_ref=1 / me_range=32 / chroma_me=1 / trellis=2 / 8x8dct=1 / cqm=0 / deadzone=21,11 / fast_pskip=0 / chroma_qp_offset=-2 / threads=12 / lookahead_threads=2 / sliced_threads=0 / nr=0 / decimate=0 / interlaced=0 / bluray_compat=0 / constrained_intra=0 / bframes=9 / b_pyramid=2 / b_adapt=2 / b_bias=0 / direct=3 / weightb=1 / open_gop=0 / weightp=2 / keyint=240 / keyint_min=23 / scenecut=40 / intra_refresh=0 / rc=2pass / mbtree=0 / bitrate=10890 / ratetol=1.0 / qcomp=0.69 / qpmin=0 / qpmax=69 / qpstep=4 / cplxblur=20.0 / qblur=0.5 / ip_ratio=1.40 / pb_ratio=1.30 / aq=3:0.80 Язык : English Default : Да Forced : Нет

Аудио #1 Идентификатор : 2 Формат : AC-3 Формат/Информация : Audio Coding 3 Расширение режима : CM (complete main) Параметр Endianness формата : Big Идентификатор кодека : A_AC3 Продолжительность : 1 ч. 57 м. Вид битрейта : Постоянный Битрейт : 640 Кбит/сек Каналы : 6 каналов Расположение каналов : Front: L C R, Side: L R, LFE Частота : 48,0 КГц Частота кадров : 31,250 кадров/сек (1536 spf) Метод сжатия : С потерями Размер потока : 537 Мбайт (5%) Заголовок : DUB | DD5.1 @ 640 kbps Язык : Russian Default : Да Forced : Нет

Аудио #2 Идентификатор : 3 Формат : AC-3 Формат/Информация : Audio Coding 3 Расширение режима : CM (complete main) Параметр Endianness формата : Big Идентификатор кодека : A_AC3 Продолжительность : 1 ч. 57 м. Вид битрейта : Постоянный Битрейт : 640 Кбит/сек Каналы : 6 каналов Расположение каналов : Front: L C R, Side: L R, LFE Частота : 48,0 КГц Частота кадров : 31,250 кадров/сек (1536 spf) Метод сжатия : С потерями Размер потока : 537 Мбайт (5%) Заголовок : Original | DD5.1 @ 640 kbps Язык : English Default : Нет Forced : Нет

Текст #1 Идентификатор : 4 Формат : UTF-8 Идентификатор кодека : S_TEXT/UTF8 Идентификатор кодека/Информация : UTF-8 Plain Text Заголовок : FORCED Язык : Russian Default : Да Forced : Нет

Текст #2 Идентификатор : 5 Формат : UTF-8 Идентификатор кодека : S_TEXT/UTF8 Идентификатор кодека/Информация : UTF-8 Plain Text Заголовок : FULL Язык : Russian Default : Нет Forced : Нет

Текст #3 Идентификатор : 6 Формат : UTF-8 Идентификатор кодека : S_TEXT/UTF8 Идентификатор кодека/Информация : UTF-8 Plain Text Заголовок : FORCED Язык : English Default : Нет Forced : Нет

Текст #4 Идентификатор : 7 Формат : UTF-8 Идентификатор кодека : S_TEXT/UTF8 Идентификатор кодека/Информация : UTF-8 Plain Text Заголовок : FULL Язык : English Default : Нет Forced : Нет

Меню 00:00:00.000 : en: 00:08:03.274 : en: 00:14:26.574 : en: 00:20:20.553 : en: 00:27:35.237 : en: 00:36:22.138 : en: 00:44:13.192 : en: 00:52:33.359 : en: 00:57:29.821 : en: 01:03:28.179 : en: 01:09:31.751 : en: 01:15:48.753 : en: 01:22:57.306 : en: 01:31:03.333 : en: 01:37:39.979 : en: 01:45:56.559 : en:

krutor.org

Скачать торрент Т2 Трейнспоттинг / На игле 2 / T2 Trainspotting (2017) Blu-ray EUR 1080p

Информация о фильмеНазвание: Т2 Трейнспоттинг / На игле 2Оригинальное название: T2 TrainspottingГод выхода: 2017Жанр: драмаРежиссер: Дэнни БойлВ ролях: Юэн МакГрегор, Юэн Бремнер, Джонни Ли Миллер, Роберт Карлайл, Кевин МакКидд, Кайл Фицпатрик, Келли Макдоналд, Анжела Недялкова, Полин Линч, Джеймс Космо

О фильме: Прошло двадцать лет. Рентон возвращается в единственное место, которое может считать своим домом. Они все ждут его: Кочерыжка, Кайфолом и Бегби. А вместе с ними другие старые знакомые: месть и страх, ненависть и любовь, дружба, сожаление и надежда. Все они выстроились в шеренгу, приветствуя Рентона, и он, кажется, готов к ним присоединиться.

Рейтинг R получают фильмы, в содержании которых обязательно содержится материал, предназначенный только для взрослой аудитории. Родителям рекомендуется хорошо подумать, прежде чем посмотреть такой фильм вместе со своими детьми. Фильм, получивший рейтинг R, скорее всего содержит сексуальные сцены, эпизоды с употреблением наркотиков, нецензурную брань, фрагменты с насилием и т.д.

Страна: ВеликобританияСтудия: Cloud Eight Films, Creative Scotland, Decibel FilmsПродолжительность: 01:57:22Перевод: Профессиональный (дублированный) Blu-ray EUR

ФайлФормат: BDMVКачество: Blu-ray 1080pВидео: MPEG-4 AVC Video 25049 kbps 1080p / 23,976 fps / 16:9 / High Profile 4.1Аудио#1: DTS-HD Master Audio English 1950 kbps 5.1 / 48 kHz / 1950 kbps / 16-bit (DTS Core: 5.1 / 48 kHz / 1509 kbps / 16-bit)Аудио#2: DTS-HD Master Audio German 2240 kbps 5.1 / 48 kHz / 2240 kbps / 16-bit (DTS Core: 5.1 / 48 kHz / 1509 kbps / 16-bit)Аудио#3: Dolby Digital Audio Russian 640 kbps 5.1 / 48 kHz / 640 kbpsАудио#4: Dolby Digital Audio Turkish 640 kbps 5.1 / 48 kHz / 640 kbpsАудио#5: Dolby Digital Audio English 192 kbps 2.0 / 48 kHz / 192 kbpsСубтитры: Английский, Датский, Эстонский, Финский, Немецкий, Латышский, Литовский, Норвежский, Русский, Шведский, Турецкий, Украинский

BDInfo

DISC INFO:

Disc Title: T2_TRAINSPOTTING_HDCLUB Disc Size: 38 552 748 038 bytes Protection: AACS BD-Java: Yes BDInfo: 0.5.8

PLAYLIST REPORT:

Name: 00001.MPLS Length: 1:57:22.035 (h:m:s.ms) Size: 29 385 590 784 bytes Total Bitrate: 33,38 Mbps

VIDEO:

Codec Bitrate Deion ----- ------- ----------- MPEG-4 AVC Video 25049 kbps 1080p / 23,976 fps / 16:9 / High Profile 4.1

AUDIO:

Codec Language Bitrate Deion ----- -------- ------- ----------- DTS-HD Master Audio English 1950 kbps 5.1 / 48 kHz / 1950 kbps / 16-bit (DTS Core: 5.1 / 48 kHz / 1509 kbps / 16-bit) DTS-HD Master Audio German 2240 kbps 5.1 / 48 kHz / 2240 kbps / 16-bit (DTS Core: 5.1 / 48 kHz / 1509 kbps / 16-bit) Dolby Digital Audio Russian 640 kbps 5.1 / 48 kHz / 640 kbps Dolby Digital Audio Turkish 640 kbps 5.1 / 48 kHz / 640 kbps Dolby Digital Audio English 192 kbps 2.0 / 48 kHz / 192 kbps

SUBTITLES:

Codec Language Bitrate Deion ----- -------- ------- ----------- Presentation Graphics English 40,132 kbps Presentation Graphics Danish 36,077 kbps Presentation Graphics Estonian 34,535 kbps Presentation Graphics Finnish 32,956 kbps Presentation Graphics German 40,204 kbps Presentation Graphics Latvian 32,971 kbps Presentation Graphics Lithuanian 36,860 kbps Presentation Graphics Norwegian 35,623 kbps Presentation Graphics Russian 42,418 kbps Presentation Graphics Swedish 31,827 kbps Presentation Graphics Turkish 37,935 kbps Presentation Graphics Ukrainian 37,945 kbps Presentation Graphics English 67,181 kbps Presentation Graphics German 62,611 kbps

Знаете ли вы, что...

  • Было заявлено, что фильм достаточно вольное переложение романа Ирвина Уэлша «Порно» (2002).
  • Появление Юэна МакГрегора в актёрском составе сиквела фильма «На игле» (1995) ознаменует его первую работу с Дэнни Бойлом после фантастической комедийной мелодрамы «Менее привычная жизнь», вышедшей на экраны в 1997 году. Актёр и режиссёр поссорились, когда последний пригласил на главную роль в мелодраматическом триллере «Пляж» (2000) не МакГрегора, а Леонардо ДиКаприо. Кроме того, это будет второй случай за актёрскую карьеру МакГрегора, когда он во второй раз появится на экране в одной и той же роли. Первым случаем стало исполнение роли Оби-Вана Кеноби в приквелах к оригинальной трилогии «Звёздные войны».
  • Рабочим названием фильма во время съёмок было «Порно».
  • Фильм является первым сиквелом Дэнни Бойла в качестве режиссера и вторым сиквелом в качестве продюсера (в 2007 году он спродюсировал «28 недель спустя» – продолжение своего фильма «28 дней спустя» (2002)). Он рассматривался на режиссерское кресло для четвертой части франшизы про Чужого (которая в итоге стала фильмом «Чужой 4: Воскрешение» (1997)), но Бойл отказался от этого проекта из-за творческих разногласий со студией и вместо этого снял «Менее привычную жизнь» (1997).
  • В январе 2009 году Дэнни Бойл заявил о своем желании сделать сиквел к своему фильму 1996 года «На игле». Сюжет должен был разворачиваться через 9 лет после событий в оригинале.
  • В своем интервью в мае 2014 года автор романов «На игле» и «Порно» Ирвин Уэлш заявил, что «мы [он и творческий коллектив, работающий над сиквелом] не хотим очернить наследие оригинального фильма, а хотим создать что-то свежее и современное».
  • В интервью в ноябре 2014 года Ирвин Уэлш рассказал, что МакГрегор и Бойл уладили все свои разногласия и начали встречаться по поводу съемок сиквела.
  • Непосредственная съемка фильма началась 10 марта 2016 года в Эдинбурге (Шотландия). Изначально съемки были намечены на май 2016 года.
  • krutor.org

    Скачать торрент Т2 Трейнспоттинг (2017) бесплатно в хорошем качестве HD 1080

    Скачал сам?! Дай скачать другим, не уходи с раздачи!!!

    «Торчи от чего-то большего»

    Информация о фильмеНазвание: Т2 Трейнспоттинг (На игле 2)Оригинальное название: T2 TrainspottingГод выхода: 2017Жанр: ДрамаРежиссер: Дэнни БойлВ ролях: Юэн МакГрегор, Юэн Бремнер, Джонни Ли Миллер, Роберт Карлайл, Кевин МакКидд, Кайл Фицпатрик, Келли Макдоналд, Анжела Недялкова, Полин Линч, Джеймс Космо

    О фильме: Т2 Трейнспоттинг (На игле 2) - сюжет фильма разворачивается по прошествии двадцати лет после событий первого фильма. В центре сюжета Рентон, который вернулся обратно в единственное место на земле, которое он смело может назвать своим домом. Они все ждут его: Кочерыжка, Кайфолом и Бегби. Но в компании с ними идут также старые добрые знакомые, такие как: месть и страх, ненависть и любовь, дружба, сожаление и надежда. Они буквально выстроились, чтобы поприветствовать Рентона и создается впечатление, что он согласен к ним присоединится...

    Страна: ВеликобританияСтудия: Cloud Eight Films, Creative Scotland, Decibel Films, DNA Films, Film4, TriStar PicturesПродолжительность: 01:57:22Перевод: Профессиональный (полное дублирование)[Blu-ray EUR]

    ФайлКачество: BDRip 1080pФормат: MKVКодек: MPEG-4 AVCВидео: 1920x1036 (1.85:1), 23,976 fps, MPEG-4 AVC ~ 14.9 Mbps avg, 0.311 bit/pixelАудио: АС3, 48 kHz, 6 ch, ~640.00 kbps avg | русский | Профессиональный (полное дублирование)Аудио: DTS, 48 kHz, 6 ch, ~1509.00 kbps avg | английский | Оригинал Аудио: АС3, 48 kHz, 2 ch, ~192.00 kbps avg | английский | Audio Commentary with Director Danny Boyle and Screenwriter John HodgeСубтитры: Russian (iTunes), Ukrainian (iTunes), English (Forced, iTunes), English (iTunes)Семпл

    ОбщееУникальный идентификатор : 234688033281805946101603602733955478441 (0xB08F4566114D969CA24A8C56F192F3A9)Полное имя : D:TorrentsЗавершенныеT2.Trainspotting.2017.1080p.BluRay.Rus.2xEng.HDCLUB.mkvФормат : MatroskaВерсия формата : Version 2Размер файла : 14,4 ГбайтПродолжительность : 1 ч. 57 м.Общий поток : 17,5 Мбит/секНазвание фильма : T2 Trainspotting (2017) - Release for HDCLUBДата кодирования : UTC 2017-05-27 22:00:56Программа кодирования : mkvmerge v3.4.0 ('Rapunzel') built on May 15 2010 09:38:20Библиотека кодирования : libebml v0.8.0 + libmatroska v0.9.0

    ВидеоИдентификатор : 1Формат : AVCФормат/Информация : Advanced Video CodecПрофиль формата : [email protected]Параметр CABAC формата : ДаПараметр ReFrames формата : 4 кадраИдентификатор кодека : V_MPEG4/ISO/AVCПродолжительность : 1 ч. 57 м.Битрейт : 14,9 Мбит/секШирина : 1920 пикселейВысота : 1036 пикселейСоотношение сторон : 1,85:1Режим частоты кадров : ПостоянныйЧастота кадров : 23,976 (24000/1001) кадра/секЦветовое пространство : YUVСубдискретизация насыщенности : 4:2:0Битовая глубина : 8 битТип развёртки : ПрогрессивнаяБит/(Пиксели*Кадры) : 0.311Размер потока : 12,2 Гбайт (85%)Заголовок : T2 Trainspotting (2017) - Release for HDCLUBБиблиотека кодирования : x264 core 148 r2744 b97ae06Настройки программы : cabac=1 / ref=4 / deblock=1:-3:-3 / analyse=0x3:0x133 / me=umh / subme=11 / psy=1 / psy_rd=1.00:0.00 / mixed_ref=1 / me_range=48 / chroma_me=1 / trellis=2 / 8x8dct=1 / cqm=0 / deadzone=21,11 / fast_pskip=0 / chroma_qp_offset=-2 / threads=18 / lookahead_threads=3 / sliced_threads=0 / nr=0 / decimate=1 / interlaced=0 / bluray_compat=0 / constrained_intra=0 / bframes=8 / b_pyramid=2 / b_adapt=2 / b_bias=0 / direct=1 / weightb=1 / open_gop=0 / weightp=2 / keyint=240 / keyint_min=23 / scenecut=40 / intra_refresh=0 / rc_lookahead=60 / rc=crf / mbtree=0 / crf=18.1 / qcomp=0.60 / qpmin=0 / qpmax=69 / qpstep=4 / vbv_maxrate=50000 / vbv_bufsize=62500 / crf_max=0.0 / nal_hrd=none / filler=0 / ip_ratio=1.35 / pb_ratio=1.25 / aq=1:0.80Язык : EnglishDefault : ДаForced : Нет

    Аудио #1Идентификатор : 2Формат : AC-3Формат/Информация : Audio Coding 3Параметр Endianness формата : BigИдентификатор кодека : A_AC3Продолжительность : 1 ч. 57 м.Вид битрейта : ПостоянныйБитрейт : 640 Кбит/секКаналы : 6 каналовРасположение каналов : Front: L C R, Side: L R, LFEЧастота : 48,0 КГцЧастота кадров : 31,250 кадров/сек (1536 spf)Битовая глубина : 16 битМетод сжатия : С потерямиРазмер потока : 537 Мбайт (4%)Заголовок : AC3 5.1 @ 640 kbps - DUB, Blu-ray EURЯзык : RussianDefault : ДаForced : Нет

    Аудио #2Идентификатор : 3Формат : DTSФормат/Информация : Digital Theater SystemsРежим : 16Параметр Endianness формата : BigИдентификатор кодека : A_DTSПродолжительность : 1 ч. 57 м.Вид битрейта : ПостоянныйБитрейт : 1509 Кбит/секКаналы : 6 каналовРасположение каналов : Front: L C R, Side: L R, LFEЧастота : 48,0 КГцЧастота кадров : 93,750 кадра/сек (512 spf)Битовая глубина : 24 битМетод сжатия : С потерямиРазмер потока : 1,24 Гбайт (9%)Заголовок : DTS 5.1 @ 1536 kbpsЯзык : EnglishDefault : НетForced : Нет

    Аудио #3Идентификатор : 4Формат : AC-3Формат/Информация : Audio Coding 3Параметр Endianness формата : BigИдентификатор кодека : A_AC3Продолжительность : 1 ч. 57 м.Вид битрейта : ПостоянныйБитрейт : 192 Кбит/секКаналы : 2 каналаРасположение каналов : Front: L RЧастота : 48,0 КГцЧастота кадров : 31,250 кадров/сек (1536 spf)Битовая глубина : 16 битМетод сжатия : С потерямиРазмер потока : 161 Мбайт (1%)Заголовок : AC3 2.0 @ 192 kbps - Audio Commentary with Director Danny Boyle and Screenwriter John HodgeЯзык : EnglishDefault : НетForced : Нет

    Текст #1Идентификатор : 5Формат : UTF-8Идентификатор кодека : S_TEXT/UTF8Идентификатор кодека/Информация : UTF-8 Plain TextЗаголовок : iTunesЯзык : RussianDefault : НетForced : Нет

    Текст #2Идентификатор : 6Формат : UTF-8Идентификатор кодека : S_TEXT/UTF8Идентификатор кодека/Информация : UTF-8 Plain TextЗаголовок : iTunesЯзык : UkrainianDefault : НетForced : Нет

    Текст #3Идентификатор : 7Формат : UTF-8Идентификатор кодека : S_TEXT/UTF8Идентификатор кодека/Информация : UTF-8 Plain TextЗаголовок : Forced, iTunesЯзык : EnglishDefault : НетForced : Нет

    Текст #4Идентификатор : 8Формат : UTF-8Идентификатор кодека : S_TEXT/UTF8Идентификатор кодека/Информация : UTF-8 Plain TextЗаголовок : iTunesЯзык : EnglishDefault : НетForced : Нет

    Меню00:00:00.000 : en:00:08:03.274 : en:00:14:26.574 : en:00:20:20.553 : en:00:27:35.237 : en:00:36:22.138 : en:00:44:13.192 : en:00:52:33.359 : en:00:57:29.821 : en:01:03:28.179 : en:01:09:31.751 : en:01:15:48.753 : en:01:22:57.306 : en:01:31:03.333 : en:01:37:39.979 : en:01:45:56.559 : en:

    Поиск торрент раздач, пожалуйста подождите!

    ufreetorrent.ru

    Т2 Трейнспоттинг / На игле 2 (2017) HD 1080p скачать торрент в хорошем качестве

    Информация о фильмеНазвание: Т2 Трейнспоттинг (На игле 2)Оригинальное название: T2 TrainspottingГод выхода: 2017Жанр: ДрамаРежиссер: Дэнни БойлВ ролях: Юэн МакГрегор, Юэн Бремнер, Джонни Ли Миллер, Роберт Карлайл, Кевин МакКидд, Кайл Фицпатрик, Келли Макдоналд, Анжела Недялкова, Полин Линч, Джеймс Космо

    О фильме: Прошло двадцать лет. Рентон возвращается в единственное место, которое может считать своим домом. Они все ждут его: Кочерыжка, Кайфолом и Бегби. А вместе с ними другие старые знакомые: месть и страх, ненависть и любовь, дружба, сожаление и надежда. Все они выстроились в шеренгу, приветствуя Рентона, и он, кажется, готов к ним присоединиться.

    Страна: ВеликобританияСтудия: Cloud Eight Films, Creative Scotland, Decibel Films, DNA Films, Film4, TriStar PicturesПродолжительность: 01:57:22Перевод: Профессиональный (полное дублирование)[Blu-ray EUR]

    ФайлКачество: BDRip 1080pФормат: MKVКодек: MPEG-4 AVCВидео: 1920x1036 (1.85:1), 23,976 fps, MPEG-4 AVC ~ 14.9 Mbps avg, 0.311 bit/pixelАудио: АС3, 48 kHz, 6 ch, ~640.00 kbps avg | русский | Профессиональный (полное дублирование)Аудио: DTS, 48 kHz, 6 ch, ~1509.00 kbps avg | английский | Оригинал Аудио: АС3, 48 kHz, 2 ch, ~192.00 kbps avg | английский | Audio Commentary with Director Danny Boyle and Screenwriter John HodgeСубтитры: Russian (iTunes), Ukrainian (iTunes), English (Forced, iTunes), English (iTunes)Семпл

    ОбщееУникальный идентификатор : 234688033281805946101603602733955478441 (0xB08F4566114D969CA24A8C56F192F3A9)Полное имя : D:TorrentsЗавершенныеT2.Trainspotting.2017.1080p.BluRay.Rus.2xEng.HDCLUB.mkvФормат : MatroskaВерсия формата : Version 2Размер файла : 14,4 ГбайтПродолжительность : 1 ч. 57 м.Общий поток : 17,5 Мбит/секНазвание фильма : T2 Trainspotting (2017) - Release for HDCLUBДата кодирования : UTC 2017-05-27 22:00:56Программа кодирования : mkvmerge v3.4.0 ('Rapunzel') built on May 15 2010 09:38:20Библиотека кодирования : libebml v0.8.0 + libmatroska v0.9.0

    ВидеоИдентификатор : 1Формат : AVCФормат/Информация : Advanced Video CodecПрофиль формата : [email protected]Параметр CABAC формата : ДаПараметр ReFrames формата : 4 кадраИдентификатор кодека : V_MPEG4/ISO/AVCПродолжительность : 1 ч. 57 м.Битрейт : 14,9 Мбит/секШирина : 1920 пикселейВысота : 1036 пикселейСоотношение сторон : 1,85:1Режим частоты кадров : ПостоянныйЧастота кадров : 23,976 (24000/1001) кадра/секЦветовое пространство : YUVСубдискретизация насыщенности : 4:2:0Битовая глубина : 8 битТип развёртки : ПрогрессивнаяБит/(Пиксели*Кадры) : 0.311Размер потока : 12,2 Гбайт (85%)Заголовок : T2 Trainspotting (2017) - Release for HDCLUBБиблиотека кодирования : x264 core 148 r2744 b97ae06Настройки программы : cabac=1 / ref=4 / deblock=1:-3:-3 / analyse=0x3:0x133 / me=umh / subme=11 / psy=1 / psy_rd=1.00:0.00 / mixed_ref=1 / me_range=48 / chroma_me=1 / trellis=2 / 8x8dct=1 / cqm=0 / deadzone=21,11 / fast_pskip=0 / chroma_qp_offset=-2 / threads=18 / lookahead_threads=3 / sliced_threads=0 / nr=0 / decimate=1 / interlaced=0 / bluray_compat=0 / constrained_intra=0 / bframes=8 / b_pyramid=2 / b_adapt=2 / b_bias=0 / direct=1 / weightb=1 / open_gop=0 / weightp=2 / keyint=240 / keyint_min=23 / scenecut=40 / intra_refresh=0 / rc_lookahead=60 / rc=crf / mbtree=0 / crf=18.1 / qcomp=0.60 / qpmin=0 / qpmax=69 / qpstep=4 / vbv_maxrate=50000 / vbv_bufsize=62500 / crf_max=0.0 / nal_hrd=none / filler=0 / ip_ratio=1.35 / pb_ratio=1.25 / aq=1:0.80Язык : EnglishDefault : ДаForced : Нет

    Аудио #1Идентификатор : 2Формат : AC-3Формат/Информация : Audio Coding 3Параметр Endianness формата : BigИдентификатор кодека : A_AC3Продолжительность : 1 ч. 57 м.Вид битрейта : ПостоянныйБитрейт : 640 Кбит/секКаналы : 6 каналовРасположение каналов : Front: L C R, Side: L R, LFEЧастота : 48,0 КГцЧастота кадров : 31,250 кадров/сек (1536 spf)Битовая глубина : 16 битМетод сжатия : С потерямиРазмер потока : 537 Мбайт (4%)Заголовок : AC3 5.1 @ 640 kbps - DUB, Blu-ray EURЯзык : RussianDefault : ДаForced : Нет

    Аудио #2Идентификатор : 3Формат : DTSФормат/Информация : Digital Theater SystemsРежим : 16Параметр Endianness формата : BigИдентификатор кодека : A_DTSПродолжительность : 1 ч. 57 м.Вид битрейта : ПостоянныйБитрейт : 1509 Кбит/секКаналы : 6 каналовРасположение каналов : Front: L C R, Side: L R, LFEЧастота : 48,0 КГцЧастота кадров : 93,750 кадра/сек (512 spf)Битовая глубина : 24 битМетод сжатия : С потерямиРазмер потока : 1,24 Гбайт (9%)Заголовок : DTS 5.1 @ 1536 kbpsЯзык : EnglishDefault : НетForced : Нет

    Аудио #3Идентификатор : 4Формат : AC-3Формат/Информация : Audio Coding 3Параметр Endianness формата : BigИдентификатор кодека : A_AC3Продолжительность : 1 ч. 57 м.Вид битрейта : ПостоянныйБитрейт : 192 Кбит/секКаналы : 2 каналаРасположение каналов : Front: L RЧастота : 48,0 КГцЧастота кадров : 31,250 кадров/сек (1536 spf)Битовая глубина : 16 битМетод сжатия : С потерямиРазмер потока : 161 Мбайт (1%)Заголовок : AC3 2.0 @ 192 kbps - Audio Commentary with Director Danny Boyle and Screenwriter John HodgeЯзык : EnglishDefault : НетForced : Нет

    Текст #1Идентификатор : 5Формат : UTF-8Идентификатор кодека : S_TEXT/UTF8Идентификатор кодека/Информация : UTF-8 Plain TextЗаголовок : iTunesЯзык : RussianDefault : НетForced : Нет

    Текст #2Идентификатор : 6Формат : UTF-8Идентификатор кодека : S_TEXT/UTF8Идентификатор кодека/Информация : UTF-8 Plain TextЗаголовок : iTunesЯзык : UkrainianDefault : НетForced : Нет

    Текст #3Идентификатор : 7Формат : UTF-8Идентификатор кодека : S_TEXT/UTF8Идентификатор кодека/Информация : UTF-8 Plain TextЗаголовок : Forced, iTunesЯзык : EnglishDefault : НетForced : Нет

    Текст #4Идентификатор : 8Формат : UTF-8Идентификатор кодека : S_TEXT/UTF8Идентификатор кодека/Информация : UTF-8 Plain TextЗаголовок : iTunesЯзык : EnglishDefault : НетForced : Нет

    Меню00:00:00.000 : en:00:08:03.274 : en:00:14:26.574 : en:00:20:20.553 : en:00:27:35.237 : en:00:36:22.138 : en:00:44:13.192 : en:00:52:33.359 : en:00:57:29.821 : en:01:03:28.179 : en:01:09:31.751 : en:01:15:48.753 : en:01:22:57.306 : en:01:31:03.333 : en:01:37:39.979 : en:01:45:56.559 : en:

    rutorg2.ru

    Скачать торрент Т2 Трейнспоттинг / На игле 2 / T2 Trainspotting (2017) BDRip 1080p | D

    Т2 Трейнспоттинг / На игле 2 / T2 Trainspotting

    Страна: Великобритания Производство: Cloud Eight Films, Creative Scotland, Decibel Films, DNA Films, Film4, TriStar PicturesГод выпуска: 2017Жанр: драмаПродолжительность: 01:57:22

    Режиссер: Дэнни БойлАвторы сценария: Ирвин Уэлш, Джон Ходж

    В ролях: Юэн МакГрегор, Юэн Бремнер, Джонни Ли Миллер, Роберт Карлайл, Кевин МакКидд, Кайл Фицпатрик, Келли Макдоналд, Анжела Недялкова

    Описание: Прошло двадцать лет. Рентон возвращается в единственное место, которое может считать своим домом. Они все ждут его: Кочерыжка, Кайфолом и Бегби. А вместе с ними другие старые знакомые: месть и страх, ненависть и любовь, дружба, сожаление и надежда. Все они выстроились в шеренгу, приветствуя Рентона, и он, кажется, готов к ним присоединиться...

    Перевод: Профессиональный (полное дублирование)Субтитры: русские (full), английские (forced + full), украинские (full)

    Качество: BDRip 1080pФормат: M4VВидео кодек: AVCАудио кодек: AAC | АС3Видео №1: 1920x1040 (1.85:1), 23.976 fps, MPEG-4 AVC ~8 000 kbps avgВидео №2: 640x346 (1.85:1), 0.002 fps, MPEG-4 AVC ~770 bps avg

    Аудио №1: 48.0 kHz, Advanced Audio Codec LC, 2/0 (L,R) ch, ~157 kbps | RUSАудио №2: 48.0 kHz, Advanced Audio Codec LC, 2/0 (L,R) ch, ~156 kbps | ENGАудио №3: 48.0 kHz, AC3 Dolby Digital, 3/2 (L,C,R,l,r) + LFE ch, ~640 kbps | RUSАудио №4: 48.0 kHz, AC3 Dolby Digital, 3/2 (L,C,R,l,r) + LFE ch, ~640 kbps | ENGФормат субтитров: Timed text

    Дата премьеры (мир): 22 января 2017Дата премьеры (РФ): 8 марта 2017, «WDSSPR»

    Media Info

    General Complete name : T2- Trainspotting (1080p HD).m4v Format : MPEG-4 Codec ID : M4V (M4V /M4A /mp42/isom) File size : 7.87 GiB Duration : 1h 57mn Overall bit rate mode : Variable Overall bit rate : 9 604 Kbps Movie name : T2: Trainspotting Recorded date : UTC 2017-01-22 08:00:00 Encoded date : UTC 2017-06-01 10:03:27 Tagged date : UTC 2017-06-01 10:06:55 Cover : Yes AppleStoreCatalogID : 1214132746 Vendor : Apple:vendor_id:2017-744776 ContentRating : mpaa|R|400|

    Video #1 ID : 1 Format : AVC Format/Info : Advanced Video Codec Format profile : [email protected] Format settings, CABAC : Yes Format settings, ReFrames : 4 frames Codec ID : avc1 Codec ID/Info : Advanced Video Coding Duration : 1h 57mn Source duration : 1h 57mn Bit rate : 8 000 Kbps Width : 1 920 pixels Height : 1 040 pixels Display aspect ratio : 1.85:1 Frame rate mode : Variable Frame rate : 23.976 (24000/1001) fps Minimum frame rate : 23.974 fps Maximum frame rate : 23.981 fps Color space : YUV Chroma subsampling : 4:2:0 Bit depth : 8 bits Scan type : Progressive Bits/(Pixel*Frame) : 0.167 Stream size : 6.56 GiB (83%) Source stream size : 6.56 GiB (83%) Title : Main Program Writing library : x264 core 148 r2708 86b7198 Encoding settings : cabac=1 / ref=4 / deblock=1:-2:-2 / analyse=0x3:0x133 / me=umh / subme=10 / psy=1 / psy_rd=1.00:0.15 / mixed_ref=1 / me_range=32 / chroma_me=1 / trellis=2 / 8x8dct=1 / cqm=0 / deadzone=21,11 / fast_pskip=1 / chroma_qp_offset=-3 / threads=32 / lookahead_threads=8 / sliced_threads=0 / nr=0 / decimate=0 / interlaced=0 / bluray_compat=0 / constrained_intra=0 / bframes=16 / b_pyramid=2 / b_adapt=2 / b_bias=0 / direct=3 / weightb=1 / open_gop=0 / weightp=2 / keyint=240 / keyint_min=24 / scenecut=40 / intra_refresh=0 / rc_lookahead=40 / rc=2pass / mbtree=1 / bitrate=8000 / ratetol=1.0 / qcomp=0.70 / qpmin=0 / qpmax=69 / qpstep=4 / cplxblur=20.0 / qblur=0.5 / ip_ratio=1.40 / aq=1:1.00 Language : English Encoded date : UTC 2017-06-01 10:03:27 Tagged date : UTC 2017-06-01 10:03:48 Color range : Limited Color primaries : BT.709 Transfer characteristics : BT.709 Matrix coefficients : BT.709 Menus : 10,11

    Video #2 ID : 11 Format : JPEG Codec ID : jpeg Duration : 1h 57mn Bit rate mode : Variable Bit rate : 770 bps Width : 640 pixels Height : 346 pixels Display aspect ratio : 1.85:1 Frame rate mode : Variable Frame rate : 0.002 fps Minimum frame rate : 0.001 fps Maximum frame rate : 0.003 fps Color space : YUV Chroma subsampling : 4:2:0 Bit depth : 8 bits Compression mode : Lossy Bits/(Pixel*Frame) : 1.739 Stream size : 752 KiB (0%) Title : Chapter Images Language : English Default : No Encoded date : UTC 2017-06-01 10:03:56 Tagged date : UTC 2017-06-01 10:03:56 Menu For : 1

    Audio #1 ID : 2 Format : AAC Format/Info : Advanced Audio Codec Format profile : LC Codec ID : 40 Duration : 1h 57mn Bit rate mode : Variable Bit rate : 157 Kbps Maximum bit rate : 257 Kbps Channel(s) : 2 channels Channel positions : Front: L R Sampling rate : 48.0 KHz Frame rate : 46.875 fps (1024 spf) Compression mode : Lossy Stream size : 131 MiB (2%) Title : Russian Stereo Language : Russian Default : Yes Alternate group : 1 Encoded date : UTC 2017-06-01 10:03:27 Tagged date : UTC 2017-06-01 10:03:37 Fallback From : 4 Menus : 10

    Audio #2 ID : 3 Format : AAC Format/Info : Advanced Audio Codec Format profile : LC Codec ID : 40 Duration : 1h 57mn Bit rate mode : Variable Bit rate : 156 Kbps Maximum bit rate : 270 Kbps Channel(s) : 2 channels Channel positions : Front: L R Sampling rate : 48.0 KHz Frame rate : 46.875 fps (1024 spf) Compression mode : Lossy Stream size : 131 MiB (2%) Title : English Stereo Language : English Default : No Alternate group : 1 Encoded date : UTC 2017-06-01 10:03:27 Tagged date : UTC 2017-06-01 10:03:37 Fallback From : 5 Subtitles : 6,8

    Audio #3 ID : 4 Format : AC-3 Format/Info : Audio Coding 3 Format settings, Endianness : Big Codec ID : ac-3 Duration : 1h 57mn Bit rate mode : Constant Bit rate : 640 Kbps Channel(s) : 6 channels Channel positions : Front: L C R, Side: L R, LFE Sampling rate : 48.0 KHz Frame rate : 31.250 fps (1536 spf) Bit depth : 16 bits Compression mode : Lossy Stream size : 537 MiB (7%) Title : Russian DD 5.1 Language : Russian Service kind : Complete Main Default : Inherited From: 2 Alternate group : 1 Encoded date : UTC 2017-06-01 10:03:27 Tagged date : UTC 2017-06-01 10:03:35 Fallback To : 2

    #4 ID : 5 Format : AC-3 Format/Info : Audio Coding 3 Format settings, Endianness : Big Codec ID : ac-3 Duration : 1h 57mn Bit rate mode : Constant Bit rate : 640 Kbps Channel(s) : 6 channels Channel positions : Front: L C R, Side: L R, LFE Sampling rate : 48.0 KHz Frame rate : 31.250 fps (1536 spf) Bit depth : 16 bits Compression mode : Lossy Stream size : 537 MiB (7%) Title : English DD 5.1 Language : English Service kind : Complete Main Default : No Alternate group : 1 Encoded date : UTC 2017-06-01 10:03:27 Tagged date : UTC 2017-06-01 10:03:35 Fallback To : 3 Subtitles : 6,8

    Text #1 ID : 6 Format : Timed Text Muxing mode : sbtl Codec ID : tx3g Duration : 46mn 54s Bit rate mode : Variable Bit rate : 1 bps Stream size : 322 Bytes (0%) Title : English Forced, iTunes Language : English Default : Yes Forced : Yes Alternate group : 2 Encoded date : UTC 2017-06-01 10:03:27 Tagged date : UTC 2017-06-01 10:03:28 Subtitles For : 3,5 Full Alternative : 8

    Text #2 ID : 7 Format : Timed Text Muxing mode : sbtl Codec ID : tx3g Duration : 1h 57mn Bit rate mode : Variable Bit rate : 97 bps Stream size : 83.5 KiB (0%) Title : Russian iTunes Language : Russian Default : No Forced : No Alternate group : 2 Encoded date : UTC 2017-06-01 10:03:27 Tagged date : UTC 2017-06-01 10:03:28

    Text #3 ID : 8 Format : Timed Text Muxing mode : sbtl Codec ID : tx3g Duration : 1h 49mn Bit rate mode : Variable Bit rate : 62 bps Stream size : 49.5 KiB (0%) Title : English iTunes Language : English Default : No Forced : No Alternate group : 2 Encoded date : UTC 2017-06-01 10:03:27 Tagged date : UTC 2017-06-01 10:03:28 Subtitles For : 3,5 Forced Alternative : 6

    Text #4 ID : 9 Format : Timed Text Muxing mode : sbtl Codec ID : tx3g Duration : 1h 57mn Bit rate mode : Variable Bit rate : 88 bps Stream size : 75.3 KiB (0%) Title : Ukrainian iTunes Language : Ukrainian Default : No Forced : No Alternate group : 2 Encoded date : UTC 2017-06-01 10:03:27 Tagged date : UTC 2017-06-01 10:03:29

    Menu #1 00:00:00.000 : Chapter 1 00:08:03.274 : Chapter 2 00:14:26.574 : Chapter 3 00:20:20.553 : Chapter 4 00:27:35.237 : Chapter 5 00:36:22.138 : Chapter 6 00:44:13.192 : Chapter 7 00:52:33.359 : Chapter 8 00:57:29.821 : Chapter 9 01:03:28.179 : Chapter 10 01:09:31.793 : Chapter 11 01:15:48.753 : Chapter 12 01:22:57.306 : Chapter 13 01:31:03.333 : Chapter 14 01:37:39.979 : Chapter 15 01:45:56.559 : Chapter 16

    Menu #2 ID : 10 Codec ID : text Duration : 1h 57mn Language : English Encoded date : UTC 2017-06-01 10:03:48 Tagged date : UTC 2017-06-01 10:03:48 Menu For : 2,1 00:00:00.000 : Chapter 1 00:08:03.274 : Chapter 2 00:14:26.574 : Chapter 3 00:20:20.553 : Chapter 4 00:27:35.237 : Chapter 5 00:36:22.138 : Chapter 6 00:44:13.192 : Chapter 7 00:52:33.359 : Chapter 8 00:57:29.821 : Chapter 9 01:03:28.179 : Chapter 10 01:09:31.793 : Chapter 11 01:15:48.753 : Chapter 12 01:22:57.306 : Chapter 13 01:31:03.333 : Chapter 14 01:37:39.979 : Chapter 15 01:45:56.559 : Chapter 16 Bit rate mode : VBR

    Дополнительная информация: релиз подготовлен для просмотра на Apple TV, iPad, iPhone, iPod Touch. Для просмотра данного релиза на компьютере с ОС Windows рекомендуется использовать VLC media player

    krutor.org

    На игле 2 торрент скачать

    T2 Трейнспоттинг (На игле 2) / T2 Trainspotting / 2017 / ДБ / HDRip / 1.37 ГБ1.37 GBT2 Трейнспоттинг / На игле 2 / T2 Trainspotting (Дэнни Бойл) [2017 г., драма, HDRip] Dub1.37 GBТ2 Трейнспоттинг / На игле 2 / T2 Trainspotting (Дэнни Бойл / Danny Boyle) [2017, Великобритания, драма, BDRip] Dub (EUR) + Original (Eng) + Sub (Rus, Eng, Ukr)2.18 GBТ2 Трейнспоттинг / На игле 2 / T2 Trainspotting (Дэнни Бойл / Danny Boyle) [2017, Великобритания, драма, BDRip] Dub1.46 GBT2 Трейнспоттинг (На игле 2) / T2 Trainspotting / 2017 / ДБ, СТ / BDRip (1080p) / 13.46 ГБ13.46 GBT2 Трейнспоттинг / На игле 2 / T2 Trainspotting (Дэнни Бойл) [2017 г., драма, HDRip] Dub + Original2.18 GBТ2 Трейнспоттинг (На игле 2) / T2 Trainspotting (2017) BDRip [H.264/720p-LQ]2.18 GBТ2 Трейнспоттинг (На игле 2) / T2 Trainspotting (2017) BDRip [H.264]2.83 GBT2 Трейнспоттинг / На игле 2 / T2 Trainspotting (Дэнни Бойл) [2017 г., драма, CAMRip] Dub1.37 GBТ2 Трейнспоттинг (На игле 2) / T2 Trainspotting (2017) BDRip [H.264/1080p]9.98 GBT2 Трейнспоттинг / На игле 2 / T2 Trainspotting (Дэнни Бойл) [2017 г., драма, WEB-DLRip] MVO (@[email protected])1.37 GB(Soundtrack) На игле 2 / T2 Trainspotting (Original Motion Picture Soundtrack) (VA) - 2017, MP3, 320 kbps140.1 MBТ2 Трейнспоттинг (На игле 2) / T2 Trainspotting (2017) BDRip [H.264/720p] [PR]5.83 GBТ2 Трейнспоттинг (На игле 2) / T2 Trainspotting (2017) BDRip [H.264/1080p] [PR]9.11 GBТ2 Трейнспоттинг (На игле 2) / T2 Trainspotting (2017) BDRip [H.264/1080p-LQ]4.37 GBТ2 Трейнспоттинг (На игле 2) / T2 Trainspotting (2017) HDRip1.37 GBТ2 Трейнспоттинг (На игле 2) / T2 Trainspotting (Дэнни Бойл / Danny Boyle) [2017, Великобритания, драма, BDRip 1080p] Dub + Sub Rus, Ukr, Eng + Original Eng15.11 GBТ2 Трейнспоттинг (На игле 2) / T2 Trainspotting (Дэнни Бойл / Danny Boyle) [2017, Великобритания, драма, BDRip 720p] Dub + Sub Rus, Ukr, Eng + Original Eng6.83 GBТ2 Трейнспоттинг (На игле 2) / T2 Trainspotting (2017) BDRip [H.264/720p]5.56 GBT2 Трейнспоттинг (На игле 2) / T2 Trainspotting / 2017 / ДБ / HDRip / 2.18 ГБ2.18 GBТ2 Трейнспоттинг (На игле 2) / T2 Trainspotting (2017) HDRip1.37 GBT2 Трейнспоттинг (На игле 2) / T2 Trainspotting / 2017 / ДБ, СТ / BDRip (720p) / 6.62 ГБ6.62 GBТ2 Трейнспоттинг / На игле 2 / T2 Trainspotting (Дэнни Бойл / Danny Boyle) [2017, Великобритания, драма, BDRip-AVC] Dub + Original + Sub (rus, eng)2.2 GBТ2 Трейнспоттинг (На игле 2) / T2 Trainspotting (Дэнни Бойл / Danny Boyle ) [2017, Великобритания, Драма, BDRip, HD (720p)] DUB + Original + sub (rus, eng, ukr)4.18 GB(Soundtrack) На игле 2 / T2 Trainspotting (Original Motion Picture Soundtrack) - 2017, FLAC (tracks+.cue), lossless397.1 MBТ2 Трейнспоттинг (На игле 2) / T2 Trainspotting (2017) BDRemux [H.264/1080p]22.8 GB[ATV3] Т2 Трейнспоттинг (На игле 2) / T2 Trainspotting (Дэнни Бойл / Danny Boyle ) [2017, Великобритания, Драма, BDRip, HD (1080p)] DUB + Original + sub (rus, eng, ukr)7.87 GBT2 Трейнспоттинг / На игле 2 / T2 Trainspotting (Дэнни Бойл) [2017 г., драма, BDRip 720p] Dub + Original5.83 GBT2 Трейнспоттинг (На игле 2) / T2 Trainspotting / 2017 / ДБ, СТ / HDRip (AVC) / 2.83 ГБ2.83 GB(Soundtrack) На игле / Trainspotting (vol. 2) - 1997 (1996), MP3 (tracks), 320 kbps164.5 MBТ2 Трейнспоттинг (На игле 2) / T2 Trainspotting (Дэнни Бойл / Danny Boyle) [2017, Великобритания, драма, BDRip 720p] Dub + Sub Rus, Eng + Original Eng8.14 GBТ2 Трейнспоттинг / На игле 2 / T2 Trainspotting (2017) BDRip [H.265/1080p-LQ]4.05 GB(Soundtrack) На игле | Трейнспоттинг 2 / Trainspotting | T2 - 1996, 2017 {iTM, WEB), AAC (tracks), VBR 256 kbps283.8 MBТ2 Трейнспоттинг (На игле 2) / T2 Trainspotting (Дэнни Бойл / Danny Boyle ) [2017, Великобритания, Драма, BDRip, SD (480p)] DUB + Original + sub (rus, eng, ukr)1.28 GBT2 Трейнспоттинг (На игле 2) / T2 Trainspotting / 2017 / ДБ, СТ / Blu-Ray Remux (1080p) / 22.66 ГБ22.66 GBНа игле / Trainspotting (Дэнни Бойл / Danny Boyle) [1996, Великобритания, комедия, драма, криминал, BDRip-AVC] 2 x MVO + 2 x AVO (Кашкин, Алексеев) + original + comments + sub (rus, eng)2.93 GBТ2 Трейнспоттинг / На игле 2 / T2 Trainspotting (Дэнни Бойл / Danny Boyle) [2017, Великобритания, драма, BDRip-AVC] Dub + Original + Sub (rus, eng)2.2 GB(Soundtrack) На игле / Trainspotting # 1 & 2 (2CD) - 1996, 1997, FLAC (tracks+.cue), lossless885.9 MBТ2 Трейнспоттинг / На игле 2 / T2 Trainspotting (Дэнни Бойл / Danny Boyle) [2017, Великобритания, драма, BDRip 1080p] Dub (CEE) + Sub Rus, Eng, Ukr + Original Eng14.38 GBТ2 Трейнспоттинг (На игле 2) / T2 Trainspotting (2017) BDRemux [H.264/1080p]26.2 GBT2 Трейнспоттинг (На игле 2) / T2 Trainspotting / 2017 / ДБ, СТ / BDRip / 1.46 ГБ1.46 GB[iPad] Т2 Трейнспоттинг (На игле 2) / T2 Trainspotting (Дэнни Бойл / Danny Boyle ) [2017, Великобритания, Драма, BDRip, SD (576p)] DUB + Original + sub (rus, eng, ukr)2.02 GBТ2 Трейнспоттинг (На игле 2) / T2 Trainspotting (2017) BDRip [1080p] ATV7.87 GBT2 Трейнспоттинг (На игле 2) / T2 Trainspotting / 2017 / ДБ, АП (Чадов), СТ / HEVC, HDR, 4K / Blu-Ray Remux (2160p) / 45.44 ГБ45.44 GBТ2 Трейнспоттинг (На игле 2) / T2 Trainspotting (2017) CAMRip | D1.37 GBТ2 Трейнспоттинг / На игле 2 / T2 Trainspotting (Дэнни Бойл / Danny Boyle) [2017, Великобритания, драма, Blu-ray disc 1080p] [EUR] Dub + Sub Rus, Eng + Original Eng35.91 GBT2 Трейнспоттинг / На игле 2 / T2 Trainspotting (Дэнни Бойл) [2017 г., драма, WEB-DL 1080p] MVO (@[email protected])4.42 GBT2 Трейнспоттинг (На игле 2) / T2 Trainspotting / 2017 / ДБ, СТ / HEVC / BDRip (1080p) / 6.45 ГБ6.45 GBT2 Трейнспоттинг (На игле 2) / T2 Trainspotting / Soundtrack / 2017 / MP3 / 140 МБ140 MBT2 Трейнспоттинг (На игле 2) / OST T2 Trainspotting / Soundtrack / 2017 / FLAC / Lossless / 394 МБ394 MB tparser.org – торрент поисковик по популярным торрент трекерам. Находить и скачивать новинки кино в HDRip и BDRip качестве через tparser намного проще! Добро пожаловать на крупный торрент архив фильмов и игр tparser.org. Вам больше не придется искать торренты на основных торрент трекерах в поисках нужной раздачи – мы предлагаем найти и скачать фильмы в хорошем качестве прямо на нашем сайте. Наш сервис поиска торрентов в реальном времени собирает информацию с крупных торрент трекеров и сортирует полученные результаты в удобную таблицу. Скачивайте торренты без ограничений и без всяких регистраций на трекерах. Начните скачивать торрент На игле 2 прямо сейчас!

    tparser.org

    rutor.org :: Т2 Трейнспоттинг / На игле 2 / T2 Trainspotting (2017) BDRip 1080p | D

    Т2 Трейнспоттинг / На игле 2 / T2 Trainspotting

    Страна: Великобритания Производство: Cloud Eight Films, Creative Scotland, Decibel Films, DNA Films, Film4, TriStar PicturesГод выпуска: 2017Жанр: драмаПродолжительность: 01:57:22

    Режиссер: Дэнни БойлАвторы сценария: Ирвин Уэлш, Джон Ходж

    В ролях: Юэн МакГрегор, Юэн Бремнер, Джонни Ли Миллер, Роберт Карлайл, Кевин МакКидд, Кайл Фицпатрик, Келли Макдоналд, Анжела Недялкова

    Описание: Прошло двадцать лет. Рентон возвращается в единственное место, которое может считать своим домом. Они все ждут его: Кочерыжка, Кайфолом и Бегби. А вместе с ними другие старые знакомые: месть и страх, ненависть и любовь, дружба, сожаление и надежда. Все они выстроились в шеренгу, приветствуя Рентона, и он, кажется, готов к ним присоединиться...

    Перевод: Профессиональный (полное дублирование)Субтитры: русские (full), английские (forced + full), украинские (full)

    Качество: BDRip 1080pФормат: M4VВидео кодек: AVCАудио кодек: AAC | АС3Видео №1: 1920x1040 (1.85:1), 23.976 fps, MPEG-4 AVC ~8 000 kbps avgВидео №2: 640x346 (1.85:1), 0.002 fps, MPEG-4 AVC ~770 bps avg

    Аудио №1: 48.0 kHz, Advanced Audio Codec LC, 2/0 (L,R) ch, ~157 kbps | RUSАудио №2: 48.0 kHz, Advanced Audio Codec LC, 2/0 (L,R) ch, ~156 kbps | ENGАудио №3: 48.0 kHz, AC3 Dolby Digital, 3/2 (L,C,R,l,r) + LFE ch, ~640 kbps | RUSАудио №4: 48.0 kHz, AC3 Dolby Digital, 3/2 (L,C,R,l,r) + LFE ch, ~640 kbps | ENGФормат субтитров: Timed text

    Дата премьеры (мир): 22 января 2017Дата премьеры (РФ): 8 марта 2017, «WDSSPR»

    Media Info

    General Complete name : T2- Trainspotting (1080p HD).m4v Format : MPEG-4 Codec ID : M4V (M4V /M4A /mp42/isom) File size : 7.87 GiB Duration : 1h 57mn Overall bit rate mode : Variable Overall bit rate : 9 604 Kbps Movie name : T2: Trainspotting Recorded date : UTC 2017-01-22 08:00:00 Encoded date : UTC 2017-06-01 10:03:27 Tagged date : UTC 2017-06-01 10:06:55 Cover : Yes AppleStoreCatalogID : 1214132746 Vendor : Apple:vendor_id:2017-744776 ContentRating : mpaa|R|400|

    Video #1 ID : 1 Format : AVC Format/Info : Advanced Video Codec Format profile : [email protected] Format settings, CABAC : Yes Format settings, ReFrames : 4 frames Codec ID : avc1 Codec ID/Info : Advanced Video Coding Duration : 1h 57mn Source duration : 1h 57mn Bit rate : 8 000 Kbps Width : 1 920 pixels Height : 1 040 pixels Display aspect ratio : 1.85:1 Frame rate mode : Variable Frame rate : 23.976 (24000/1001) fps Minimum frame rate : 23.974 fps Maximum frame rate : 23.981 fps Color space : YUV Chroma subsampling : 4:2:0 Bit depth : 8 bits Scan type : Progressive Bits/(Pixel*Frame) : 0.167 Stream size : 6.56 GiB (83%) Source stream size : 6.56 GiB (83%) Title : Main Program Writing library : x264 core 148 r2708 86b7198 Encoding settings : cabac=1 / ref=4 / deblock=1:-2:-2 / analyse=0x3:0x133 / me=umh / subme=10 / psy=1 / psy_rd=1.00:0.15 / mixed_ref=1 / me_range=32 / chroma_me=1 / trellis=2 / 8x8dct=1 / cqm=0 / deadzone=21,11 / fast_pskip=1 / chroma_qp_offset=-3 / threads=32 / lookahead_threads=8 / sliced_threads=0 / nr=0 / decimate=0 / interlaced=0 / bluray_compat=0 / constrained_intra=0 / bframes=16 / b_pyramid=2 / b_adapt=2 / b_bias=0 / direct=3 / weightb=1 / open_gop=0 / weightp=2 / keyint=240 / keyint_min=24 / scenecut=40 / intra_refresh=0 / rc_lookahead=40 / rc=2pass / mbtree=1 / bitrate=8000 / ratetol=1.0 / qcomp=0.70 / qpmin=0 / qpmax=69 / qpstep=4 / cplxblur=20.0 / qblur=0.5 / ip_ratio=1.40 / aq=1:1.00 Language : English Encoded date : UTC 2017-06-01 10:03:27 Tagged date : UTC 2017-06-01 10:03:48 Color range : Limited Color primaries : BT.709 Transfer characteristics : BT.709 Matrix coefficients : BT.709 Menus : 10,11

    Video #2 ID : 11 Format : JPEG Codec ID : jpeg Duration : 1h 57mn Bit rate mode : Variable Bit rate : 770 bps Width : 640 pixels Height : 346 pixels Display aspect ratio : 1.85:1 Frame rate mode : Variable Frame rate : 0.002 fps Minimum frame rate : 0.001 fps Maximum frame rate : 0.003 fps Color space : YUV Chroma subsampling : 4:2:0 Bit depth : 8 bits Compression mode : Lossy Bits/(Pixel*Frame) : 1.739 Stream size : 752 KiB (0%) Title : Chapter Images Language : English Default : No Encoded date : UTC 2017-06-01 10:03:56 Tagged date : UTC 2017-06-01 10:03:56 Menu For : 1

    Audio #1 ID : 2 Format : AAC Format/Info : Advanced Audio Codec Format profile : LC Codec ID : 40 Duration : 1h 57mn Bit rate mode : Variable Bit rate : 157 Kbps Maximum bit rate : 257 Kbps Channel(s) : 2 channels Channel positions : Front: L R Sampling rate : 48.0 KHz Frame rate : 46.875 fps (1024 spf) Compression mode : Lossy Stream size : 131 MiB (2%) Title : Russian Stereo Language : Russian Default : Yes Alternate group : 1 Encoded date : UTC 2017-06-01 10:03:27 Tagged date : UTC 2017-06-01 10:03:37 Fallback From : 4 Menus : 10

    Audio #2 ID : 3 Format : AAC Format/Info : Advanced Audio Codec Format profile : LC Codec ID : 40 Duration : 1h 57mn Bit rate mode : Variable Bit rate : 156 Kbps Maximum bit rate : 270 Kbps Channel(s) : 2 channels Channel positions : Front: L R Sampling rate : 48.0 KHz Frame rate : 46.875 fps (1024 spf) Compression mode : Lossy Stream size : 131 MiB (2%) Title : English Stereo Language : English Default : No Alternate group : 1 Encoded date : UTC 2017-06-01 10:03:27 Tagged date : UTC 2017-06-01 10:03:37 Fallback From : 5 Subtitles : 6,8

    Audio #3 ID : 4 Format : AC-3 Format/Info : Audio Coding 3 Format settings, Endianness : Big Codec ID : ac-3 Duration : 1h 57mn Bit rate mode : Constant Bit rate : 640 Kbps Channel(s) : 6 channels Channel positions : Front: L C R, Side: L R, LFE Sampling rate : 48.0 KHz Frame rate : 31.250 fps (1536 spf) Bit depth : 16 bits Compression mode : Lossy Stream size : 537 MiB (7%) Title : Russian DD 5.1 Language : Russian Service kind : Complete Main Default : Inherited From: 2 Alternate group : 1 Encoded date : UTC 2017-06-01 10:03:27 Tagged date : UTC 2017-06-01 10:03:35 Fallback To : 2

    #4 ID : 5 Format : AC-3 Format/Info : Audio Coding 3 Format settings, Endianness : Big Codec ID : ac-3 Duration : 1h 57mn Bit rate mode : Constant Bit rate : 640 Kbps Channel(s) : 6 channels Channel positions : Front: L C R, Side: L R, LFE Sampling rate : 48.0 KHz Frame rate : 31.250 fps (1536 spf) Bit depth : 16 bits Compression mode : Lossy Stream size : 537 MiB (7%) Title : English DD 5.1 Language : English Service kind : Complete Main Default : No Alternate group : 1 Encoded date : UTC 2017-06-01 10:03:27 Tagged date : UTC 2017-06-01 10:03:35 Fallback To : 3 Subtitles : 6,8

    Text #1 ID : 6 Format : Timed Text Muxing mode : sbtl Codec ID : tx3g Duration : 46mn 54s Bit rate mode : Variable Bit rate : 1 bps Stream size : 322 Bytes (0%) Title : English Forced, iTunes Language : English Default : Yes Forced : Yes Alternate group : 2 Encoded date : UTC 2017-06-01 10:03:27 Tagged date : UTC 2017-06-01 10:03:28 Subtitles For : 3,5 Full Alternative : 8

    Text #2 ID : 7 Format : Timed Text Muxing mode : sbtl Codec ID : tx3g Duration : 1h 57mn Bit rate mode : Variable Bit rate : 97 bps Stream size : 83.5 KiB (0%) Title : Russian iTunes Language : Russian Default : No Forced : No Alternate group : 2 Encoded date : UTC 2017-06-01 10:03:27 Tagged date : UTC 2017-06-01 10:03:28

    Text #3 ID : 8 Format : Timed Text Muxing mode : sbtl Codec ID : tx3g Duration : 1h 49mn Bit rate mode : Variable Bit rate : 62 bps Stream size : 49.5 KiB (0%) Title : English iTunes Language : English Default : No Forced : No Alternate group : 2 Encoded date : UTC 2017-06-01 10:03:27 Tagged date : UTC 2017-06-01 10:03:28 Subtitles For : 3,5 Forced Alternative : 6

    Text #4 ID : 9 Format : Timed Text Muxing mode : sbtl Codec ID : tx3g Duration : 1h 57mn Bit rate mode : Variable Bit rate : 88 bps Stream size : 75.3 KiB (0%) Title : Ukrainian iTunes Language : Ukrainian Default : No Forced : No Alternate group : 2 Encoded date : UTC 2017-06-01 10:03:27 Tagged date : UTC 2017-06-01 10:03:29

    Menu #1 00:00:00.000 : Chapter 1 00:08:03.274 : Chapter 2 00:14:26.574 : Chapter 3 00:20:20.553 : Chapter 4 00:27:35.237 : Chapter 5 00:36:22.138 : Chapter 6 00:44:13.192 : Chapter 7 00:52:33.359 : Chapter 8 00:57:29.821 : Chapter 9 01:03:28.179 : Chapter 10 01:09:31.793 : Chapter 11 01:15:48.753 : Chapter 12 01:22:57.306 : Chapter 13 01:31:03.333 : Chapter 14 01:37:39.979 : Chapter 15 01:45:56.559 : Chapter 16

    Menu #2 ID : 10 Codec ID : text Duration : 1h 57mn Language : English Encoded date : UTC 2017-06-01 10:03:48 Tagged date : UTC 2017-06-01 10:03:48 Menu For : 2,1 00:00:00.000 : Chapter 1 00:08:03.274 : Chapter 2 00:14:26.574 : Chapter 3 00:20:20.553 : Chapter 4 00:27:35.237 : Chapter 5 00:36:22.138 : Chapter 6 00:44:13.192 : Chapter 7 00:52:33.359 : Chapter 8 00:57:29.821 : Chapter 9 01:03:28.179 : Chapter 10 01:09:31.793 : Chapter 11 01:15:48.753 : Chapter 12 01:22:57.306 : Chapter 13 01:31:03.333 : Chapter 14 01:37:39.979 : Chapter 15 01:45:56.559 : Chapter 16 Bit rate mode : VBR

    Дополнительная информация: релиз подготовлен для просмотра на Apple TV, iPad, iPhone, iPod Touch. Для просмотра данного релиза на компьютере с ОС Windows рекомендуется использовать VLC media player

    main-rutor.org


    Смотрите также