Морган скачать торрент в хорошем качестве hd 1080 2016


Скачать торрент Морган / Morgan (2016) WEB-DL 1080p от ExKinoRay

Информация о фильмеНазвание: МорганОригинальное название: MorganГод выхода: 2016Жанр: Ужасы, фантастика, триллер, драма, детективРежиссер: Люк СкоттВ ролях: Кейт Мара, Аня Тейлор-Джой, Роуз Лесли, Майкл Йар, Тоби Джонс, Крис Салливан, Бойд Холбрук, Винетт Робинсон, Мишель Йео, Брайан Кокс

О фильме:Сотрудница по устранению аварий отправляется в отдаленный секретный филиал, где должна расследовать и оценить потери от ужасной катастрофы. На месте она узнает, что случившееся было вызвано, казалось бы, невинным «человеком», чье существование само по себе является опасной тайной.

Страна: СШАСтудия: Scott Free ProductionsПродолжительность: 01:32:28Перевод: Дублированный | iTunes

ФайлКодек: MPEG-4Качество: WEB-DL 1080pВидео: 1916x800, 4547 Kbit/s, 23.976 fpsЗвук: Аудио #01: 48 kHz, AC3, 5.1, 384 Kbps | Дублированный | iTunes |Аудио #02: 48 kHz, AC3, 5.1, 384 kbps | Оригинал |Субтитры: Русские (forced, full), украинские (forced, full), английские

MI

General Unique ID : 232332167752561868385643397648679618350 (0xAEC98C42A4D8E8CDB9EAF8C54FC2C72E) Complete name : G:VideoMorgan.2016.D.WEB-DL.1080p.ExKinoRay.mkv Format : Matroska Format version : Version 4 / Version 2 File size : 3.43 GiB Duration : 1 h 32 min Overall bit rate : 5 313 kb/s Movie name : ExKinoRay Encoded date : UTC 2016-12-01 20:36:13 Writing application : mkvmerge v8.3.0 ('Over the Horizon') 64bit Writing library : libebml v1.3.1 + libmatroska v1.4.2

Video ID : 1 Format : AVC Format/Info : Advanced Video Codec Format profile : [email protected] Format settings, CABAC : Yes Format settings, ReFrames : 5 frames Codec ID : V_MPEG4/ISO/AVC Duration : 1 h 32 min Bit rate : 4 547 kb/s Width : 1 916 pixels Height : 800 pixels Display aspect ratio : 2.40:1 Frame rate mode : Constant Frame rate : 23.976 FPS Color space : YUV Chroma subsampling : 4:2:0 Bit depth : 8 bits Scan type : Progressive Bits/(Pixel*Frame) : 0.124 Stream size : 2.94 GiB (86%) Language : English Default : Yes Forced : No Color range : Limited Color primaries : BT.709 Transfer characteristics : BT.709 Matrix coefficients : BT.709

Audio #1 ID : 2 Format : AC-3 Format/Info : Audio Coding 3 Mode extension : CM (complete main) Format settings, Endianness : Big Codec ID : A_AC3 Duration : 1 h 31 min Bit rate mode : Constant Bit rate : 384 kb/s Channel(s) : 6 channels Channel positions : Front: L C R, Side: L R, LFE Sampling rate : 48.0 kHz Frame rate : 31.250 FPS (1536 spf) Bit depth : 16 bits Compression mode : Lossy Stream size : 252 MiB (7%) Title : Dub [iTunes] Language : Russian Default : Yes Forced : No

Audio #2 ID : 3 Format : AC-3 Format/Info : Audio Coding 3 Mode extension : CM (complete main) Format settings, Endianness : Big Codec ID : A_AC3 Duration : 1 h 31 min Bit rate mode : Constant Bit rate : 384 kb/s Channel(s) : 6 channels Channel positions : Front: L C R, Side: L R, LFE Sampling rate : 48.0 kHz Frame rate : 31.250 FPS (1536 spf) Bit depth : 16 bits Compression mode : Lossy Stream size : 252 MiB (7%) Title : Original Language : English Default : No Forced : No

Text #1 ID : 4 Format : UTF-8 Codec ID : S_TEXT/UTF8 Codec ID/Info : UTF-8 Plain Text Duration : 1 h 29 min Bit rate : 1 b/s Count of elements : 20 Stream size : 950 Bytes (0%) Title : Forced [iTunes] Language : Russian Default : Yes Forced : No

Text #2 ID : 5 Format : UTF-8 Codec ID : S_TEXT/UTF8 Codec ID/Info : UTF-8 Plain Text Duration : 1 h 30 min Bit rate : 72 b/s Count of elements : 1101 Stream size : 48.2 KiB (0%) Title : Full [iTunes] Language : Russian Default : No Forced : No

Text #3 ID : 6 Format : UTF-8 Codec ID : S_TEXT/UTF8 Codec ID/Info : UTF-8 Plain Text Duration : 1 h 29 min Bit rate : 1 b/s Count of elements : 27 Stream size : 1.27 KiB (0%) Title : Forced [iTunes] Language : Ukrainian Default : No Forced : No

Text #4 ID : 7 Format : UTF-8 Codec ID : S_TEXT/UTF8 Codec ID/Info : UTF-8 Plain Text Duration : 1 h 30 min Bit rate : 73 b/s Count of elements : 1103 Stream size : 49.0 KiB (0%) Title : Full [iTunes] Language : Ukrainian Default : No Forced : No

Text #5 ID : 8 Format : UTF-8 Codec ID : S_TEXT/UTF8 Codec ID/Info : UTF-8 Plain Text Duration : 42 min 54 s Bit rate : 1 b/s Count of elements : 14 Stream size : 372 Bytes (0%) Title : Forced Language : English Default : No Forced : No

Text #6 ID : 9 Format : UTF-8 Codec ID : S_TEXT/UTF8 Codec ID/Info : UTF-8 Plain Text Duration : 1 h 30 min Bit rate : 43 b/s Count of elements : 1059 Stream size : 29.3 KiB (0%) Title : Full Language : English Default : No Forced : No

Menu 00:00:00.000 : en:1 00:03:42.806 : en:2 00:07:22.108 : en:3 00:11:41.492 : en:4 00:16:04.046 : en:5 00:20:29.978 : en:6 00:25:36.034 : en:7 00:28:45.223 : en:8 00:34:19.974 : en:9 00:37:17.568 : en:10 00:40:45.817 : en:11 00:43:46.831 : en:12 00:48:13.931 : en:13 00:51:28.458 : en:14 00:54:45.696 : en:15 00:59:50.751 : en:16 01:03:44.109 : en:17 01:08:01.324 : en:18 01:11:43.462 : en:19 01:13:46.126 : en:20 01:17:03.406 : en:21 01:20:01.375 : en:22 01:22:32.234 : en:23 01:25:10.642 : en:24

Релиз от: Автор релиза:

krutor.org

Морган (2016) HD 1080p скачать торрент в хорошем качестве

Информация о фильмеНазвание: МорганОригинальное название: MorganГод выхода: 2016Жанр: Ужасы, фантастика, триллер, драма, детективРежиссер: Люк СкоттВ ролях: Кейт Мара, Аня Тейлор-Джой, Роуз Лесли, Майкл Йар, Тоби Джонс, Крис Салливан, Бойд Холбрук, Винетт Робинсон, Мишель Йео, Брайан Кокс

О фильме: Сотрудница по устранению аварий отправляется в отдаленный секретный филиал, где должна расследовать и оценить потери от ужасной катастрофы. На месте она узнает, что случившееся было вызвано, казалось бы, невинным «человеком», чье существование само по себе является опасной тайной.

Страна: СШАСтудия: Scott Free ProductionsПродолжительность: 01:32:28Перевод: Дублированный | iTunes

ФайлКодек: MPEG-4Качество: WEB-DL 1080pВидео: 1916x800, 4547 Kbit/s, 23.976 fpsЗвук: Аудио #01: 48 kHz, AC3, 5.1, 384 Kbps | Дублированный | iTunes |Аудио #02: 48 kHz, AC3, 5.1, 384 kbps | Оригинал |Субтитры: Русские (forced, full), украинские (forced, full), английские

GeneralUnique ID : 232332167752561868385643397648679618350 (0xAEC98C42A4D8E8CDB9EAF8C54FC2C72E)Complete name : G:VideoMorgan.2016.D.WEB-DL.1080p.ExKinoRay.mkvFormat : MatroskaFormat version : Version 4 / Version 2File size : 3.43 GiBDuration : 1 h 32 minOverall bit rate : 5 313 kb/sMovie name : ExKinoRayEncoded date : UTC 2016-12-01 20:36:13Writing application : mkvmerge v8.3.0 ('Over the Horizon') 64bitWriting library : libebml v1.3.1 + libmatroska v1.4.2

VideoID : 1Format : AVCFormat/Info : Advanced Video CodecFormat profile : [email protected] settings, CABAC : YesFormat settings, ReFrames : 5 framesCodec ID : V_MPEG4/ISO/AVCDuration : 1 h 32 minBit rate : 4 547 kb/sWidth : 1 916 pixelsHeight : 800 pixelsDisplay aspect ratio : 2.40:1Frame rate mode : ConstantFrame rate : 23.976 FPSColor space : YUVChroma subsampling : 4:2:0Bit depth : 8 bitsScan type : ProgressiveBits/(Pixel*Frame) : 0.124Stream size : 2.94 GiB (86%)Language : EnglishDefault : YesForced : NoColor range : LimitedColor primaries : BT.709Transfer characteristics : BT.709Matrix coefficients : BT.709

Audio #1ID : 2Format : AC-3Format/Info : Audio Coding 3Mode extension : CM (complete main)Format settings, Endianness : BigCodec ID : A_AC3Duration : 1 h 31 minBit rate mode : ConstantBit rate : 384 kb/sChannel(s) : 6 channelsChannel positions : Front: L C R, Side: L R, LFESampling rate : 48.0 kHzFrame rate : 31.250 FPS (1536 spf)Bit depth : 16 bitsCompression mode : LossyStream size : 252 MiB (7%)Title : Dub [iTunes]Language : RussianDefault : YesForced : No

Audio #2ID : 3Format : AC-3Format/Info : Audio Coding 3Mode extension : CM (complete main)Format settings, Endianness : BigCodec ID : A_AC3Duration : 1 h 31 minBit rate mode : ConstantBit rate : 384 kb/sChannel(s) : 6 channelsChannel positions : Front: L C R, Side: L R, LFESampling rate : 48.0 kHzFrame rate : 31.250 FPS (1536 spf)Bit depth : 16 bitsCompression mode : LossyStream size : 252 MiB (7%)Title : OriginalLanguage : EnglishDefault : NoForced : No

Text #1ID : 4Format : UTF-8Codec ID : S_TEXT/UTF8Codec ID/Info : UTF-8 Plain TextDuration : 1 h 29 minBit rate : 1 b/sCount of elements : 20Stream size : 950 Bytes (0%)Title : Forced [iTunes]Language : RussianDefault : YesForced : No

Text #2ID : 5Format : UTF-8Codec ID : S_TEXT/UTF8Codec ID/Info : UTF-8 Plain TextDuration : 1 h 30 minBit rate : 72 b/sCount of elements : 1101Stream size : 48.2 KiB (0%)Title : Full [iTunes]Language : RussianDefault : NoForced : No

Text #3ID : 6Format : UTF-8Codec ID : S_TEXT/UTF8Codec ID/Info : UTF-8 Plain TextDuration : 1 h 29 minBit rate : 1 b/sCount of elements : 27Stream size : 1.27 KiB (0%)Title : Forced [iTunes]Language : UkrainianDefault : NoForced : No

Text #4ID : 7Format : UTF-8Codec ID : S_TEXT/UTF8Codec ID/Info : UTF-8 Plain TextDuration : 1 h 30 minBit rate : 73 b/sCount of elements : 1103Stream size : 49.0 KiB (0%)Title : Full [iTunes]Language : UkrainianDefault : NoForced : No

Text #5ID : 8Format : UTF-8Codec ID : S_TEXT/UTF8Codec ID/Info : UTF-8 Plain TextDuration : 42 min 54 sBit rate : 1 b/sCount of elements : 14Stream size : 372 Bytes (0%)Title : ForcedLanguage : EnglishDefault : NoForced : No

Text #6ID : 9Format : UTF-8Codec ID : S_TEXT/UTF8Codec ID/Info : UTF-8 Plain TextDuration : 1 h 30 minBit rate : 43 b/sCount of elements : 1059Stream size : 29.3 KiB (0%)Title : FullLanguage : EnglishDefault : NoForced : No

Menu00:00:00.000 : en:100:03:42.806 : en:200:07:22.108 : en:300:11:41.492 : en:400:16:04.046 : en:500:20:29.978 : en:600:25:36.034 : en:700:28:45.223 : en:800:34:19.974 : en:900:37:17.568 : en:1000:40:45.817 : en:1100:43:46.831 : en:1200:48:13.931 : en:1300:51:28.458 : en:1400:54:45.696 : en:1500:59:50.751 : en:1601:03:44.109 : en:1701:08:01.324 : en:1801:11:43.462 : en:1901:13:46.126 : en:2001:17:03.406 : en:2101:20:01.375 : en:2201:22:32.234 : en:2301:25:10.642 : en:24

rutorg2.ru

Скачать торрент Морган / Morgan (2016) BDRip 1080p от New-Team

Информация о фильмеНазвание: МорганОригинальное название: MorganСтрана: СШАСтудия: Scott Free ProductionsЖанр: ужасы, фантастика, триллер, детективГод выпуска: 2016Продолжительность: 01:31:53

Перевод: Профессиональный (дублированный)Cубтитры: Rus, Ukr, EngОригинальная аудиодорожка: английский

Режиссер: Люк Скотт / Luke Scott

В ролях: Кейт Мара, Аня Тейлор-Джой, Роуз Лесли, Майкл Йар, Тоби Джонс, Крис Салливан, Бойд Холбрук, Винетт Робинсон, Мишель Йео, Брайан Кокс

Описание: Сотрудница по устранению аварий отправляется в отдаленный секретный филиал, где должна расследовать и оценить потери от ужасной катастрофы. На месте она узнает, что случившееся было вызвано, казалось бы, невинным «человеком», чье существование само по себе является опасной тайной.

Тип релиза: BDRip 1080pКонтейнер: MKV

Видео: MPEG-4 AVC, 12.0 Mбит/с, 1920x804, 23,976 fpsАудио: Rus, DTS, 768 kb/s (6 ch), 48 kHzАудио 2: Eng, DTS, 1510 kb/s (6 ch), 48 kHzФормат субтитров: softsub (SRT)

Раздача от:

MediaInfo

x264 [info]: frame I:1055 Avg QP:14.03 size:271032 x264 [info]: frame P:28694 Avg QP:15.69 size:103151 x264 [info]: frame B:102423 Avg QP:16.63 size: 48962

Format : Matroska Format version : Version 4 / Version 2 File size : 9.16 GiB Duration : 1h 31mn Overall bit rate : 14.3 Mbps Movie name : Морган. (Tonik) Encoded date : UTC 2017-01-14 08:36:31 Writing application : mkvmerge v7.1.0 ('Good Love') 64bit built on Jul 27 2014 13:06:55 Writing library : libebml v1.3.0 + libmatroska v1.4.1 _STATISTICS_WRITING_APP : mkvmerge v7.1.0 ('Good Love') 64bit built on Jul 27 2014 13:06:55 _STATISTICS_WRITING_DATE_UTC : 2017-01-14 08:36:31 _STATISTICS_TAGS : BPS DURATION NUMBER_OF_FRAMES NUMBER_OF_BYTES DURATION : 01:31:52.640000000 NUMBER_OF_FRAMES : 516814 NUMBER_OF_BYTES : 529217536

Video ID : 1 Format : AVC Format/Info : Advanced Video Codec Format profile : [email protected] Format settings, CABAC : Yes Format settings, ReFrames : 5 frames Codec ID : V_MPEG4/ISO/AVC Duration : 1h 31mn Bit rate : 12.0 Mbps Width : 1 920 pixels Height : 804 pixels Display aspect ratio : 2.40:1 Frame rate mode : Constant Frame rate : 23.976 fps Color space : YUV Chroma subsampling : 4:2:0 Bit depth : 8 bits Scan type : Progressive Bits/(Pixel*Frame) : 0.324 Stream size : 7.51 GiB (82%) Writing library : x264 core 148 r2665kMod a01e339 Encoding settings : cabac=1 / ref=5 / deblock=1:-3:-3 / analyse=0x3:0x133 / me=umh / subme=11 / psy=1 / fade_compensate=0.00 / psy_rd=0.85:0.00 / mixed_ref=1 / me_range=48 / chroma_me=1 / trellis=2 / 8x8dct=1 / cqm=0 / deadzone=21,11 / fast_pskip=0 / chroma_qp_offset=-2 / threads=24 / lookahead_threads=4 / sliced_threads=0 / nr=0 / decimate=0 / interlaced=0 / bluray_compat=0 / constrained_intra=0 / fgo=0 / bframes=8 / b_pyramid=2 / b_adapt=2 / b_bias=0 / direct=3 / weightb=1 / open_gop=0 / weightp=2 / keyint=240 / keyint_min=24 / scenecut=40 / intra_refresh=0 / rc=2pass / mbtree=0 / bitrate=12000 / ratetol=1.0 / qcomp=0.70 / qpmin=0 / qpmax=69 / qpstep=4 / cplxblur=20.0 / qblur=0.5 / ip_ratio=1.20 / pb_ratio=1.20 / aq=3:0.80 Language : English Default : Yes Forced : No _STATISTICS_WRITING_APP : mkvmerge v7.1.0 ('Good Love') 64bit built on Jul 27 2014 13:06:55 _STATISTICS_WRITING_DATE_UTC : 2017-01-14 08:36:31 _STATISTICS_TAGS : BPS DURATION NUMBER_OF_FRAMES NUMBER_OF_BYTES DURATION : 01:31:52.674000000 NUMBER_OF_FRAMES : 132172 NUMBER_OF_BYTES : 8260578416

Audio #1 ID : 2 Format : DTS Format/Info : Digital Theater Systems Mode : 16 Format settings, Endianness : Big Codec ID : A_DTS Duration : 1h 31mn Bit rate mode : Constant Bit rate : 768 Kbps Channel(s) : 6 channels Channel positions : Front: L C R, Side: L R, LFE Sampling rate : 48.0 KHz Bit depth : 24 bits Compression mode : Lossy Stream size : 505 MiB (5%) Language : Russian Default : Yes Forced : No

Audio #2 ID : 3 Format : DTS Format/Info : Digital Theater Systems Mode : 16 Format settings, Endianness : Big Codec ID : A_DTS Duration : 1h 31mn Bit rate mode : Constant Bit rate : 1 509 Kbps Channel(s) : 6 channels Channel positions : Front: L C R, Side: L R, LFE Sampling rate : 48.0 KHz Bit depth : 24 bits Compression mode : Lossy Stream size : 992 MiB (11%) Language : English Default : No Forced : No

Text #1 ID : 4 Format : UTF-8 Codec ID : S_TEXT/UTF8 Codec ID/Info : UTF-8 Plain Text Title : Forced Language : Russian Default : Yes Forced : No

Text #2 ID : 5 Format : UTF-8 Codec ID : S_TEXT/UTF8 Codec ID/Info : UTF-8 Plain Text Language : Russian Default : No Forced : No

Text #3 ID : 6 Format : UTF-8 Codec ID : S_TEXT/UTF8 Codec ID/Info : UTF-8 Plain Text Title : Forced Language : Ukrainian Default : No Forced : No

Text #4 ID : 7 Format : UTF-8 Codec ID : S_TEXT/UTF8 Codec ID/Info : UTF-8 Plain Text Language : Ukrainian Default : No Forced : No

Text #5 ID : 8 Format : UTF-8 Codec ID : S_TEXT/UTF8 Codec ID/Info : UTF-8 Plain Text Title : Forced Language : English Default : No Forced : No

Text #6 ID : 9 Format : UTF-8 Codec ID : S_TEXT/UTF8 Codec ID/Info : UTF-8 Plain Text Language : English Default : No Forced : No

Menu 00:00:00.000 : en:00:00:00.000 00:03:43.098 : en:00:03:43.098 00:07:22.400 : en:00:07:22.400 00:11:41.784 : en:00:11:41.784 00:16:04.338 : en:00:16:04.338 00:20:30.271 : en:00:20:30.271 00:25:36.326 : en:00:25:36.326 00:28:45.515 : en:00:28:45.515 00:34:20.267 : en:00:34:20.267 00:37:17.861 : en:00:37:17.861 00:40:46.110 : en:00:40:46.110 00:43:47.124 : en:00:43:47.124 00:48:14.225 : en:00:48:14.225 00:51:28.752 : en:00:51:28.752 00:54:45.991 : en:00:54:45.991 00:59:51.046 : en:00:59:51.046 01:03:44.404 : en:01:03:44.404 01:08:01.619 : en:01:08:01.619 01:11:43.758 : en:01:11:43.758 01:13:46.422 : en:01:13:46.422 01:17:03.702 : en:01:17:03.702 01:20:01.672 : en:01:20:01.672 01:22:32.531 : en:01:22:32.531 01:25:10.939 : en:01:25:10.939

mrutor.org

Скачать фильм Морган через торрент в хорошем качестве бесплатно 1080p

GeneralUnique ID : 248447723105284420613193755345929778479 (0xBAE94A7BFBA22C92A9B2DB697C6E352F)Complete name : E:\Morgan.2016.1080p.WEB-DL.Rus.Ukr.2xEng.HDCLUB.mkvFormat : MatroskaFormat version : Version 2File size : 3.63 GiBDuration : 1h 32mnOverall bit rate : 5 624 KbpsMovie name : Morgan (2016) - Release for HDCLUBEncoded date : UTC 2016-12-01 19:20:18Writing application : mkvmerge v3.4.0 ('Rapunzel') built on May 15 2010 09:38:20Writing library : libebml v0.8.0 + libmatroska v0.9.0

VideoID : 1Format : AVCFormat/Info : Advanced Video CodecFormat profile : [email protected] settings, CABAC : YesFormat settings, ReFrames : 5 framesCodec ID : V_MPEG4/ISO/AVCDuration : 1h 32mnWidth : 1 916 pixelsHeight : 800 pixelsDisplay aspect ratio : 2.40:1Frame rate mode : ConstantFrame rate : 23.976 fpsColor space : YUVChroma subsampling : 4:2:0Bit depth : 8 bitsScan type : ProgressiveTitle : Morgan (2016) - Release for HDCLUBLanguage : EnglishDefault : YesForced : NoColor range : LimitedColor primaries : BT.709Transfer characteristics : BT.709Matrix coefficients : BT.709

Audio #1ID : 2Format : AC-3Format/Info : Audio Coding 3Mode extension : CM (complete main)Format settings, Endianness : BigCodec ID : A_AC3Duration : 1h 32mnBit rate mode : ConstantBit rate : 384 KbpsChannel(s) : 6 channelsChannel positions : Front: L C R, Side: L R, LFESampling rate : 48.0 KHzCompression mode : LossyStream size : 254 MiB (7%)Title : AC3 5.1 @ 384 kbps - DUB, iTunesLanguage : RussianDefault : YesForced : No

Audio #2ID : 3Format : AACFormat/Info : Advanced Audio CodecFormat profile : LCCodec ID : A_AACDuration : 1h 32mnChannel(s) : 2 channelsChannel positions : Front: L RSampling rate : 48.0 KHzCompression mode : LossyTitle : AAC 2.0 @ 160 kbps - DUB, iTunesLanguage : UkrainianDefault : NoForced : No

Audio #3ID : 4Format : AC-3Format/Info : Audio Coding 3Mode extension : CM (complete main)Format settings, Endianness : BigCodec ID : A_AC3Duration : 1h 32mnBit rate mode : ConstantBit rate : 384 KbpsChannel(s) : 6 channelsChannel positions : Front: L C R, Side: L R, LFESampling rate : 48.0 KHzCompression mode : LossyStream size : 254 MiB (7%)Title : AC3 5.1 @ 384 kbpsLanguage : EnglishDefault : NoForced : No

Audio #4ID : 5Format : AACFormat/Info : Advanced Audio CodecFormat profile : LCCodec ID : A_AACDuration : 1h 32mnChannel(s) : 2 channelsChannel positions : Front: L RSampling rate : 48.0 KHzCompression mode : LossyTitle : AAC 2.0 @ 160 kbps - DescriptiveLanguage : EnglishDefault : NoForced : No

Text #1ID : 6Format : UTF-8Codec ID : S_TEXT/UTF8Codec ID/Info : UTF-8 Plain TextTitle : Forced, iTunesLanguage : RussianDefault : YesForced : No

Text #2ID : 7Format : UTF-8Codec ID : S_TEXT/UTF8Codec ID/Info : UTF-8 Plain TextTitle : iTunesLanguage : RussianDefault : NoForced : No

Text #3ID : 8Format : UTF-8Codec ID : S_TEXT/UTF8Codec ID/Info : UTF-8 Plain TextTitle : Forced, iTunesLanguage : UkrainianDefault : NoForced : No

Text #4ID : 9Format : UTF-8Codec ID : S_TEXT/UTF8Codec ID/Info : UTF-8 Plain TextTitle : iTunesLanguage : UkrainianDefault : NoForced : No

Text #5ID : 10Format : UTF-8Codec ID : S_TEXT/UTF8Codec ID/Info : UTF-8 Plain TextTitle : Forced, iTunesLanguage : EnglishDefault : NoForced : No

Text #6ID : 11Format : UTF-8Codec ID : S_TEXT/UTF8Codec ID/Info : UTF-8 Plain TextTitle : iTunesLanguage : EnglishDefault : NoForced : No

Menu00:00:00.000 : en:100:03:42.806 : en:200:07:22.108 : en:300:11:41.492 : en:400:16:04.046 : en:500:20:29.978 : en:600:25:36.034 : en:700:28:45.223 : en:800:34:19.974 : en:900:37:17.568 : en:1000:40:45.817 : en:1100:43:46.831 : en:1200:48:13.931 : en:1300:51:28.458 : en:1400:54:45.696 : en:1500:59:50.751 : en:1601:03:44.109 : en:1701:08:01.324 : en:1801:11:43.462 : en:1901:13:46.126 : en:2001:17:03.406 : en:2101:20:01.375 : en:2201:22:32.234 : en:2301:25:10.642 : en:24

piratbit.ru

Скачать фильм Морган через торрент в хорошем качестве бесплатно 1080p

GeneralUnique ID : 214461792643404208123190378286062382870 (0xA157D6BE14777F46BBAECA35FCBE2F16)Complete name : F:VideoMorgan.2016.Lic.BDRip.1080p.ExKinoRay.mkvFormat : MatroskaFormat version : Version 4 / Version 2File size : 7.35 GiBDuration : 1 h 31 minOverall bit rate : 11.4 Mb/sEncoded date : UTC 2017-06-21 18:50:14Writing application : mkvmerge v12.0.0 ('Trust / Lust') 64bitWriting library : libebml v1.3.4 + libmatroska v1.4.5

VideoID : 1Format : AVCFormat/Info : Advanced Video CodecFormat profile : [email protected] settings, CABAC : YesFormat settings, ReFrames : 5 framesCodec ID : V_MPEG4/ISO/AVCDuration : 1 h 31 minBit rate : 8 720 kb/sWidth : 1 920 pixelsHeight : 804 pixelsDisplay aspect ratio : 2.40:1Frame rate mode : ConstantFrame rate : 23.976 (24000/1001) FPSColor space : YUVChroma subsampling : 4:2:0Bit depth : 8 bitsScan type : ProgressiveBits/(Pixel*Frame) : 0.236Stream size : 5.60 GiB (76%)Writing library : x264 core 148 r2699+6+41 29a38aa Yuuki [[email protected]:2:0 X86_64][GCC 5.3.0]Encoding settings : cabac=1 / ref=5 / deblock=1:-3:-3 / analyse=0x3:0x113 / me=umh / subme=11 / psy=1 / fade_compensate=0.00 / psy_rd=1.00:0.05 / mixed_ref=1 / me_range=32 / chroma_me=1 / trellis=2 / 8x8dct=1 / cqm=0 / deadzone=21,11 / fast_pskip=0 / chroma_qp_offset=-2 / threads=24 / lookahead_threads=4 / sliced_threads=0 / nr=0 / decimate=1 / interlaced=0 / bluray_compat=0 / constrained_intra=0 / fgo=0 / bframes=8 / b_pyramid=2 / b_adapt=2 / b_bias=0 / direct=3 / weightb=1 / open_gop=0 / weightp=2 / keyint=250 / keyint_min=23 / scenecut=40 / intra_refresh=0 / rc_lookahead=40 / rc=crf / mbtree=0 / crf=18.4000 / qcomp=0.60 / qpmin=0:0:0 / qpmax=69:69:69 / qpstep=4 / vbv_maxrate=50000 / vbv_bufsize=40000 / crf_max=0.0 / nal_hrd=none / filler=0 / ip_ratio=1.40 / pb_ratio=1.30 / aq=3:0.90Language : EnglishDefault : YesForced : No

Audio #1ID : 2Format : DTSFormat/Info : Digital Theater SystemsMode : 16Format settings, Endianness : BigCodec ID : A_DTSDuration : 1 h 31 minBit rate mode : ConstantBit rate : 768 kb/sChannel(s) : 6 channelsChannel positions : Front: L C R, Side: L R, LFESampling rate : 48.0 kHzFrame rate : 93.750 FPS (512 spf)Bit depth : 24 bitsCompression mode : LossyStream size : 505 MiB (7%)Title : Dub [License]Language : RussianDefault : YesForced : No

Audio #2ID : 3Format : AC-3Format/Info : Audio Coding 3Format settings, Endianness : BigCodec ID : A_AC3Duration : 1 h 31 minBit rate mode : ConstantBit rate : 448 kb/sChannel(s) : 6 channelsChannel positions : Front: L C R, Side: L R, LFESampling rate : 48.0 kHzFrame rate : 31.250 FPS (1536 spf)Bit depth : 16 bitsCompression mode : LossyStream size : 294 MiB (4%)Title : Dub [License]Language : RussianService kind : Complete MainDefault : NoForced : No

Audio #3ID : 4Format : DTSFormat/Info : Digital Theater SystemsMode : 16Format settings, Endianness : BigCodec ID : A_DTSDuration : 1 h 31 minBit rate mode : ConstantBit rate : 1 509 kb/sChannel(s) : 6 channelsChannel positions : Front: L C R, Side: L R, LFESampling rate : 48.0 kHzFrame rate : 93.750 FPS (512 spf)Bit depth : 24 bitsCompression mode : LossyStream size : 992 MiB (13%)Title : OriginalLanguage : EnglishDefault : NoForced : No

Text #1ID : 5Format : UTF-8Codec ID : S_TEXT/UTF8Codec ID/Info : UTF-8 Plain TextDuration : 1 h 29 minBit rate : 1 b/sCount of elements : 20Stream size : 950 Bytes (0%)Title : Forced [iTunes]Language : RussianDefault : YesForced : No

Text #2ID : 6Format : UTF-8Codec ID : S_TEXT/UTF8Codec ID/Info : UTF-8 Plain TextDuration : 1 h 30 minBit rate : 72 b/sCount of elements : 1101Stream size : 48.2 KiB (0%)Title : Full [iTunes]Language : RussianDefault : NoForced : No

Text #3ID : 7Format : UTF-8Codec ID : S_TEXT/UTF8Codec ID/Info : UTF-8 Plain TextDuration : 1 h 29 minBit rate : 1 b/sCount of elements : 27Stream size : 1.27 KiB (0%)Title : Forced [iTunes]Language : UkrainianDefault : NoForced : No

Text #4ID : 8Format : UTF-8Codec ID : S_TEXT/UTF8Codec ID/Info : UTF-8 Plain TextDuration : 1 h 30 minBit rate : 73 b/sCount of elements : 1103Stream size : 49.0 KiB (0%)Title : Full [iTunes]Language : UkrainianDefault : NoForced : No

Text #5ID : 9Format : UTF-8Codec ID : S_TEXT/UTF8Codec ID/Info : UTF-8 Plain TextDuration : 42 min 54 sBit rate : 1 b/sCount of elements : 14Stream size : 372 Bytes (0%)Title : ForcedLanguage : EnglishDefault : NoForced : No

Text #6ID : 10Format : UTF-8Codec ID : S_TEXT/UTF8Codec ID/Info : UTF-8 Plain TextDuration : 1 h 30 minBit rate : 43 b/sCount of elements : 1059Stream size : 29.3 KiB (0%)Title : FullLanguage : EnglishDefault : NoForced : No

Text #7ID : 11Format : UTF-8Codec ID : S_TEXT/UTF8Codec ID/Info : UTF-8 Plain TextDuration : 1 h 28 minBit rate : 54 b/sCount of elements : 1262Stream size : 35.5 KiB (0%)Title : SDHLanguage : EnglishDefault : NoForced : No

Text #8ID : 12Format : UTF-8Codec ID : S_TEXT/UTF8Codec ID/Info : UTF-8 Plain TextDuration : 1 h 29 minBit rate : 75 b/sCount of elements : 1385Stream size : 49.4 KiB (0%)Title : SDH (Colored)Language : EnglishDefault : NoForced : No

Menu00:00:00.000 : en:100:03:42.806 : en:200:07:22.108 : en:300:11:41.492 : en:400:16:04.046 : en:500:20:29.978 : en:600:25:36.034 : en:700:28:45.223 : en:800:34:19.974 : en:900:37:17.568 : en:1000:40:45.817 : en:1100:43:46.831 : en:1200:48:13.931 : en:1300:51:28.458 : en:1400:54:45.696 : en:1500:59:50.751 : en:1601:03:44.109 : en:1701:08:01.324 : en:1801:11:43.462 : en:1901:13:46.126 : en:2001:17:03.406 : en:2101:20:01.375 : en:2201:22:32.234 : en:2301:25:10.642 : en:24

piratbit.ru

«Морган» скачать торрент [2016] - 99Torrents.Club

Cюжет: Морган была уникальной девушкой, появившейся лабораторным путем, благодаря синтетическому выращиванию клеток. Этот уникальный эксперимент занял много времени, но благодаря терпению и многочисленным доработкам, дал долгожданный результат. Морган стремительно развивалась, сумев в сжатые сроки овладеть многими специальными навыками. Проектом ученых заинтересовалось правительство, направившее в лабораторию своего агента. Визит этого агента, стремившегося получше узнать Морган, совпал с ее помещением в изолятор, поскольку девушка стала вести себя неосторожно. Морган обладала не только выдающимися интеллектуальными данными, но и способностью к телекинезу. Она сбежала из изолятора, убив при этом несколько сотрудников секретного учреждения, жестоко обращавшихся с ней. Скачивайте Морган через торрент ниже.

Режиссер:

Люк Скотт

Жанры:

Фантастика ☆ Триллер ☆ Детективы ☆ Драма ☆ Ужасы

В ролях:

Кейт Мара, Аня Тейлор-Джой, Роуз Лесли, Майкл Йар, Тоби Джонс, Крис Салливан, Бойд Холбрук, Винетт Робинсон, Мишель Йео, Брайан Кокс

Премьера RU:

8 сентября 2016, «Двадцатый Век Фокс СНГ»

Премьера мир:

1 сентября 2016

 Морган скачать торрент

Морган .torrent

Морган / Morgan (2016) BDRip-AVCКачество: BDRip-AVCВидео: AVC, 1032x432 (2.40:1), 1828 kbps, 23,976 fps, 0,171 bppАудио: русский / AC3 / 5.1 / 48 kHz / 384 kbps / 16 bit Формат: MKV Продолжительность: 01:31:54 Перевод: Дубляж [iTunes] Субтитры: русские (полные + форс.)Размер файла: 1.42 GB

Скачать торрент: morgan.torrent [14,94 Kb] (cкачиваний: 18717) Морган / Morgan (2016) BDRip 1080pКачество: BDRip 1080pВидео: MPEG-4 AVC, 1920x804, 8720 Kbit/s, 23.976 fpsАудио: 48 kHz, AC3, 5.1, 384 Kbps | Дублированный | iTunes | Продолжительность: 01:31:52 Перевод: Дублированный | iTunes Субтитры: Русские (forced, full), украинские (forced, full), английскиеРазмер файла: 6.81 GB Скачать торрент: morgan.torrent [34,81 Kb] (cкачиваний: 14256) Морган / Morgan (2016) BDRip-AVC | iTunesКачество: BDRip-AVC / Morgan.2016.1080p.Blu-ray.AVC.DTS-HD.MA.7.1-HDChina Видео: 768x320 at 23.976 fps, [email protected], 1068 kbps Аудио: 48 kHz, AAC-HE, 2 ch, 64,0 kbps Формат: MKV Продолжительность: 01:31:54 Перевод: дубляж Субтитры: русские (форсированные) Размер файла: 745.05 MB Скачать торрент: morgan.torrent [15,33 Kb] (cкачиваний: 352) Морган / Morgan (2016) HDRipКачество: HDRipВидео: 720x304 (2.37:1), 23.976 fps, XviD build 73 ~1852 kbps avg, 0.35 bit/pixelАудио: 48 kHz, AC3 Dolby Digital, 3/2 (L,C,R,l,r) + LFE ch, ~384 kbps Формат: AVI Продолжительность: 01:31:52 Перевод: Профессиональный (полное дублирование) [iTunes] Субтитры: русские, форсированные - вшитыеРазмер файла: 1.44 GB Скачать торрент: morgan.torrent [15,13 Kb] (cкачиваний: 4420)

Скачать Морган в хорошем качестве (HD720, 1080p, HDRip, BDRip)

Поиск торрент раздач, пожалуйста подождите!

99torrents.club

Скачать фильм Морган через торрент в хорошем качестве бесплатно 1080p

GeneralUnique ID : 224627218140524630703656827964194184943 (0xA8FDA0EA3BD9BBF3B8263A8521B25EEF)Complete name : F:VideoMorgan.2016.Lic.BDREMUX.1080p.ExKinoRay.mkvFormat : MatroskaFormat version : Version 4 / Version 2File size : 21.2 GiBDuration : 1 h 31 minOverall bit rate mode : VariableOverall bit rate : 33.0 Mb/sEncoded date : UTC 2017-06-21 19:07:03Writing application : mkvmerge v12.0.0 ('Trust / Lust') 64bitWriting library : libebml v1.3.4 + libmatroska v1.4.5

VideoID : 1Format : AVCFormat/Info : Advanced Video CodecFormat profile : [email protected] settings, CABAC : YesFormat settings, ReFrames : 4 framesCodec ID : V_MPEG4/ISO/AVCDuration : 1 h 31 minBit rate mode : VariableBit rate : 27.6 Mb/sMaximum bit rate : 29.5 Mb/sWidth : 1 920 pixelsHeight : 1 080 pixelsDisplay aspect ratio : 16:9Frame rate mode : ConstantFrame rate : 23.976 (24000/1001) FPSColor space : YUVChroma subsampling : 4:2:0Bit depth : 8 bitsScan type : ProgressiveBits/(Pixel*Frame) : 0.556Stream size : 17.7 GiB (84%)Language : EnglishDefault : NoForced : No

Audio #1ID : 2Format : DTSFormat/Info : Digital Theater SystemsMode : 16Format settings, Endianness : BigCodec ID : A_DTSDuration : 1 h 31 minBit rate mode : ConstantBit rate : 768 kb/sChannel(s) : 6 channelsChannel positions : Front: L C R, Side: L R, LFESampling rate : 48.0 kHzFrame rate : 93.750 FPS (512 spf)Bit depth : 24 bitsCompression mode : LossyStream size : 505 MiB (2%)Title : Dub [License]Language : RussianDefault : YesForced : No

Audio #2ID : 3Format : DTSFormat/Info : Digital Theater SystemsFormat profile : MA / CoreMode : 16Format settings, Endianness : BigCodec ID : A_DTSDuration : 1 h 31 minBit rate mode : Variable / ConstantBit rate : 4 611 kb/s / 1 509 kb/sChannel(s) : 8 channels / 6 channelsChannel positions : Front: L C R, Side: L R, Back: L R, LFE / Front: L C R, Side: L R, LFESampling rate : 48.0 kHzFrame rate : 93.750 FPS (512 spf)Bit depth : 24 bitsCompression mode : Lossless / LossyStream size : 2.96 GiB (14%)Title : OriginalLanguage : EnglishDefault : NoForced : No

Text #1ID : 4Format : UTF-8Codec ID : S_TEXT/UTF8Codec ID/Info : UTF-8 Plain TextDuration : 1 h 29 minBit rate : 1 b/sCount of elements : 20Stream size : 950 Bytes (0%)Title : Forced [iTunes]Language : RussianDefault : YesForced : No

Text #2ID : 5Format : UTF-8Codec ID : S_TEXT/UTF8Codec ID/Info : UTF-8 Plain TextDuration : 1 h 30 minBit rate : 72 b/sCount of elements : 1101Stream size : 48.2 KiB (0%)Title : Full [iTunes]Language : RussianDefault : NoForced : No

Text #3ID : 6Format : UTF-8Codec ID : S_TEXT/UTF8Codec ID/Info : UTF-8 Plain TextDuration : 1 h 29 minBit rate : 1 b/sCount of elements : 27Stream size : 1.27 KiB (0%)Title : Forced [iTunes]Language : UkrainianDefault : NoForced : No

Text #4ID : 7Format : UTF-8Codec ID : S_TEXT/UTF8Codec ID/Info : UTF-8 Plain TextDuration : 1 h 30 minBit rate : 73 b/sCount of elements : 1103Stream size : 49.0 KiB (0%)Title : Full [iTunes]Language : UkrainianDefault : NoForced : No

Text #5ID : 8Format : UTF-8Codec ID : S_TEXT/UTF8Codec ID/Info : UTF-8 Plain TextDuration : 42 min 54 sBit rate : 1 b/sCount of elements : 14Stream size : 372 Bytes (0%)Title : ForcedLanguage : EnglishDefault : NoForced : No

Text #6ID : 9Format : UTF-8Codec ID : S_TEXT/UTF8Codec ID/Info : UTF-8 Plain TextDuration : 1 h 30 minBit rate : 43 b/sCount of elements : 1059Stream size : 29.3 KiB (0%)Title : FullLanguage : EnglishDefault : NoForced : No

Text #7ID : 10Format : UTF-8Codec ID : S_TEXT/UTF8Codec ID/Info : UTF-8 Plain TextDuration : 1 h 28 minBit rate : 54 b/sCount of elements : 1262Stream size : 35.5 KiB (0%)Title : SDHLanguage : EnglishDefault : NoForced : No

Text #8ID : 11Format : UTF-8Codec ID : S_TEXT/UTF8Codec ID/Info : UTF-8 Plain TextDuration : 1 h 29 minBit rate : 75 b/sCount of elements : 1385Stream size : 49.4 KiB (0%)Title : SDH (Colored)Language : EnglishDefault : NoForced : No

Menu00:00:00.000 : en:100:03:42.806 : en:200:07:22.108 : en:300:11:41.492 : en:400:16:04.046 : en:500:20:29.978 : en:600:25:36.034 : en:700:28:45.223 : en:800:34:19.974 : en:900:37:17.568 : en:1000:40:45.817 : en:1100:43:46.831 : en:1200:48:13.931 : en:1300:51:28.458 : en:1400:54:45.696 : en:1500:59:50.751 : en:1601:03:44.109 : en:1701:08:01.324 : en:1801:11:43.462 : en:1901:13:46.126 : en:2001:17:03.406 : en:2101:20:01.375 : en:2201:22:32.234 : en:2301:25:10.642 : en:24

piratbit.ru


Смотрите также