Мария антуанетта скачать торрент в хорошем качестве


Скачать фильм Мария-Антуанетта (2005) через торрент

gig-torrent.net

25 августа 2016 06:00 Мария-Антуанетта / Marie Antoinette (2006) BDRip 1080p от NNNB | P, A .torrent   [Информация о файле (нажмите для просмотра)] Перевод: Профессиональный многоголосый [Лицензия, R5], Авторский (одноголосый)[Юрий Немахов]Качество: BDRip 1080pФормат: AVC (библиотека кодирования x.264)Видео: 1920x1080, 11706 Кбит/сек, 24 кадр/сек, 0,235 Бит/[Пиксели*Кадры]Аудио №1: русский / AC3 / 5.1 / 48 kHz / 448 kbps / 16 bit|Профессиональный многоголосый [Лицензия, R5]| Аудио №2: русский / AC3 / 5.1 / 48 kHz / 640 kbps / 16 bit|Авторский (одноголосый)[Юрий Немахов]| Аудио №3: английский / AC3 / 5.1 / 48 kHz / 640 kbps / 16 bitСубтитры: русские, английские 11,5 Gb 15 7
25 августа 2016 06:00 Мария-Антуанетта / Marie Antoinette (2006) BDRip 720p от HDClub | P, A .torrent   [Информация о файле (нажмите для просмотра)] Перевод: Кодек: H.264Качество: BDRip 720pВидео: 1280x720 at 24.000 fps (True24p), [email protected], crf, ~9510 kbps avgАудио#1: Russian: 48 kHz, AC3, 3/2 (L,C,R,l,r) + LFE ch, ~448.00 kbps avg |Многоголосый закадровый, R5|Аудио#2: Russian: 48 kHz, DTS, 3/2 (L,C,R,l,r) + LFE ch, ~1509.00 kbps avg |Одноголосый закадровый, Юрий Немахов|Аудио#3: English: 48 kHz, DTS, 3/2 (L,C,R,l,r) + LFE ch, ~1509.00 kbps avg |Оригинал|Субтитры: Russian (Full), English (Full), French 11,34 Gb 3 1
25 августа 2016 06:00 Мария-Антуанетта / Marie Antoinette (2006) BDRip от HQCLUB .torrent   [Информация о файле (нажмите для просмотра)] Перевод: Профессиональный (многоголосый, закадровый) R5 +Авторский одноголосый Ю.НемаховСубтитры: Русские, Английские, Французские (внешние srt*)Формат: AVIКачество: BDRip (источник / BD-Remux / 1080p)Видео: 704x400 (1.76:1), 24 fps, XviD build 65 ~ 2089 kbps avg, 0.31 bit/pixelАудио #1: 48 kHz, AC3 Dolby Digital, 3/2 (L,C,R,l,r) + LFE ch, ~448.00 kbps avgАудио #2: 48 kHz, AC3 Dolby Digital, 3/2 (L,C,R,l,r) + LFE ch, ~448.00 kbps avg(отдельно, http)Аудио #3: 48 kHz, AC3 Dolby Digital, 3/2 (L,C,R,l,r) + LFE ch, ~448.00 kbps avg(отдельно, http) 2,18 Gb 32 2
25 августа 2016 06:00 Мария-Антуанетта / Marie Antoinette (2006) HDRip от Scarabey | Р .torrent   [Информация о файле (нажмите для просмотра)] Перевод: Профессиональный (многоголосый, закадровый)Качество: HDRipФормат: AVIВидео: 592x336 (1.76:1), 24 fps, XviD build 73 ~712 kbps avg, 0.15 bit/pixelАудио: 48 kHz, MPEG Layer 3, 2 ch, ~128.00 kbps avg 745,37 Mb 8 2
25 августа 2016 06:00 Мария-Антуанетта / Marie Antoinette (2006) HDRip от Scarabey | Р .torrent   [Информация о файле (нажмите для просмотра)] Перевод: Профессиональный (многоголосый, закадровый)Качество: HDRipФормат: AVIВидео: 688x384 (1.79:1), 24 fps, XviD build 73 ~1488 kbps avg, 0.23 bit/pixelАудио: 48 kHz, AC3 Dolby Digital, 2/0 (L,R) ch, ~192.00 kbps avg 1,45 Gb 18 7
25 августа 2016 06:00 Мария-Антуанетта / Marie Antoinette (2006) BDRip-AVC от olegek70 | P, A .torrent   [Информация о файле (нажмите для просмотра)] Перевод: Профессиональный многоголосый (R5) / Авторский одноголосый (Ю.Немахов)Кодек: MKV, H.264Качество: BDRip-AVC (Blu-Ray Remux 1080р))Видео: MPEG-4 AVC, 3200 Кбит/с, 1024х576Звук: Русский (ПМ / АО), английский (АС3, 6 ch, 448 Кбит/с) 3,9 Gb 10 2
25 августа 2016 06:00 Мария-Антуанетта / Marie Antoinette (2006) HDTVRip от HQ-ViDEO .torrent   2,18 Gb 3 1

Скачать торрент Мария-Антуанетта / Marie Antoinette (2006) BDRip 1080p от NNNB

Мария-Антуанетта / Marie Antoinette «Let Them Eat Cake» Русское название: Мария-Антуанетта Оригинальное название: Marie Antoinette Год выпуска: 2006 Жанр: драма, биография, история Выпущено: США, Франция, Япония Режиссер: София Коппола В ролях: Кирстен Данст , Джейсон Шварцман , Джуди Дэвис , Рип Торн , Роуз Бирн , Азия Ардженто , Молли Шеннон , Ширли Хендерсон , Дэнни Хьюстон , Марианна Фэйтфулл , Мэри Найи , Себастьян Арместо Перевод: Профессиональный многоголосый [Лицензия, R5], Авторский (одноголосый)[Юрий Немахов] Сюжет фильма: Блестящая и трагическая судьба французской королевы Марии-Антуанетты будет всегда изумлять и ужасать потомков. Беззаботное детство в семье отца, императора Австрии. Ранний брак в 15 лет - и с кем! - с наследником самого Людовика XV! Вступление на французский трон в 19 и полная бесконечных развлечений молодость среди роскоши Версаля. И, наконец, внезапная, ужасная смерть на гильотине под улюлюканье парижской черни. Историки говорят, что Мария-Антуанетта поплатилась головой за то, что ненавидела и не понимала простой народ. Но тогда придется признать, что эта остроумная и незаурядная женщина была примитивной стервой! У авторов данного фильма есть другая версия, которая призвана пролить свет на все темные места биографии самой знаменитой королевы в истории Франции...

- Оскар, 2007 год за Лучшие костюмы.

Качество: BDRip 1080p Формат: AVC (библиотека кодирования x.264) Контейнер (Расширение): MKV Видео: 1920x1080, 11706 Кбит/сек, 24 кадр/сек, 0,235 Бит/[Пиксели*Кадры] Аудио №1: русский / AC3 / 5.1 / 48 kHz / 448 kbps / 16 bit |Профессиональный многоголосый [Лицензия, R5]| Аудио №2: русский / AC3 / 5.1 / 48 kHz / 640 kbps / 16 bit |Авторский (одноголосый)[Юрий Немахов]| Аудио №3: английский / AC3 / 5.1 / 48 kHz / 640 kbps / 16 bit Субтитры: русские, английские Навигация по главам(Чаптеры): есть Продолжительность: 02:02:35

MediaInfo

Format : Matroska Format version : Version 2 File size : 11.5 GiB Duration : 2h 2mn Overall bit rate : 13.4 Mbps Movie name : Marie Antoinette.(2006).BDRip.1080p.[denis100] Encoded date : UTC 2016-01-18 14:39:02 Writing application : mkvmerge v5.8.0 ('No Sleep / Pillow') built on Sep 2 2012 15:37:04 Writing library : libebml v1.2.3 + libmatroska v1.3.0

Video ID : 1 Format : AVC Format/Info : Advanced Video Codec Format profile : [email protected] Format settings, CABAC : Yes Format settings, ReFrames : 4 frames Codec ID : V_MPEG4/ISO/AVC Duration : 2h 2mn Bit rate : 11.7 Mbps Width : 1 920 pixels Height : 1 080 pixels Display aspect ratio : 16:9 Frame rate : 24.000 fps Color space : YUV Chroma subsampling : 4:2:0 Bit depth : 8 bits Scan type : Progressive Bits/(Pixel*Frame) : 0.235 Stream size : 9.79 GiB (85%) Title : Marie Antoinette.(2006).BDRip.1080p.[denis100].NNNB Writing library : x264 core 148 r2638 7599210 Encoding settings : cabac=1 / ref=4 / deblock=1:-3:-3 / analyse=0x3:0x133 / me=umh / subme=11 / psy=1 / psy_rd=1.00:0.10 / mixed_ref=1 / me_range=32 / chroma_me=1 / trellis=2 / 8x8dct=1 / cqm=0 / deadzone=21,11 / fast_pskip=0 / chroma_qp_offset=-3 / threads=6 / lookahead_threads=1 / sliced_threads=0 / nr=0 / decimate=1 / interlaced=0 / bluray_compat=0 / constrained_intra=0 / bframes=8 / b_pyramid=2 / b_adapt=2 / b_bias=0 / direct=3 / weightb=1 / open_gop=0 / weightp=2 / keyint=250 / keyint_min=24 / scenecut=40 / intra_refresh=0 / rc=2pass / mbtree=0 / bitrate=11706 / ratetol=1.0 / qcomp=0.60 / qpmin=0 / qpmax=69 / qpstep=4 / cplxblur=20.0 / qblur=0.5 / ip_ratio=1.40 / pb_ratio=1.30 / aq=1:0.80 Language : English Default : Yes Forced : No

Audio #1 ID : 2 Format : AC-3 Format/Info : Audio Coding 3 Mode extension : CM (complete main) Codec ID : A_AC3 Duration : 2h 2mn Bit rate mode : Constant Bit rate : 448 Kbps Channel(s) : 6 channels Channel positions : Front: L C R, Side: L R, LFE Sampling rate : 48.0 KHz Bit depth : 16 bits Compression mode : Lossy Stream size : 393 MiB (3%) Title : MVO, R5 Language : Russian Default : Yes Forced : No

Audio #2 ID : 3 Format : AC-3 Format/Info : Audio Coding 3 Mode extension : CM (complete main) Codec ID : A_AC3 Duration : 2h 2mn Bit rate mode : Constant Bit rate : 640 Kbps Channel(s) : 6 channels Channel positions : Front: L C R, Side: L R, LFE Sampling rate : 48.0 KHz Bit depth : 16 bits Compression mode : Lossy Stream size : 561 MiB (5%) Title : AVO, Nemahov Language : Russian Default : No Forced : No

Audio #3 ID : 4 Format : AC-3 Format/Info : Audio Coding 3 Mode extension : CM (complete main) Codec ID : A_AC3 Duration : 2h 2mn Bit rate mode : Constant Bit rate : 640 Kbps Channel(s) : 6 channels Channel positions : Front: L C R, Side: L R, LFE Sampling rate : 48.0 KHz Bit depth : 16 bits Compression mode : Lossy Stream size : 561 MiB (5%) Language : English Default : No Forced : No

Text #1 ID : 5 Format : UTF-8 Codec ID : S_TEXT/UTF8 Codec ID/Info : UTF-8 Plain Text Language : Russian Default : No Forced : No

Text #2 ID : 6 Format : UTF-8 Codec ID : S_TEXT/UTF8 Codec ID/Info : UTF-8 Plain Text Language : English Default : No Forced : No

Menu 00:00:00.000 : en:00:00:00.000 00:02:10.292 : en:00:02:10.292 00:08:07.875 : en:00:08:07.875 00:16:57.083 : en:00:16:57.083 00:22:48.083 : en:00:22:48.083 00:27:51.500 : en:00:27:51.500 00:35:47.083 : en:00:35:47.083 00:43:02.500 : en:00:43:02.500 00:50:29.375 : en:00:50:29.375 00:55:32.167 : en:00:55:32.167 01:05:12.292 : en:01:05:12.292 01:12:12.625 : en:01:12:12.625 01:18:35.583 : en:01:18:35.583 01:26:05.708 : en:01:26:05.708 01:29:13.667 : en:01:29:13.667 01:38:48.375 : en:01:38:48.375 01:44:02.333 : en:01:44:02.333 01:49:09.750 : en:01:49:09.750 01:52:30.625 : en:01:52:30.625 01:55:32.083 : en:01:55:32.083

x264

x264 [info]: frame I:1154 Avg QP:18.83 size:215314 x264 [info]: frame P:45800 Avg QP:20.18 size: 97565 x264 [info]: frame B:129568 Avg QP:22.36 size: 46645 x264 [info]: consecutive B-frames: 5.4% 3.7% 13.4% 18.6% 20.8% 29.9% 4.7% 3.2% 0.3%

m-torrent.org

Скачать фильм Мария-Антуанетта через торрент в хорошем качестве бесплатно BDRip

ОбщееПолное имя : E:Фильмы МMarie Antoinette.2006.BDRip.2XRus.Eng.aviФормат : AVIФормат/Информация : Audio Video InterleaveПрофиль формата : OpenDMLРазмер файла : 2,19 ГбайтПродолжительность : 2 ч. 2 м.Общий поток : 2558 Кбит/секПрограмма кодирования : VirtualDubModRus 1.5.10.2 (build 2542/release)Библиотека кодирования : VirtualDubMod build 2542/release

ВидеоИдентификатор : 0Формат : MPEG-4 VisualПрофиль формата : Advanced [email protected]Параметр BVOP формата : 1Параметр QPel формата : НетПараметр GMC формата : Без точки переходаПараметр матрицы формата : ВыборочнаяРежим смешивания : Сжатый битовый потокИдентификатор кодека : XVIDИдентификатор кодека/Подсказка : XviDПродолжительность : 2 ч. 2 м.Битрейт : 1766 Кбит/секШирина : 720 пикселейВысота : 400 пикселейСоотношение сторон : 16:9Частота кадров : 24,000 кадра/секЦветовое пространство : YUVСубдискретизация насыщенности : 4:2:0Битовая глубина : 8 битТип развёртки : ПрогрессивнаяМетод сжатия : С потерямиБит/(Пиксели*Кадры) : 0.256Размер потока : 1,51 Гбайт (69%)Библиотека кодирования : XviD 65

Аудио #1Идентификатор : 1Формат : AC-3Формат/Информация : Audio Coding 3Расширение режима : CM (complete main)Параметр Endianness формата : BigИдентификатор кодека : 2000Продолжительность : 2 ч. 2 м.Вид битрейта : ПостоянныйБитрейт : 384 Кбит/секКаналы : 6 каналовРасположение каналов : Front: L C R, Side: L R, LFEЧастота : 48,0 КГцБитовая глубина : 16 битМетод сжатия : С потерямиРазмер потока : 337 Мбайт (15%)Выравнивание : Разделение по промежуткамПродолжительность промежутка : 42 мс. (1,00 видеокадр)Время предзагрузки промежутка : 500 мс.Заголовок : Профессиональный (многоголосый закадровый) R5

Аудио #2Идентификатор : 2Формат : AC-3Формат/Информация : Audio Coding 3Расширение режима : CM (complete main)Параметр Endianness формата : BigИдентификатор кодека : 2000Продолжительность : 2 ч. 2 м.Вид битрейта : ПостоянныйБитрейт : 192 Кбит/секКаналы : 2 каналаРасположение каналов : Front: L RЧастота : 48,0 КГцБитовая глубина : 16 битМетод сжатия : С потерямиРазмер потока : 168 Мбайт (8%)Выравнивание : Разделение по промежуткамПродолжительность промежутка : 42 мс. (1,00 видеокадр)Время предзагрузки промежутка : 500 мс.Заголовок : Профессиональный (одноголосый закадровый) Ю.Немахов

Аудио #3Идентификатор : 3Формат : AC-3Формат/Информация : Audio Coding 3Расширение режима : CM (complete main)Параметр Endianness формата : BigИдентификатор кодека : 2000Продолжительность : 2 ч. 2 м.Вид битрейта : ПостоянныйБитрейт : 192 Кбит/секКаналы : 2 каналаРасположение каналов : Front: L RЧастота : 48,0 КГцБитовая глубина : 16 битМетод сжатия : С потерямиРазмер потока : 168 Мбайт (8%)Выравнивание : Разделение по промежуткамПродолжительность промежутка : 42 мс. (1,00 видеокадр)Время предзагрузки промежутка : 500 мс.Заголовок : Оригинал (Английский)

piratbit.ru

Мария-Антуанетта 2006 - скачать бесплатно через торрент в хорошем качестве. Без регистрации

www.kinovit.net

Название: Мария-Антуанетта / Marie Antoinette (2006) BDRip 1080p от NNNB | P, A
Качество видео: BDRip 1080p
Перевод: Профессиональный многоголосый [Лицензия, R5], Авторский (одноголосый)[Юрий Немахов]
Формат видео: AVC (библиотека кодирования x.264)
Видео: 1920x1080, 11706 Кбит/сек, 24 кадр/сек, 0,235 Бит/[Пиксели*Кадры]
Аудио: русский / AC3 / 5.1 / 48 kHz / 448 kbps / 16 bit |Профессиональный многоголосый [Лицензия, R5]|русский / AC3 / 5.1 / 48 kHz / 640 kbps / 16 bit |Авторский (одноголосый)[Юрий Немахов]|английский / AC3 / 5.1 / 48 kHz / 640 kbps / 16 bit
Скачать

Загрузка начнется в течение 5 сек.

11.50 GB

Название: Мария-Антуанетта / Marie Antoinette (2006) BDRip 720p от HDClub | P, A
Качество видео: BDRip 720p
Видео: H.264 1280x720 at 24.000 fps (True24p), [email protected], crf, ~9510 kbps avg
Аудио: Russian: 48 kHz, AC3, 3/2 (L,C,R,l,r) + LFE ch, ~448.00 kbps avg |Многоголосый закадровый, R5|Russian: 48 kHz, DTS, 3/2 (L,C,R,l,r) + LFE ch, ~1509.00 kbps avg |Одноголосый закадровый, Юрий Немахов|English: 48 kHz, DTS, 3/2 (L,C,R,l,r) + LFE ch, ~1509.00 kbps avg |Оригинал|
Скачать

Загрузка начнется в течение 5 сек.

11.34 GB

Название: Мария-Антуанетта / Marie Antoinette (2006) BDRip от HQCLUB
Качество видео: BDRip (источник: / BD-Remux / 1080p)
Перевод: Профессиональный (многоголосый, закадровый) R5 + Авторский одноголосый Ю.Немахов (отдельно, http) + Оригинальная звуковая дорожка (отдельно, http)
Формат видео: AVI
Видео: 704x400 (1.76:1), 24 fps, XviD build 65 ~ 2089 kbps avg, 0.31 bit/pixel
Аудио: 48 kHz, AC3 Dolby Digital, 3/2 (L,C,R,l,r) + LFE ch, ~448.00 kbps avg48 kHz, AC3 Dolby Digital, 3/2 (L,C,R,l,r) + LFE ch, ~448.00 kbps avg (отдельно, http)48 kHz, AC3 Dolby Digital, 3/2 (L,C,R,l,r) + LFE ch, ~448.00 kbps avg (отдельно, http)
Скачать

Загрузка начнется в течение 5 сек.

2.18 GB

Название: Мария-Антуанетта / Marie Antoinette (2006) HDRip от Scarabey | Р
Качество видео: HDRip
Перевод: Профессиональный (многоголосый, закадровый)
Формат видео: AVI
Видео: 592x336 (1.76:1), 24 fps, XviD build 73 ~712 kbps avg, 0.15 bit/pixel
Аудио: 48 kHz, MPEG Layer 3, 2 ch, ~128.00 kbps avg
Скачать

Загрузка начнется в течение 5 сек.

745.37 MB

Название: Мария-Антуанетта / Marie Antoinette (2006) HDRip от Scarabey | Р
Качество видео: HDRip
Перевод: Профессиональный (многоголосый, закадровый)
Формат видео: AVI
Видео: 688x384 (1.79:1), 24 fps, XviD build 73 ~1488 kbps avg, 0.23 bit/pixel
Аудио: 48 kHz, AC3 Dolby Digital, 2/0 (L,R) ch, ~192.00 kbps avg
Скачать

Загрузка начнется в течение 5 сек.

1.45 GB

Название: Мария-Антуанетта / Marie Antoinette (2006) BDRip-AVC от olegek70 | P, A
Качество видео: BDRip-AVC (Blu-Ray Remux 1080р))
Перевод: Профессиональный многоголосый (R5) / Авторский одноголосый (Ю.Немахов)
Видео: MKV, H.264 MPEG-4 AVC, 3200 Кбит/с, 1024х576
Аудио: Русский (ПМ / АО), английский (АС3, 6 ch, 448 Кбит/с)
Скачать

Загрузка начнется в течение 5 сек.

3.90 GB

Название: Мария-Антуанетта / Marie Antoinette (2006) BDRip от Rulya74
Качество видео: BDRip
Перевод: Профессиональный (многоголосый закадровый) R5 + Профессиональный (одноголосый закадровый) Ю.Немахов + Оригинал (Английский)
Видео: XVID 720х400, 24,000 fps, 1766 kbps, 0.256 bit/pixel
Аудио: 48 kHz, AC3 5.1, 384.00 kbps / Профессиональный (многоголосый закадровый) R548 kHz, AC3 2.0, 192.00 kbps / Авторский (одноголосый закадровый) Ю.Немахов48 kHz, AC3 2.0, 192.00 kbps / Оригинал (Английский)
Скачать

Загрузка начнется в течение 5 сек.

2.19 GB

Скачать фильм Мария-Антуанетта через торрент в хорошем качестве бесплатно BDRip-AVC

Complete name : D:VideoMarija.Antuanetta.2006.x264.BDRip.(AVC).olegek70.mkvFormat : MatroskaFormat version : Version 1File size : 3.90 GiBDuration : 2h 2mnOverall bit rate : 4 551 KbpsEncoded date : UTC 2013-01-06 15:39:41Writing application : mkvmerge v2.1.0 ('Another Place To Fall') built on Aug 19 2007 13:40:07Writing library : libebml v0.7.7 + libmatroska v0.8.1

VideoID : 1Format : AVCFormat/Info : Advanced Video CodecFormat profile : [email protected] settings, CABAC : YesFormat settings, ReFrames : 8 framesCodec ID : V_MPEG4/ISO/AVCDuration : 2h 2mnBit rate : 3 200 KbpsWidth : 1 024 pixelsHeight : 576 pixelsDisplay aspect ratio : 16:9Frame rate : 24.000 fpsColor space : YUVChroma subsampling : 4:2:0Bit depth : 8 bitsScan type : ProgressiveBits/(Pixel*Frame) : 0.226Stream size : 2.67 GiB (68%)Writing library : x264 core 115 r1937 aa21558Encoding settings : cabac=1 / ref=8 / deblock=1:-2:-2 / analyse=0x3:0x113 / me=umh / subme=8 / psy=1 / psy_rd=1.00:0.10 / mixed_ref=0 / me_range=32 / chroma_me=1 / trellis=2 / 8x8dct=1 / cqm=0 / deadzone=21,11 / fast_pskip=1 / chroma_qp_offset=-3 / threads=6 / sliced_threads=0 / nr=0 / decimate=1 / interlaced=0 / bluray_compat=0 / constrained_intra=0 / bframes=8 / b_pyramid=2 / b_adapt=2 / b_bias=0 / direct=3 / weightb=1 / open_gop=0 / weightp=0 / keyint=250 / keyint_min=23 / scenecut=40 / intra_refresh=0 / rc_lookahead=30 / rc=2pass / mbtree=1 / bitrate=3200 / ratetol=1.0 / qcomp=0.60 / qpmin=15 / qpmax=47 / qpstep=3 / cplxblur=20.0 / qblur=0.5 / ip_ratio=1.40 / aq=1:1.10Language : EnglishDefault : YesForced : No

Audio #1ID : 2Format : AC-3Format/Info : Audio Coding 3Mode extension : CM (complete main)Format settings, Endianness : BigCodec ID : A_AC3Duration : 2h 2mnBit rate mode : ConstantBit rate : 448 KbpsChannel(s) : 6 channelsChannel positions : Front: L C R, Side: L R, LFESampling rate : 48.0 KHzBit depth : 16 bitsCompression mode : LossyStream size : 393 MiB (10%)Title : Профессиональный многоголосый (R5)Language : RussianDefault : YesForced : No

Audio #2ID : 3Format : AC-3Format/Info : Audio Coding 3Mode extension : CM (complete main)Format settings, Endianness : BigCodec ID : A_AC3Duration : 2h 2mnBit rate mode : ConstantBit rate : 448 KbpsChannel(s) : 6 channelsChannel positions : Front: L C R, Side: L R, LFESampling rate : 48.0 KHzBit depth : 16 bitsCompression mode : LossyStream size : 393 MiB (10%)Title : Авторский одноголосый (Ю.Немахов)Language : RussianDefault : NoForced : No

Audio #3ID : 4Format : AC-3Format/Info : Audio Coding 3Mode extension : CM (complete main)Format settings, Endianness : BigCodec ID : A_AC3Duration : 2h 2mnBit rate mode : ConstantBit rate : 448 KbpsChannel(s) : 6 channelsChannel positions : Front: L C R, Side: L R, LFESampling rate : 48.0 KHzBit depth : 16 bitsCompression mode : LossyStream size : 393 MiB (10%)Title : ОригиналLanguage : EnglishDefault : NoForced : No

piratbit.ru

Скачать фильм Мария-Антуанетта через торрент в хорошем качестве бесплатно 1080p от _denis_100 / NNNB] MVO (R5) + AVO (Немахов) + Original + subs (Rus

Format                                   : MatroskaFormat version                           : Version 2File size                                : 11.5 GiBDuration                                 : 2h 2mnOverall bit rate                         : 13.4 MbpsMovie name                               : Marie Antoinette.(2006).BDRip.1080p.[denis100]Encoded date                             : UTC 2016-01-18 14:39:02Writing application                      : mkvmerge v5.8.0 ('No Sleep / Pillow') built on Sep  2 2012 15:37:04Writing library                          : libebml v1.2.3 + libmatroska v1.3.0

VideoID                                       : 1Format                                   : AVCFormat/Info                              : Advanced Video CodecFormat profile                           : [email protected] settings, CABAC                   : YesFormat settings, ReFrames                : 4 framesCodec ID                                 : V_MPEG4/ISO/AVCDuration                                 : 2h 2mnBit rate                                 : 11.7 MbpsWidth                                    : 1 920 pixelsHeight                                   : 1 080 pixelsDisplay aspect ratio                     : 16:9Frame rate                               : 24.000 fpsColor space                              : YUVChroma subsampling                       : 4:2:0Bit depth                                : 8 bitsScan type                                : ProgressiveBits/(Pixel*Frame)                       : 0.235Stream size                              : 9.79 GiB (85%)Title                                    : Marie Antoinette.(2006).BDRip.1080p.[denis100].NNNBWriting library                          : x264 core 148 r2638 7599210Encoding settings                        : cabac=1 / ref=4 / deblock=1:-3:-3 / analyse=0x3:0x133 / me=umh / subme=11 / psy=1 / psy_rd=1.00:0.10 / mixed_ref=1 / me_range=32 / chroma_me=1 / trellis=2 / 8x8dct=1 / cqm=0 / deadzone=21,11 / fast_pskip=0 / chroma_qp_offset=-3 / threads=6 / lookahead_threads=1 / sliced_threads=0 / nr=0 / decimate=1 / interlaced=0 / bluray_compat=0 / constrained_intra=0 / bframes=8 / b_pyramid=2 / b_adapt=2 / b_bias=0 / direct=3 / weightb=1 / open_gop=0 / weightp=2 / keyint=250 / keyint_min=24 / scenecut=40 / intra_refresh=0 / rc=2pass / mbtree=0 / bitrate=11706 / ratetol=1.0 / qcomp=0.60 / qpmin=0 / qpmax=69 / qpstep=4 / cplxblur=20.0 / qblur=0.5 / ip_ratio=1.40 / pb_ratio=1.30 / aq=1:0.80Language                                 : EnglishDefault                                  : YesForced                                   : No

Audio #1ID                                       : 2Format                                   : AC-3Format/Info                              : Audio Coding 3Mode extension                           : CM (complete main)Codec ID                                 : A_AC3Duration                                 : 2h 2mnBit rate mode                            : ConstantBit rate                                 : 448 KbpsChannel(s)                               : 6 channelsChannel positions                        : Front: L C R, Side: L R, LFESampling rate                            : 48.0 KHzBit depth                                : 16 bitsCompression mode                         : LossyStream size                              : 393 MiB (3%)Title                                    : MVO, R5Language                                 : RussianDefault                                  : YesForced                                   : No

Audio #2ID                                       : 3Format                                   : AC-3Format/Info                              : Audio Coding 3Mode extension                           : CM (complete main)Codec ID                                 : A_AC3Duration                                 : 2h 2mnBit rate mode                            : ConstantBit rate                                 : 640 KbpsChannel(s)                               : 6 channelsChannel positions                        : Front: L C R, Side: L R, LFESampling rate                            : 48.0 KHzBit depth                                : 16 bitsCompression mode                         : LossyStream size                              : 561 MiB (5%)Title                                    : AVO, NemahovLanguage                                 : RussianDefault                                  : NoForced                                   : No

Audio #3ID                                       : 4Format                                   : AC-3Format/Info                              : Audio Coding 3Mode extension                           : CM (complete main)Codec ID                                 : A_AC3Duration                                 : 2h 2mnBit rate mode                            : ConstantBit rate                                 : 640 KbpsChannel(s)                               : 6 channelsChannel positions                        : Front: L C R, Side: L R, LFESampling rate                            : 48.0 KHzBit depth                                : 16 bitsCompression mode                         : LossyStream size                              : 561 MiB (5%)Language                                 : EnglishDefault                                  : NoForced                                   : No

Text #1ID                                       : 5Format                                   : UTF-8Codec ID                                 : S_TEXT/UTF8Codec ID/Info                            : UTF-8 Plain TextLanguage                                 : RussianDefault                                  : NoForced                                   : No

Text #2ID                                       : 6Format                                   : UTF-8Codec ID                                 : S_TEXT/UTF8Codec ID/Info                            : UTF-8 Plain TextLanguage                                 : EnglishDefault                                  : NoForced                                   : No

Menu00:00:00.000                             : en:00:00:00.00000:02:10.292                             : en:00:02:10.29200:08:07.875                             : en:00:08:07.87500:16:57.083                             : en:00:16:57.08300:22:48.083                             : en:00:22:48.08300:27:51.500                             : en:00:27:51.50000:35:47.083                             : en:00:35:47.08300:43:02.500                             : en:00:43:02.50000:50:29.375                             : en:00:50:29.37500:55:32.167                             : en:00:55:32.16701:05:12.292                             : en:01:05:12.29201:12:12.625                             : en:01:12:12.62501:18:35.583                             : en:01:18:35.58301:26:05.708                             : en:01:26:05.70801:29:13.667                             : en:01:29:13.66701:38:48.375                             : en:01:38:48.37501:44:02.333                             : en:01:44:02.33301:49:09.750                             : en:01:49:09.75001:52:30.625                             : en:01:52:30.62501:55:32.083                             : en:01:55:32.083

piratbit.ru

Скачать фильмы Мария-Антуанетта 2006 - ТОРРЕНТИНО - торрент трекер

Название: Мария-АнтуанеттаОригинальное название: Marie Antoinette

Год выхода: 2006

Жанр: Драма ,биография ,история

Режиссер: София Коппола

В ролях:

Кирстен Данст, Джейсон Шварцман, Джуди Дэвис, Рип Торн, Роуз Бирн, Азия Ардженто, Молли Шеннон, Ширли Хендерсон, Дэнни Хьюстон, Марианна Фэйтфулл

О фильме:

Блестящая и трагическая судьба французской королевы Марии-Антуанетты будет всегда изумлять и ужасать потомков. Беззаботное детство в семье отца, императора Австрии. Ранний брак в 15 лет — и с кем! — с наследником самого Людовика XV! Вступление на французский трон в 19 и полная бесконечных развлечений молодость среди роскоши Версаля. И, наконец, внезапная, ужасная смерть на гильотине под улюлюканье парижской черни. Историки говорят, что Мария-Антуанетта поплатилась головой за то, что ненавидела и не понимала простой народ. Но тогда придется признать, что эта остроумная и незаурядная женщина была примитивной стервой! У авторов данного фильма есть другая версия, которая призвана пролить свет на все темные места биографии самой знаменитой королевы в истории Франции…

НаградыОскар, 2007 год

Победитель (1):

Лучшие костюмы

Британская академия, 2007 год

Номинации (3):

Лучшие костюмы

Лучшая работа художника-постановщика

Лучший грим/прически

Каннский кинофестиваль, 2006 год

Победитель (1):

Приз Французской системы национального образования

Номинации (1):

Золотая пальмовая ветвь

ИнтересноСофия Коппола начала писать сценарий фильма еще до «Трудностей перевода» (2003), однако черновым версиям не хватало исторической достоверности и продуманных персонажей. Поэтому София стала разрабатывать другой сценарий, которой должен был отвлечь её от «Марии-Антуанетты». Параллельный проект — камерная японскаяистория — впоследствии воплотился в «Трудности перевода» (2003), благодаря успеху которых Копполе удалось завершить «Марию-Антуанетту».

Роль Луи XV была предложена Алену Делону.

Создатели фильма получили официальное разрешение французского правительства на съёмки в Версале.

Несмотря на то, что «Зеркальный зал» Версаля находился на реконструкции, создателям фильма разрешили снимать в нём сцену свадьбы Марии-Антуанетты и Луи XVI.

София Коппола специально не читала известную биографию Марии-Антуанетты, написанную Стефаном Цвайгом. Вдохновение для сценария София черпала из другой известной биографии, написанной Антонией Фрэйзер.

Изначально Джуди Дэвис должна была исполнить роль Марии Терезы.

В 2000 году София Коппола прочитала биографию Марии-Антуанетты, написанную Эвелин Левер, приобрела права на экранизацию данной книги и попросила автора сопровождать её в экскурсии по Версалю в 2001 году. Однако, позднее Коппола предпочла использовать для фильма книгу Антонии Фрэйзер.

Маноло Бланик создал сотни эксклюзивных моделей обуви для съёмок фильма.

В одной из сцен можно заметить теннисные туфли «Converse». По словам Софии Копполы, их намерено добавили в гардероб Марии Антуанетты, для того чтобы показать её обычным подростком, несмотря на временную эпоху, когда происходят события фильма.

София Коппола доверила «Laduree» производство многочисленных тортов, пирожных и конфет, показанных в фильме.

Несколько высказываний, прозвучавших в фильме, являются дословным воспроизведением, различных моментов в жизни Марии-Антуанетты. Среди них: — Комментарий Луи XV о груди Марии-Антуанетты. — Комментарий Марии-Антуанетты о том, что у неё достаточно украшений в ответ на подарок от Мадам дю Барри; — Фраза Марии о том, что в Версале слишком много людей, во время первого разговора между Марией и Мадам дю Барри. — Комментарий Марии её мужу, Луи XVI, о том, что Луи разрешил ей устроить вечеринку, но не сказал, как долго она может продолжаться.

Мужчины, играющие на гитарах во время сцены с женщиной, поющей для Марии, являются членами группы «Phoenix», фронтмэн которой встречается с Софией Копполой и является отцом её ребенка.

В фильме, зритель видит только три ребенка Марии-Антуанетты, однако на самом деле у неё было четверо детей. В фильме мы видим её первую дочь и сына. Её первый сын умер до начала восстания, однако в фильме мы видим, как его и его маму сопровождают к карете в концовке фильма. Третий ребенок, которого зритель может увидеть в фильме, появляется всего лишь в одной сцене на картине, где изображен портрет королевской семьи. Согласно событиям фильма, это — вторая дочь Марии-Антуанетты, однако, согласно истории, это должен был быть её второй сын, который был жив на момент начала восстания.

В титрах фильма Мария-Антуанетта указана, как «Мария Антуанетта». Однако в реальной жизни её имя пишется через дефис.

Изначально София Коппола хотела, чтобы Анджелина Джоли сыргала Мадам дю Барри, однако Джоли предпочла «Ложное искушение» (2006). Затем кандидатура Кэтрин Зеты-Джонс рассматривалась на данную роль. В конце концов, Азия Ардженто сыграла дю Барри.

В фильме, Марии-Антуанетте запретили взять с собой её собачку, Мопса, когда она пересекала границу Франции. В реальной жизни, впоследствии, уже после свадьбы Марии, Мопс вернулся к своей хозяйке.

София Коппола создавала образ графа Акселя фон Ферсена (Джэми Дорнан) на основе поп-певца 1980-х Адама Анта.

София Коппола — дочь Фрэнсиса Форда Копполы. Примечательно, что в фильме сыграло множество актеров, являющихся детьми известных людей в мире кино. Например, Джейсон Шварцман — сын актрисы Талии Шайр и продюсера Джека Шварцмана; Азия Ардженто — дочь итальянского режиссера Дарио Ардженто; Мэри Найи — дочь британского актера Билла Найи; Катрин Бурман — дочь британского режиссера Джона Бурмана; Дэнни Хьюстон — сын американского режиссера Джона Хьюстона и внук актера Уолтера Хьюстона; Айо Боттомс — дочь актера Сэма Боттомса и Сьюзэн Арнольд.

Согласно историческим данным, Мария-Антуанетта встретила толпу мятежников, выйдя на балкон вместе со своей старшей дочерью.

Ближе к концовке фильма идет сцена, где принцы и принцессы по крови прощаются с королевой, включая герцогиню де Полиньяк и принцессу де Ламбаль. В реальной жизни герцогиня де Полиньяк сбежала в Швейцарию, а принцесса де Ламбаль отказалась покинуть страну и осталась вместе с королевой. Впоследствии её казнили. Её голова была насажена на кол и пронесена мимо тюремных окон, где находилась Мария-Антуанетта.

Страна: США, Франция, Япония

Студия: Columbia Pictures Corporation, Commission du Film France, Tohokushinsha Film Corp.

Продолжительность: 02:02:35

Перевод: Профессиональный многоголосый (R5) / Авторский одноголосый (Ю.Немахов)

Кодек: MKV, H.264

Качество: BDRip-AVC (Blu-Ray Remux 1080р))

Видео: MPEG-4 AVC, 3200 Кбит/с, 1024х576

Звук: Русский (ПМ / АО), английский (АС3, 6 ch, 448 Кбит/с)

Дата Релиза: 07.13.2012

www.torrentino.me


Смотрите также