Манчестер у моря скачать торрент в хорошем качестве


Скачать фильм Манчестер у моря через торрент в хорошем качестве бесплатно HDRip

piratbit.ru

Раздают: 2 [ 0 KB/s ]
Размер: 2.74 GB | Добавлен: 6 мес. назад | Торрент скачан:115 раз
Реклама Дарим 3000 рублей за регистрацию, не упусти свой шанс получить шикарный бонус!!!

22-04-2017 09:33 Манчестер у моря Скачать торрент  

Манчестер у моря / Manchester by the Sea

Год выпуска: 2016Выпущено: СШАЖанр: драмаПродолжительность: 02:17:32Перевод: Дубляж [Лицензия BD CEE]Субтитры: отсутствуют

Режиссер: Кеннет Лонерган

В ролях: Кейси Аффлек, Бен О’Брайэн, Кайл Чандлер, Ричард Донелли, Virginia Loring Cooke, Куинси Тайлер Бернстайн, Мисси Ягер, Стивен Хендерсон, Бен Хэнсон, Мэри Мэллен

Описание: Ленивый и безответственный сантехник Ли после внезапной смерти брата назначен опекуном своего племянника-подростка. Возвращение в родной город дает новый ход трагедии, сокрытой в его прошлом.

Качество: HDRipФормат: AVIВидео кодек: XvIDВидео: 720x384 (1.88:1), 23.976 fps, XviD build 50 ~1944 kbps avgАудио: 48 kHz, AC3 Dolby Digital, 6 ch, ~448 kbps [DUB]Аудио: 48 kHz, AC3 Dolby Digital, 6 ch, ~448 kbps [ENG]

Скачать Манчестер у моря через торрент http://i91.fastpic.ru/big/2017/0209/16/a733152a31cfa92571be52f377000616.jpg Скачать фильм Манчестер у моря через торрент бесплантно в хорошем качестве Описание: Ленивый и безответственный сантехник Ли после внезапной смерти брата назначен опекуном своего племянника-подростка. Возвращение в ... 2017-04-22 09:33 7 10 3

Loading...

Loading...

% Раздел Тема Автор DL S | L
Трейлеры и дополнительные материалы к фильмам [ 684 MB ] Эмоциональная Жизнь: Как Снимали Манчестер у моря / Emotional Lives - Making Manchester by the Sea [2014 Документальный BDRip 720p от _denis_100 / NNNB] VO + Original + Sub _denis_100 Скачать
Фильмы [HD 720p, 1080p] (Хороший звук DUB, MVO) [ 6.92 GB ] Манчестер у моря / Manchester by the Sea [2016 BDRip 720p от _denis_100 / NNNB] DUB + AVO + Original + Sub _denis_100 Скачать
Фильмы 2016 [DVDrip, WEB-DLRip, HDrip] (DUB, MVO) [ 2.18 GB ] Манчестер у моря / Manchester by the Sea [2016 BDRip] - [] Twi7ter Скачать
Фильмы 2016 [DVDrip, WEB-DLRip, HDrip] (DUB, MVO) [ 1.46 GB ] Манчестер у моря / Manchester by the Sea [2016 BDRip] - [] Twi7ter Скачать
Фильмы [HD 720p, 1080p] (Хороший звук DUB, MVO) [ 11.54 GB ] Манчестер у моря / Manchester by the Sea [2016 BDRip 1080p от еnvy / NNNB] DUB / еnvy Скачать
Фильмы [HD 720p, 1080p] (Хороший звук DUB, MVO) [ 4.37 GB ] Манчестер у моря / Manchester by the Sea [2016 BDRip 720p] DUB [ BD CEE] bober100 Скачать
R.G.Resident - Фильмы, Видео [ 3.74 GB ] Манчестер у моря / Manchester by the Sea [2016 BDRip-AVC ] - [] schultz Скачать

Рекламный пират

22-04-2017 10:43 Манчестер у моря Скачать торрент  

Дорогой пользователь! Огромная просьба, поблагодарите релизера, оцените раздачу и оставьте свои комментарий, если Вы скачали Манчестер у моря через торрент бесплатно! Внесите свою лепту в развитие PiratBit!

Комментировать посты могут только пользователи прошедшие не сложную регистрацию

Манчестер у моря через торрент Скачать бесплатно Манчестер у моря Манчестер у моря скачать торрент Манчестер у моря смотреть онлайн Cкачать фильм Манчестер у моря бесплатно Манчестер у моря скачать торрент в хорошем качестве Манчестер у моря смотреть онлайн бесплатно в хорошем качестве

Вы не можете начинать темыВы не можете отвечать на сообщенияВы не можете редактировать свои сообщенияВы не можете удалять свои сообщенияВы не можете голосовать в опросахВы не можете прикреплять файлы к сообщениямВы можете скачивать файлы

Скачать торрент Манчестер у моря / Manchester by the Sea (2016) BDRip 1080p | D

krutor.org

Манчестер у моря / Manchester by the Sea

Страна: США Производство: The Affleck/Middleton Project, Pearl Street Films, K Period Media, CMP, B StoryГод выпуска: 2016Жанр: драмаПродолжительность: 02:17:21

Режиссер: Кеннет ЛонерганАвтор сценария: Кеннет Лонерган

В ролях: Кейси Аффлек, Бен О’Брайэн, Кайл Чандлер, Ричард Донелли, Куинси Тайлер Бернстайн, Мисси Ягер, Стивен Хендерсон, Бен Хэнсон

Описание: Ленивый и безответственный сантехник Ли после внезапной смерти брата назначен опекуном своего племянника-подростка. Возвращение в родной город дает новый ход трагедии, сокрытой в его прошлом...

Перевод: Профессиональный (полное дублирование) + Многоголосый (украинский) | студия «Омикрон»Субтитры: русские (forced + full), английские (full)

Качество: BDRip 1080pФормат: M4VВидео кодек: AVCАудио кодек: AAC | АС3Видео №1: 1920x1040 (1.85:1), 23.976 fps, MPEG-4 AVC ~8 000 kbps avgВидео №2: 640x346 (1.85:1), 0.002 fps, MPEG-4 AVC ~841 bps avg

Аудио №1: 48.0 kHz, Advanced Audio Codec LC, 2/0 (L,R) ch, ~158 kbps | RUSАудио №2: 48.0 kHz, Advanced Audio Codec LC, 2/0 (L,R) ch, ~157 kbps | ENGАудио №3: 48.0 kHz, Advanced Audio Codec LC, 2/0 (L,R) ch, ~156 kbps | UKRАудио №4: 48.0 kHz, AC3 Dolby Digital, 3/2 (L,C,R,l,r) + LFE ch, ~640 kbps | RUSАудио №5: 48.0 kHz, AC3 Dolby Digital, 3/2 (L,C,R,l,r) + LFE ch, ~640 kbps | ENGАудио №6: 48.0 kHz, AC3 Dolby Digital, 3/2 (L,C,R,l,r) + LFE ch, ~640 kbps | UKRФормат субтитров: Timed text, Apple text

Бюджет: $8 500 000Дата премьеры (мир): 23 января 2016

Премия Оскар, 2017 год » Лучшая мужская роль (Кейси Аффлек) » Лучший сценарий Премия Золотой глобус, 2017 год » Лучшая мужская роль (драма) (Кейси Аффлек)

Media Info

General Complete name : Manchester By the Sea (1080p HD).m4v Format : MPEG-4 Codec ID : M4V File size : 9.98 GiB Duration : 2h 17mn Overall bit rate mode : Variable Overall bit rate : 10.4 Mbps Recorded date : UTC 2016-01-23 08:00:00 Encoded date : UTC 2017-04-26 12:12:38 Tagged date : UTC 2017-04-26 12:23:53 Cover : Yes Rating : None AppleStoreCatalogID : 1172433257 Vendor : Apple:vendor_id:2016-884376 ContentRating : mpaa|R|400|

Video #1 ID : 1 Format : AVC Format/Info : Advanced Video Codec Format profile : [email protected] Format settings, CABAC : Yes Format settings, ReFrames : 4 frames Codec ID : avc1 Codec ID/Info : Advanced Video Coding Duration : 2h 17mn Source duration : 2h 17mn Bit rate : 8 000 Kbps Width : 1 920 pixels Height : 1 040 pixels Display aspect ratio : 1.85:1 Frame rate mode : Variable Frame rate : 23.976 fps Minimum frame rate : 23.974 fps Maximum frame rate : 23.981 fps Color space : YUV Chroma subsampling : 4:2:0 Bit depth : 8 bits Scan type : Progressive Bits/(Pixel*Frame) : 0.167 Stream size : 7.67 GiB (77%) Source stream size : 7.67 GiB (77%) Title : Main Program Writing library : x264 core 148 r2708 86b7198 Encoding settings : cabac=1 / ref=4 / deblock=1:-2:-2 / analyse=0x3:0x133 / me=umh / subme=10 / psy=1 / psy_rd=1.00:0.15 / mixed_ref=1 / me_range=32 / chroma_me=1 / trellis=2 / 8x8dct=1 / cqm=0 / deadzone=21,11 / fast_pskip=1 / chroma_qp_offset=-3 / threads=32 / lookahead_threads=8 / sliced_threads=0 / nr=0 / decimate=0 / interlaced=0 / bluray_compat=0 / constrained_intra=0 / bframes=16 / b_pyramid=2 / b_adapt=2 / b_bias=0 / direct=3 / weightb=1 / open_gop=0 / weightp=2 / keyint=240 / keyint_min=24 / scenecut=40 / intra_refresh=0 / rc_lookahead=40 / rc=2pass / mbtree=1 / bitrate=8000 / ratetol=1.0 / qcomp=0.70 / qpmin=0 / qpmax=69 / qpstep=4 / cplxblur=20.0 / qblur=0.5 / ip_ratio=1.40 / aq=1:1.00 Language : English Encoded date : UTC 2017-04-26 12:12:38 Tagged date : UTC 2017-04-26 12:12:57 Color range : Limited Color primaries : BT.709 Transfer characteristics : BT.709 Matrix coefficients : BT.709

Video #2 ID : 12 Format : JPEG Codec ID : jpeg Duration : 2h 17mn Bit rate mode : Variable Bit rate : 841 bps Width : 640 pixels Height : 346 pixels Display aspect ratio : 1.85:1 Frame rate mode : Variable Frame rate : 0.002 fps Minimum frame rate : 0.001 fps Maximum frame rate : 0.005 fps Color space : YUV Chroma subsampling : 4:2:0 Bit depth : 8 bits Compression mode : Lossy Bits/(Pixel*Frame) : 1.899 Stream size : 1.00 MiB (0%) Title : Chapter Images Language : English Encoded date : UTC 2017-04-26 12:15:27 Tagged date : UTC 2017-04-26 12:15:28

Audio #1 ID : 2 Format : AAC Format/Info : Advanced Audio Codec Format profile : LC Codec ID : 40 Duration : 2h 17mn Bit rate mode : Variable Bit rate : 158 Kbps Maximum bit rate : 258 Kbps Channel(s) : 2 channels Channel positions : Front: L R Sampling rate : 48.0 KHz Compression mode : Lossy Stream size : 155 MiB (2%) Title : Russian Stereo Language : Russian Encoded date : UTC 2017-04-26 12:12:38 Tagged date : UTC 2017-04-26 12:12:59

Audio #2 ID : 3 Format : AAC Format/Info : Advanced Audio Codec Format profile : LC Codec ID : 40 Duration : 2h 17mn Bit rate mode : Variable Bit rate : 157 Kbps Maximum bit rate : 259 Kbps Channel(s) : 2 channels Channel positions : Front: L R Sampling rate : 48.0 KHz Compression mode : Lossy Stream size : 154 MiB (2%) Title : English Stereo Language : English Encoded date : UTC 2017-04-26 12:12:38 Tagged date : UTC 2017-04-26 12:12:59

Audio #3 ID : 4 Format : AAC Format/Info : Advanced Audio Codec Format profile : LC Codec ID : 40 Duration : 2h 17mn Bit rate mode : Variable Bit rate : 156 Kbps Maximum bit rate : 258 Kbps Channel(s) : 2 channels Channel positions : Front: L R Sampling rate : 48.0 KHz Compression mode : Lossy Stream size : 153 MiB (1%) Title : Ukrainian Stereo Language : Ukrainian Encoded date : UTC 2017-04-26 12:12:38 Tagged date : UTC 2017-04-26 12:12:59

Audio #4 ID : 5 Format : AC-3 Format/Info : Audio Coding 3 Mode extension : CM (complete main) Format settings, Endianness : Big Codec ID : ac-3 Duration : 2h 17mn Bit rate mode : Constant Bit rate : 640 Kbps Channel(s) : 6 channels Channel positions : Front: L C R, Side: L R, LFE Sampling rate : 48.0 KHz Bit depth : 16 bits Compression mode : Lossy Stream size : 629 MiB (6%) Title : Russian DD 5.1 Language : Russian Encoded date : UTC 2017-04-26 12:12:38 Tagged date : UTC 2017-04-26 12:12:53

Audio #5 ID : 6 Format : AC-3 Format/Info : Audio Coding 3 Mode extension : CM (complete main) Format settings, Endianness : Big Codec ID : ac-3 Duration : 2h 17mn Bit rate mode : Constant Bit rate : 640 Kbps Channel(s) : 6 channels Channel positions : Front: L C R, Side: L R, LFE Sampling rate : 48.0 KHz Bit depth : 16 bits Compression mode : Lossy Stream size : 629 MiB (6%) Title : English DD 5.1 Language : English Encoded date : UTC 2017-04-26 12:12:38 Tagged date : UTC 2017-04-26 12:12:53

Audio #6 ID : 7 Format : AC-3 Format/Info : Audio Coding 3 Mode extension : CM (complete main) Format settings, Endianness : Big Codec ID : ac-3 Duration : 2h 17mn Bit rate mode : Constant Bit rate : 640 Kbps Channel(s) : 6 channels Channel positions : Front: L C R, Side: L R, LFE Sampling rate : 48.0 KHz Bit depth : 16 bits Compression mode : Lossy Stream size : 630 MiB (6%) Title : Ukrainian DD 5.1 Language : Ukrainian Encoded date : UTC 2017-04-26 12:12:38 Tagged date : UTC 2017-04-26 12:12:53

Text #1 ID : 8 Format : Timed Text Muxing mode : sbtl Codec ID : tx3g Duration : 2h 17mn Bit rate mode : Variable Bit rate : 1 bps Stream size : 1.10 KiB (0%) Title : Russian forced Language : Russian Encoded date : UTC 2017-04-26 12:12:38 Tagged date : UTC 2017-04-26 12:15:17

Text #2 ID : 9 Format : Timed Text Muxing mode : sbtl Codec ID : tx3g Duration : 2h 17mn Bit rate mode : Variable Bit rate : 96 bps Stream size : 96.4 KiB (0%) Title : Russian full Language : Russian Encoded date : UTC 2017-04-26 12:12:38 Tagged date : UTC 2017-04-26 12:15:17

Text #3 ID : 10 Format : Timed Text Muxing mode : sbtl Codec ID : tx3g Duration : 2h 12mn Bit rate mode : Variable Bit rate : 68 bps Stream size : 65.3 KiB (0%) Title : English full Language : English Encoded date : UTC 2017-04-26 12:12:38 Tagged date : UTC 2017-04-26 12:15:17

Menu #1 00:00:00.000 : Chapter 1 00:03:27.332 : Chapter 2 00:16:15.892 : Chapter 3 00:26:20.746 : Chapter 4 00:34:18.640 : Chapter 5 00:45:19.008 : Chapter 6 00:53:59.737 : Chapter 7 01:04:15.518 : Chapter 8 01:11:49.472 : Chapter 9 01:20:40.377 : Chapter 10 01:28:37.229 : Chapter 11 01:34:02.053 : Chapter 12 01:39:01.477 : Chapter 13 01:45:55.724 : Chapter 14 01:50:13.482 : Chapter 15 01:54:32.699 : Chapter 16 01:58:29.769 : Chapter 17 02:02:40.103 : Chapter 18 02:07:15.128 : Chapter 19 02:12:43.956 : Chapter 20

Menu #2 ID : 11 Codec ID : text Duration : 2h 17mn Language : English Encoded date : UTC 2017-04-26 12:15:17 Tagged date : UTC 2017-04-26 12:15:17 00:00:00.000 : Chapter 1 00:03:27.332 : Chapter 2 00:16:15.892 : Chapter 3 00:26:20.746 : Chapter 4 00:34:18.640 : Chapter 5 00:45:19.008 : Chapter 6 00:53:59.737 : Chapter 7 01:04:15.518 : Chapter 8 01:11:49.472 : Chapter 9 01:20:40.377 : Chapter 10 01:28:37.229 : Chapter 11 01:34:02.053 : Chapter 12 01:39:01.477 : Chapter 13 01:45:55.724 : Chapter 14 01:50:13.482 : Chapter 15 01:54:32.699 : Chapter 16 01:58:29.769 : Chapter 17 02:02:40.103 : Chapter 18 02:07:15.128 : Chapter 19 02:12:43.956 : Chapter 20 Bit rate mode : VBR

Дополнительная информация: релиз подготовлен для просмотра на Apple TV, iPad, iPhone, iPod Touch. Для просмотра данного релиза на компьютере с ОС Windows рекомендуется использовать VLC media player

Скачать торрент Манчестер у моря / Manchester by the Sea (2016) BDRip

Манчестер у моря / Manchester by the Sea

Страна: США Производство: The Affleck/Middleton Project, Pearl Street Films, K Period Media, CMP, B StoryГод выпуска: 2016Жанр: драмаПродолжительность: 02:17:32

Режиссер: Кеннет ЛонерганАвтор сценария: Кеннет Лонерган

В ролях: Кейси Аффлек, Бен О’Брайэн, Кайл Чандлер, Ричард Донелли, Куинси Тайлер Бернстайн, Мисси Ягер, Стивен Хендерсон, Бен Хэнсон

Описание: Ленивый и безответственный сантехник Ли после внезапной смерти брата назначен опекуном своего племянника-подростка. Возвращение в родной город дает новый ход трагедии, сокрытой в его прошлом...

Перевод: отсутствует | субтитрыСубтитры: отдельными файлами | русские

Качество: BDRipФормат: AVIВидео кодек: XviDАудио кодек: АС3Видео: 720x384 (1.85:1), 23.976 fps, XviD build 67 ~1 321 kbps avgАудио: 48.0 kHz, AC3 Dolby Digital, 2/0 (L,R) ch, ~192 kbpsФормат субтитров: *SRT

Бюджет: $8 500 000Дата премьеры (мир): 23 января 2016

Дополнительная информация: релиз от dalemake, субтитры от Skuf (присутствует ненормативная лексика)

Media Info

General Полное имя : Manchester_u_morya_2016_BDRip_Sub_by_Dalemake.avi Формат : AVI Формат/Информация : Audio Video Interleave Размер файла : 1,46 Гбайт Продолжительность : 2 ч. 17 м. Общий поток : 1523 Кбит/сек Программа кодирования : VirtualDubMod 1.5.10.3 | (build 2550/release) Библиотека кодирования : VirtualDubMod build 2550/release

Видео Идентификатор : 0 Формат : MPEG-4 Visual Профиль формата : Advanced [email protected] Параметр BVOP формата : 1 Параметр QPel формата : Нет Параметр GMC формата : Без точки перехода Параметр матрицы формата : Выборочная Идентификатор кодека : XVID Идентификатор кодека/Подсказка : XviD Продолжительность : 2 ч. 17 м. Битрейт : 1321 Кбит/сек Ширина : 720 пикселей Высота : 384 пикселя Соотношение сторон : 1,85:1 Частота кадров : 23,976 кадра/сек Цветовое пространство : YUV Субдискретизация насыщенности : 4:2:0 Битовая глубина : 8 бит Тип развёртки : Прогрессивная Метод сжатия : С потерями Бит/(Пиксели*Кадры) : 0.199 Размер потока : 1,27 Гбайт (87%) Библиотека кодирования : XviD 67

Аудио Идентификатор : 1 Формат : AC-3 Формат/Информация : Audio Coding 3 Расширение режима : CM (complete main) Параметр Endianness формата : Big Идентификатор кодека : 2000 Продолжительность : 2 ч. 17 м. Вид битрейта : Постоянный Битрейт : 192 Кбит/сек Каналы : 2 канала Расположение каналов : Front: L R Частота : 48,0 КГц Битовая глубина : 16 бит Метод сжатия : С потерями Размер потока : 189 Мбайт (13%) Выравнивание : Разделение по промежуткам Продолжительность промежутка : 42 мс. (1,00 видеокадр) Время предзагрузки промежутка : 500 мс.

krutor.org

Скачать фильм Манчестер у моря через торрент в хорошем качестве бесплатно HDRip

piratbit.ru

Раздают: 5 [ 0 KB/s ]
Размер: 1.37 GB | Добавлен: 6 мес. назад | Торрент скачан:265 раз
Реклама Дарим 3000 рублей за регистрацию, не упусти свой шанс получить шикарный бонус!!!

04-04-2017 18:13 Манчестер у моря Скачать торрент  

Манчестер у моря / Manchester by the Sea

Год выпуска: 2016Выпущено: СШАЖанр: драмаПродолжительность: 02:18:40Перевод: Дублированный [Line]Субтитры: отсутствуют

Режиссер: Кеннет Лонерган

В ролях: Кейси Аффлек, Бен О’Брайэн, Кайл Чандлер, Ричард Донелли, Virginia Loring Cooke, Куинси Тайлер Бернстайн, Мисси Ягер, Стивен Хендерсон, Бен Хэнсон, Мэри Мэллен

Описание: Ленивый и безответственный сантехник Ли после внезапной смерти брата назначен опекуном своего племянника-подростка. Возвращение в родной город дает новый ход трагедии, сокрытой в его прошлом.

Качество: HDRipФормат: AVIВидео кодек: XvIDВидео: 720x384 (1.88:1), 23.976 fps, XviD build 50 ~1211 kbps avg, 0.18 bit/pixelАудио: 48,0 kHz, AC3, 2/0 (L,R) ch, ~192 kbps

Скачать Манчестер у моря через торрент http://i90.fastpic.ru/big/2017/0125/49/97b532e3b021cdb960c55dd6f7935149.jpg Скачать фильм Манчестер у моря через торрент бесплантно в хорошем качестве Описание: Ленивый и безответственный сантехник Ли после внезапной смерти брата назначен опекуном своего племянника-подростка. Возвращение в ... 2017-04-04 18:13 9.9 10 8

Loading...

Loading...

% Раздел Тема Автор DL S | L
Трейлеры и дополнительные материалы к фильмам [ 684 MB ] Эмоциональная Жизнь: Как Снимали Манчестер у моря / Emotional Lives - Making Manchester by the Sea [2014 Документальный BDRip 720p от _denis_100 / NNNB] VO + Original + Sub _denis_100 Скачать
Фильмы [HD 720p, 1080p] (Хороший звук DUB, MVO) [ 6.92 GB ] Манчестер у моря / Manchester by the Sea [2016 BDRip 720p от _denis_100 / NNNB] DUB + AVO + Original + Sub _denis_100 Скачать
Фильмы 2016 [DVDrip, WEB-DLRip, HDrip] (DUB, MVO) [ 2.18 GB ] Манчестер у моря / Manchester by the Sea [2016 BDRip] - [] Twi7ter Скачать
Фильмы 2016 [DVDrip, WEB-DLRip, HDrip] (DUB, MVO) [ 1.46 GB ] Манчестер у моря / Manchester by the Sea [2016 BDRip] - [] Twi7ter Скачать
Фильмы [HD 720p, 1080p] (Хороший звук DUB, MVO) [ 11.54 GB ] Манчестер у моря / Manchester by the Sea [2016 BDRip 1080p от еnvy / NNNB] DUB / еnvy Скачать
Фильмы [HD 720p, 1080p] (Хороший звук DUB, MVO) [ 4.37 GB ] Манчестер у моря / Manchester by the Sea [2016 BDRip 720p] DUB [ BD CEE] bober100 Скачать
R.G.Resident - Фильмы, Видео [ 3.74 GB ] Манчестер у моря / Manchester by the Sea [2016 BDRip-AVC ] - [] schultz Скачать

Рекламный пират

05-04-2017 13:17 Манчестер у моря Скачать торрент  

Сэмпл?пожалуйста

Дорогой пользователь! Огромная просьба, поблагодарите релизера, оцените раздачу и оставьте свои комментарий, если Вы скачали Манчестер у моря через торрент бесплатно! Внесите свою лепту в развитие PiratBit!

Комментировать посты могут только пользователи прошедшие не сложную регистрацию

Манчестер у моря через торрент Скачать бесплатно Манчестер у моря Манчестер у моря скачать торрент Манчестер у моря смотреть онлайн Cкачать фильм Манчестер у моря бесплатно Манчестер у моря скачать торрент в хорошем качестве Манчестер у моря смотреть онлайн бесплатно в хорошем качестве

Вы можете начинать темыВы можете отвечать на сообщенияВы не можете редактировать свои сообщенияВы не можете удалять свои сообщенияВы не можете голосовать в опросахВы не можете прикреплять файлы к сообщениямВы можете скачивать файлы

Манчестер у моря через торрент

piratbit.ru

Раздают: 1 [ 0 KB/s ]
Размер: 1.37 GB | Добавлен: 9 мес. назад | Торрент скачан:267 раз
Реклама Дарим 3000 рублей за регистрацию, не упусти свой шанс получить шикарный бонус!!!

25-01-2017 15:03 Манчестер у моря Скачать торрент  

Манчестер у моря / Manchester by the Sea

Год выпуска: 2016Выпущено: СШАЖанр: драмаПродолжительность: 02:16:54Перевод: Любительский (многоголосный) "Синема УС"Субтитры: отсутствуют

Режиссер: Кеннет Лонерган

В ролях: Кейси Аффлек, Бен О’Брайэн, Кайл Чандлер, Ричард Донелли, Virginia Loring Cooke, Куинси Тайлер Бернстайн, Мисси Ягер, Стивен Хендерсон, Бен Хэнсон, Мэри Мэллен

Описание: Ленивый и безответственный сантехник Ли после внезапной смерти брата назначен опекуном своего племянника-подростка. Возвращение в родной город дает новый ход трагедии, сокрытой в его прошлом.

Качество: DVDScrФормат: AVIВидео кодек: XvIDВидео: XvID, 720x384, ~1289 kbps avg, 29.970 fpsАудио: 48,0 kHz, AC3, 2/0 (L,R) ch, ~128 kbps

Скачать Манчестер у моря через торрент http://i90.fastpic.ru/big/2017/0125/49/97b532e3b021cdb960c55dd6f7935149.jpg Скачать фильм Манчестер у моря через торрент бесплантно в хорошем качестве Описание: Ленивый и безответственный сантехник Ли после внезапной смерти брата назначен опекуном своего племянника-подростка. Возвращение в ... 2017-01-25 15:03 9.7 10 7

Loading...

Loading...

% Раздел Тема Автор DL S | L
Трейлеры и дополнительные материалы к фильмам [ 684 MB ] Эмоциональная Жизнь: Как Снимали Манчестер у моря / Emotional Lives - Making Manchester by the Sea [2014 Документальный BDRip 720p от _denis_100 / NNNB] VO + Original + Sub _denis_100 Скачать
Фильмы [HD 720p, 1080p] (Хороший звук DUB, MVO) [ 6.92 GB ] Манчестер у моря / Manchester by the Sea [2016 BDRip 720p от _denis_100 / NNNB] DUB + AVO + Original + Sub _denis_100 Скачать
Фильмы 2016 [DVDrip, WEB-DLRip, HDrip] (DUB, MVO) [ 2.18 GB ] Манчестер у моря / Manchester by the Sea [2016 BDRip] - [] Twi7ter Скачать
Фильмы 2016 [DVDrip, WEB-DLRip, HDrip] (DUB, MVO) [ 1.46 GB ] Манчестер у моря / Manchester by the Sea [2016 BDRip] - [] Twi7ter Скачать
Фильмы [HD 720p, 1080p] (Хороший звук DUB, MVO) [ 11.54 GB ] Манчестер у моря / Manchester by the Sea [2016 BDRip 1080p от еnvy / NNNB] DUB / еnvy Скачать
Фильмы [HD 720p, 1080p] (Хороший звук DUB, MVO) [ 4.37 GB ] Манчестер у моря / Manchester by the Sea [2016 BDRip 720p] DUB [ BD CEE] bober100 Скачать
R.G.Resident - Фильмы, Видео [ 3.74 GB ] Манчестер у моря / Manchester by the Sea [2016 BDRip-AVC ] - [] schultz Скачать

Рекламный пират

25-01-2017 18:14 Манчестер у моря Скачать торрент  

Прекрасное кино, спасибо!

25-01-2017 20:14 Манчестер у моря Скачать торрент  

nn99nn писал(а):

Прекрасное кино, спасибо!

согласан с вами! я аж прослезился, впечатлительный я

Дорогой пользователь! Огромная просьба, поблагодарите релизера, оцените раздачу и оставьте свои комментарий, если Вы скачали Манчестер у моря через торрент бесплатно! Внесите свою лепту в развитие PiratBit!

Комментировать посты могут только пользователи прошедшие не сложную регистрацию

Манчестер у моря через торрент Скачать бесплатно Манчестер у моря Манчестер у моря скачать торрент Манчестер у моря смотреть онлайн Cкачать фильм Манчестер у моря бесплатно Манчестер у моря скачать торрент в хорошем качестве Манчестер у моря смотреть онлайн бесплатно в хорошем качестве

Вы можете начинать темыВы можете отвечать на сообщенияВы не можете редактировать свои сообщенияВы не можете удалять свои сообщенияВы не можете голосовать в опросахВы не можете прикреплять файлы к сообщениямВы можете скачивать файлы

Скачать фильм Манчестер у моря через торрент в хорошем качестве бесплатно HDRip

piratbit.ru

Раздают: 1 [ 0 KB/s ]
Размер: 2.05 GB | Добавлен: 8 мес. назад | Торрент скачан:171 раз
Реклама Дарим 3000 рублей за регистрацию, не упусти свой шанс получить шикарный бонус!!!

08-02-2017 21:46 Манчестер у моря Скачать торрент  

Манчестер у моря / Manchester by the Sea

Год выпуска: 2016Выпущено: СШАЖанр: драмаПродолжительность: 02:18:25Перевод: Любительский (многоголосный) "Синема УС"Субтитры: отсутствуют

Режиссер: Кеннет Лонерган

В ролях: Кейси Аффлек, Бен О’Брайэн, Кайл Чандлер, Ричард Донелли, Virginia Loring Cooke, Куинси Тайлер Бернстайн, Мисси Ягер, Стивен Хендерсон, Бен Хэнсон, Мэри Мэллен

Описание: Ленивый и безответственный сантехник Ли после внезапной смерти брата назначен опекуном своего племянника-подростка. Возвращение в родной город дает новый ход трагедии, сокрытой в его прошлом.

Качество: HDRipФормат: AVIВидео кодек: XvIDВидео: 720x384 (1.88:1), 23.976 fps, XviD build 50 ~1860 kbps avg, 0.28 bit/pixelАудио: 48 kHz, AC3 Dolby Digital, 2/0 (L,R) ch, ~256 kbps

Скачать Манчестер у моря через торрент http://i91.fastpic.ru/big/2017/0209/16/a733152a31cfa92571be52f377000616.jpg Скачать фильм Манчестер у моря через торрент бесплантно в хорошем качестве Описание: Ленивый и безответственный сантехник Ли после внезапной смерти брата назначен опекуном своего племянника-подростка. Возвращение в ... 2017-02-08 21:46 9.4 10 7

Loading...

Loading...

% Раздел Тема Автор DL S | L
Трейлеры и дополнительные материалы к фильмам [ 684 MB ] Эмоциональная Жизнь: Как Снимали Манчестер у моря / Emotional Lives - Making Manchester by the Sea [2014 Документальный BDRip 720p от _denis_100 / NNNB] VO + Original + Sub _denis_100 Скачать
Фильмы [HD 720p, 1080p] (Хороший звук DUB, MVO) [ 6.92 GB ] Манчестер у моря / Manchester by the Sea [2016 BDRip 720p от _denis_100 / NNNB] DUB + AVO + Original + Sub _denis_100 Скачать
Фильмы 2016 [DVDrip, WEB-DLRip, HDrip] (DUB, MVO) [ 2.18 GB ] Манчестер у моря / Manchester by the Sea [2016 BDRip] - [] Twi7ter Скачать
Фильмы 2016 [DVDrip, WEB-DLRip, HDrip] (DUB, MVO) [ 1.46 GB ] Манчестер у моря / Manchester by the Sea [2016 BDRip] - [] Twi7ter Скачать
Фильмы [HD 720p, 1080p] (Хороший звук DUB, MVO) [ 11.54 GB ] Манчестер у моря / Manchester by the Sea [2016 BDRip 1080p от еnvy / NNNB] DUB / еnvy Скачать
Фильмы [HD 720p, 1080p] (Хороший звук DUB, MVO) [ 4.37 GB ] Манчестер у моря / Manchester by the Sea [2016 BDRip 720p] DUB [ BD CEE] bober100 Скачать
R.G.Resident - Фильмы, Видео [ 3.74 GB ] Манчестер у моря / Manchester by the Sea [2016 BDRip-AVC ] - [] schultz Скачать

Рекламный пират

Дорогой пользователь! Огромная просьба, поблагодарите релизера, оцените раздачу и оставьте свои комментарий, если Вы скачали Манчестер у моря через торрент бесплатно! Внесите свою лепту в развитие PiratBit!

Комментировать посты могут только пользователи прошедшие не сложную регистрацию

Манчестер у моря через торрент Скачать бесплатно Манчестер у моря Манчестер у моря скачать торрент Манчестер у моря смотреть онлайн Cкачать фильм Манчестер у моря бесплатно Манчестер у моря скачать торрент в хорошем качестве Манчестер у моря смотреть онлайн бесплатно в хорошем качестве

Вы можете начинать темыВы можете отвечать на сообщенияВы не можете редактировать свои сообщенияВы не можете удалять свои сообщенияВы не можете голосовать в опросахВы не можете прикреплять файлы к сообщениямВы можете скачивать файлы

rutor.org :: Манчестер у моря / Manchester by the Sea (2016) BDRip 1080p | D

main-rutor.org

Манчестер у моря / Manchester by the Sea

Страна: США Производство: The Affleck/Middleton Project, Pearl Street Films, K Period Media, CMP, B StoryГод выпуска: 2016Жанр: драмаПродолжительность: 02:17:21

Режиссер: Кеннет ЛонерганАвтор сценария: Кеннет Лонерган

В ролях: Кейси Аффлек, Бен О’Брайэн, Кайл Чандлер, Ричард Донелли, Куинси Тайлер Бернстайн, Мисси Ягер, Стивен Хендерсон, Бен Хэнсон

Описание: Ленивый и безответственный сантехник Ли после внезапной смерти брата назначен опекуном своего племянника-подростка. Возвращение в родной город дает новый ход трагедии, сокрытой в его прошлом...

Перевод: Профессиональный (полное дублирование) + Многоголосый (украинский) | студия «Омикрон»Субтитры: русские (forced + full), английские (full)

Качество: BDRip 1080pФормат: M4VВидео кодек: AVCАудио кодек: AAC | АС3Видео №1: 1920x1040 (1.85:1), 23.976 fps, MPEG-4 AVC ~8 000 kbps avgВидео №2: 640x346 (1.85:1), 0.002 fps, MPEG-4 AVC ~841 bps avg

Аудио №1: 48.0 kHz, Advanced Audio Codec LC, 2/0 (L,R) ch, ~158 kbps | RUSАудио №2: 48.0 kHz, Advanced Audio Codec LC, 2/0 (L,R) ch, ~157 kbps | ENGАудио №3: 48.0 kHz, Advanced Audio Codec LC, 2/0 (L,R) ch, ~156 kbps | UKRАудио №4: 48.0 kHz, AC3 Dolby Digital, 3/2 (L,C,R,l,r) + LFE ch, ~640 kbps | RUSАудио №5: 48.0 kHz, AC3 Dolby Digital, 3/2 (L,C,R,l,r) + LFE ch, ~640 kbps | ENGАудио №6: 48.0 kHz, AC3 Dolby Digital, 3/2 (L,C,R,l,r) + LFE ch, ~640 kbps | UKRФормат субтитров: Timed text, Apple text

Бюджет: $8 500 000Дата премьеры (мир): 23 января 2016

Премия Оскар, 2017 год » Лучшая мужская роль (Кейси Аффлек) » Лучший сценарий Премия Золотой глобус, 2017 год » Лучшая мужская роль (драма) (Кейси Аффлек)

Media Info

General Complete name : Manchester By the Sea (1080p HD).m4v Format : MPEG-4 Codec ID : M4V File size : 9.98 GiB Duration : 2h 17mn Overall bit rate mode : Variable Overall bit rate : 10.4 Mbps Recorded date : UTC 2016-01-23 08:00:00 Encoded date : UTC 2017-04-26 12:12:38 Tagged date : UTC 2017-04-26 12:23:53 Cover : Yes Rating : None AppleStoreCatalogID : 1172433257 Vendor : Apple:vendor_id:2016-884376 ContentRating : mpaa|R|400|

Video #1 ID : 1 Format : AVC Format/Info : Advanced Video Codec Format profile : [email protected] Format settings, CABAC : Yes Format settings, ReFrames : 4 frames Codec ID : avc1 Codec ID/Info : Advanced Video Coding Duration : 2h 17mn Source duration : 2h 17mn Bit rate : 8 000 Kbps Width : 1 920 pixels Height : 1 040 pixels Display aspect ratio : 1.85:1 Frame rate mode : Variable Frame rate : 23.976 fps Minimum frame rate : 23.974 fps Maximum frame rate : 23.981 fps Color space : YUV Chroma subsampling : 4:2:0 Bit depth : 8 bits Scan type : Progressive Bits/(Pixel*Frame) : 0.167 Stream size : 7.67 GiB (77%) Source stream size : 7.67 GiB (77%) Title : Main Program Writing library : x264 core 148 r2708 86b7198 Encoding settings : cabac=1 / ref=4 / deblock=1:-2:-2 / analyse=0x3:0x133 / me=umh / subme=10 / psy=1 / psy_rd=1.00:0.15 / mixed_ref=1 / me_range=32 / chroma_me=1 / trellis=2 / 8x8dct=1 / cqm=0 / deadzone=21,11 / fast_pskip=1 / chroma_qp_offset=-3 / threads=32 / lookahead_threads=8 / sliced_threads=0 / nr=0 / decimate=0 / interlaced=0 / bluray_compat=0 / constrained_intra=0 / bframes=16 / b_pyramid=2 / b_adapt=2 / b_bias=0 / direct=3 / weightb=1 / open_gop=0 / weightp=2 / keyint=240 / keyint_min=24 / scenecut=40 / intra_refresh=0 / rc_lookahead=40 / rc=2pass / mbtree=1 / bitrate=8000 / ratetol=1.0 / qcomp=0.70 / qpmin=0 / qpmax=69 / qpstep=4 / cplxblur=20.0 / qblur=0.5 / ip_ratio=1.40 / aq=1:1.00 Language : English Encoded date : UTC 2017-04-26 12:12:38 Tagged date : UTC 2017-04-26 12:12:57 Color range : Limited Color primaries : BT.709 Transfer characteristics : BT.709 Matrix coefficients : BT.709

Video #2 ID : 12 Format : JPEG Codec ID : jpeg Duration : 2h 17mn Bit rate mode : Variable Bit rate : 841 bps Width : 640 pixels Height : 346 pixels Display aspect ratio : 1.85:1 Frame rate mode : Variable Frame rate : 0.002 fps Minimum frame rate : 0.001 fps Maximum frame rate : 0.005 fps Color space : YUV Chroma subsampling : 4:2:0 Bit depth : 8 bits Compression mode : Lossy Bits/(Pixel*Frame) : 1.899 Stream size : 1.00 MiB (0%) Title : Chapter Images Language : English Encoded date : UTC 2017-04-26 12:15:27 Tagged date : UTC 2017-04-26 12:15:28

Audio #1 ID : 2 Format : AAC Format/Info : Advanced Audio Codec Format profile : LC Codec ID : 40 Duration : 2h 17mn Bit rate mode : Variable Bit rate : 158 Kbps Maximum bit rate : 258 Kbps Channel(s) : 2 channels Channel positions : Front: L R Sampling rate : 48.0 KHz Compression mode : Lossy Stream size : 155 MiB (2%) Title : Russian Stereo Language : Russian Encoded date : UTC 2017-04-26 12:12:38 Tagged date : UTC 2017-04-26 12:12:59

Audio #2 ID : 3 Format : AAC Format/Info : Advanced Audio Codec Format profile : LC Codec ID : 40 Duration : 2h 17mn Bit rate mode : Variable Bit rate : 157 Kbps Maximum bit rate : 259 Kbps Channel(s) : 2 channels Channel positions : Front: L R Sampling rate : 48.0 KHz Compression mode : Lossy Stream size : 154 MiB (2%) Title : English Stereo Language : English Encoded date : UTC 2017-04-26 12:12:38 Tagged date : UTC 2017-04-26 12:12:59

Audio #3 ID : 4 Format : AAC Format/Info : Advanced Audio Codec Format profile : LC Codec ID : 40 Duration : 2h 17mn Bit rate mode : Variable Bit rate : 156 Kbps Maximum bit rate : 258 Kbps Channel(s) : 2 channels Channel positions : Front: L R Sampling rate : 48.0 KHz Compression mode : Lossy Stream size : 153 MiB (1%) Title : Ukrainian Stereo Language : Ukrainian Encoded date : UTC 2017-04-26 12:12:38 Tagged date : UTC 2017-04-26 12:12:59

Audio #4 ID : 5 Format : AC-3 Format/Info : Audio Coding 3 Mode extension : CM (complete main) Format settings, Endianness : Big Codec ID : ac-3 Duration : 2h 17mn Bit rate mode : Constant Bit rate : 640 Kbps Channel(s) : 6 channels Channel positions : Front: L C R, Side: L R, LFE Sampling rate : 48.0 KHz Bit depth : 16 bits Compression mode : Lossy Stream size : 629 MiB (6%) Title : Russian DD 5.1 Language : Russian Encoded date : UTC 2017-04-26 12:12:38 Tagged date : UTC 2017-04-26 12:12:53

Audio #5 ID : 6 Format : AC-3 Format/Info : Audio Coding 3 Mode extension : CM (complete main) Format settings, Endianness : Big Codec ID : ac-3 Duration : 2h 17mn Bit rate mode : Constant Bit rate : 640 Kbps Channel(s) : 6 channels Channel positions : Front: L C R, Side: L R, LFE Sampling rate : 48.0 KHz Bit depth : 16 bits Compression mode : Lossy Stream size : 629 MiB (6%) Title : English DD 5.1 Language : English Encoded date : UTC 2017-04-26 12:12:38 Tagged date : UTC 2017-04-26 12:12:53

Audio #6 ID : 7 Format : AC-3 Format/Info : Audio Coding 3 Mode extension : CM (complete main) Format settings, Endianness : Big Codec ID : ac-3 Duration : 2h 17mn Bit rate mode : Constant Bit rate : 640 Kbps Channel(s) : 6 channels Channel positions : Front: L C R, Side: L R, LFE Sampling rate : 48.0 KHz Bit depth : 16 bits Compression mode : Lossy Stream size : 630 MiB (6%) Title : Ukrainian DD 5.1 Language : Ukrainian Encoded date : UTC 2017-04-26 12:12:38 Tagged date : UTC 2017-04-26 12:12:53

Text #1 ID : 8 Format : Timed Text Muxing mode : sbtl Codec ID : tx3g Duration : 2h 17mn Bit rate mode : Variable Bit rate : 1 bps Stream size : 1.10 KiB (0%) Title : Russian forced Language : Russian Encoded date : UTC 2017-04-26 12:12:38 Tagged date : UTC 2017-04-26 12:15:17

Text #2 ID : 9 Format : Timed Text Muxing mode : sbtl Codec ID : tx3g Duration : 2h 17mn Bit rate mode : Variable Bit rate : 96 bps Stream size : 96.4 KiB (0%) Title : Russian full Language : Russian Encoded date : UTC 2017-04-26 12:12:38 Tagged date : UTC 2017-04-26 12:15:17

Text #3 ID : 10 Format : Timed Text Muxing mode : sbtl Codec ID : tx3g Duration : 2h 12mn Bit rate mode : Variable Bit rate : 68 bps Stream size : 65.3 KiB (0%) Title : English full Language : English Encoded date : UTC 2017-04-26 12:12:38 Tagged date : UTC 2017-04-26 12:15:17

Menu #1 00:00:00.000 : Chapter 1 00:03:27.332 : Chapter 2 00:16:15.892 : Chapter 3 00:26:20.746 : Chapter 4 00:34:18.640 : Chapter 5 00:45:19.008 : Chapter 6 00:53:59.737 : Chapter 7 01:04:15.518 : Chapter 8 01:11:49.472 : Chapter 9 01:20:40.377 : Chapter 10 01:28:37.229 : Chapter 11 01:34:02.053 : Chapter 12 01:39:01.477 : Chapter 13 01:45:55.724 : Chapter 14 01:50:13.482 : Chapter 15 01:54:32.699 : Chapter 16 01:58:29.769 : Chapter 17 02:02:40.103 : Chapter 18 02:07:15.128 : Chapter 19 02:12:43.956 : Chapter 20

Menu #2 ID : 11 Codec ID : text Duration : 2h 17mn Language : English Encoded date : UTC 2017-04-26 12:15:17 Tagged date : UTC 2017-04-26 12:15:17 00:00:00.000 : Chapter 1 00:03:27.332 : Chapter 2 00:16:15.892 : Chapter 3 00:26:20.746 : Chapter 4 00:34:18.640 : Chapter 5 00:45:19.008 : Chapter 6 00:53:59.737 : Chapter 7 01:04:15.518 : Chapter 8 01:11:49.472 : Chapter 9 01:20:40.377 : Chapter 10 01:28:37.229 : Chapter 11 01:34:02.053 : Chapter 12 01:39:01.477 : Chapter 13 01:45:55.724 : Chapter 14 01:50:13.482 : Chapter 15 01:54:32.699 : Chapter 16 01:58:29.769 : Chapter 17 02:02:40.103 : Chapter 18 02:07:15.128 : Chapter 19 02:12:43.956 : Chapter 20 Bit rate mode : VBR

Дополнительная информация: релиз подготовлен для просмотра на Apple TV, iPad, iPhone, iPod Touch. Для просмотра данного релиза на компьютере с ОС Windows рекомендуется использовать VLC media player

Смотрите также