Левша скачать через торрент бесплатно в хорошем качестве


Скачать фильм Левша через торрент в хорошем качестве бесплатно BDRip-AVC от sokol_ok

ОбщееУникальный идентификатор : 197206669470763536459009794678983357884 (0x945C9F7CB590A4E28ED0D532B3C9F5BC)Полное имя : M:\Rips\Southpaw\Southpaw.2015.BDRip-AVC.Dub.1.45Gb...stalkerok.new-team.mkvФормат : MatroskaРазмер файла : 1,45 ГбайтПродолжительность : 2 ч. 3 м.Общий поток : 1679 Кбит/секНазвание фильма : Southpaw (2015) (New-Team) (Rip by Stalker oK)Дата кодирования : UTC 2015-11-18 12:01:31Программа кодирования : mkvmerge v7.9.0 ('Birds') 64bitБиблиотека кодирования : libebml v1.3.1 + libmatroska v1.4.2

ВидеоИдентификатор : 1Формат : AVCФормат/Информация : Advanced Video CodecПрофиль формата : [email protected]Параметр CABAC формата : ДаПараметр ReFrames формата : 13 кадрыИдентификатор кодека : V_MPEG4/ISO/AVCПродолжительность : 2 ч. 3 м.Битрейт : 1294 Кбит/секШирина : 912 пикс.Высота : 378 пикс.Соотношение сторон : 2,40:1Частота кадров : 23,976 кадр/секЦветовое пространство : YUVПодвыборка цветности : 4:2:0Битовая глубина : 8 битТип развёртки : ПрогрессивнаяБит/(Пиксели*Кадры) : 0.157Размер потока : 1,09 Гбайт (75%)Заголовок : Southpaw (2015) (New-Team) (Rip by Stalker oK)Библиотека кодирования : x264 core 146 r2538kMod 121396cНастройки программы : cabac=1 / ref=13 / deblock=1:-3:-3 / analyse=0x3:0x133 / me=umh / subme=11 / psy=1 / fade_compensate=0.00 / psy_rd=1.00:0.10 / mixed_ref=1 / me_range=48 / chroma_me=1 / trellis=2 / 8x8dct=1 / cqm=0 / deadzone=21,11 / fast_pskip=0 / chroma_qp_offset=-3 / threads=12 / lookahead_threads=2 / sliced_threads=0 / nr=0 / decimate=0 / interlaced=0 / bluray_compat=0 / constrained_intra=0 / fgo=0 / bframes=14 / b_pyramid=2 / b_adapt=2 / b_bias=0 / direct=3 / weightb=1 / open_gop=0 / weightp=2 / keyint=240 / keyint_min=23 / scenecut=40 / intra_refresh=0 / rc_lookahead=60 / rc=2pass / mbtree=0 / bitrate=1294 / ratetol=1.0 / qcomp=0.70 / qpmin=0 / qpmax=69 / qpstep=4 / cplxblur=20.0 / qblur=0.5 / vbv_maxrate=50000 / vbv_bufsize=62500 / nal_hrd=none / filler=0 / ip_ratio=1.40 / pb_ratio=1.30 / aq=3:0.90

АудиоИдентификатор : 2Формат : AC-3Формат/Информация : Audio Coding 3Расширение режима : CM (complete main)Идентификатор кодека : A_AC3Продолжительность : 2 ч. 3 м.Вид битрейта : ПостоянныйБитрейт : 384 Кбит/секКанал(ы) : 6 канала(ов)Расположение каналов : Front: L C R, Side: L R, LFEЧастота : 48,0 КГцБитовая глубина : 16 битМетод сжатия : С потерямиРазмер потока : 340 Мбайт (23%)Язык : Russian

Текст #1Идентификатор : 3Формат : UTF-8Идентификатор кодека : S_TEXT/UTF8Идентификатор кодека/Информация : UTF-8 Plain TextЗаголовок : FullЯзык : English

Текст #2Идентификатор : 4Формат : UTF-8Идентификатор кодека : S_TEXT/UTF8Идентификатор кодека/Информация : UTF-8 Plain TextЗаголовок : SDHЯзык : English

Меню00:00:00.000 : en:Chapter 100:08:49.695 : en:Chapter 200:12:58.569 : en:Chapter 300:20:00.657 : en:Chapter 400:23:40.085 : en:Chapter 500:29:34.147 : en:Chapter 600:34:59.555 : en:Chapter 700:39:44.298 : en:Chapter 800:45:46.285 : en:Chapter 900:52:38.655 : en:Chapter 1000:59:28.815 : en:Chapter 1101:07:08.733 : en:Chapter 1201:12:49.823 : en:Chapter 1301:18:14.481 : en:Chapter 1401:23:40.056 : en:Chapter 1501:29:40.416 : en:Chapter 1601:37:00.147 : en:Chapter 1701:45:19.896 : en:Chapter 1801:55:01.060 : en:Chapter 1901:59:38.504 : en:Chapter 2002:03:28.192 : en:Chapter 21

piratbit.ru

Скачать фильм Левша через торрент в хорошем качестве бесплатно BDRip от Twi7ter

piratbit.ru

Раздают: 2 [ 31 KB/s ]
Размер: 1.46 GB | Добавлен: 1 год 11 мес. назад | Торрент скачан:829 раз
Реклама Дарим 3000 рублей за регистрацию, не упусти свой шанс получить шикарный бонус!!!

01-09-2015 19:24 Левша Скачать торрент  

Левша / Southpaw

«Преодолей судьбу»

Год выпуска: 2015Страна: СШАЖанр: драма, спорт, боевик, триллерПродолжительность: 02:03:49Перевод: Профессиональный (полное дублирование) [лицензия]Субтитры: НетРежиссер: Антуан Фукуа / Antoine FuquaВ ролях: Джейк Джилленхол (Billy Hope), Рэйчел МакАдамс (Maureen Hope), Форест Уитакер (Tick Wills), Уна Лоуренс (Leila Hope), Фифти Сент (Jordan Mains), Скайлан Брукс (Hoppy), Наоми Харрис (Angela Rivera), Виктор Ортис (Ramone), Бо Напп (Jon Jon), Мигель Гомес (Miguel «Magic» Escobar), Доминик Колон (Mikey), Хосе Карабалло (Eli Frost)Описание: У боксера Билли Хоупа все было прекрасно: звание чемпиона, красавица-жена и любимая дочка. Но фортуна отворачивается от него: при трагических обстоятельствах погибает любимая жена, дисквалификация на ринге, нулевые доходы, суд лишает его родительских прав... Хоуп должен отстоять звание чемпиона и вернуть дочь. Есть ли у Хоупа шансы на победу? Все решит его знаменитый хук левой...Рейтинг:

MPAA: R - Лицам до 17 лет обязательно присутствие взрослого

Качество: BDRip | исх. SOUTHPAW_REMUX_HDCLUB |Формат: AVIВидео кодек: XviDАудио кодек: AC3Видео: 720x304 (2.37:1), 23.976 fps, XviD build 73 ~1487 kbps avg, 0.28 bit/pixelАудио: 48 kHz, AC3 Dolby Digital, 2/0 (L,R) ch, ~192 kbps

Релиз: & MegaPeer

Скачать Левша через торрент http://s018.radikal.ru/i520/1511/40/e80cfa36d37a.png Скачать фильм Левша через торрент бесплантно в хорошем качестве Описание: У боксера Билли Хоупа все было прекрасно: звание чемпиона, красавица-жена и любимая дочка. Но фортуна отворачивается от него: при ... 2015-11-17 18:38 9.7 10 37

Loading...

Loading...

% Раздел Тема Автор DL S | L
Фильмы 2015 [DVDrip, WEB-DLRip, HDrip] [ 2.18 GB ] Левша / Southpaw [2015 BDRip-AVC от sokol_ok] DUB sokol_ok Скачать
Фильмы 2015 [DVDrip, WEB-DLRip, HDrip] [ 1.45 GB ] Левша / Southpaw [2015 BDRip-AVC от sokol_ok] DUB sokol_ok Скачать
Фильмы 2015 [DVDrip, WEB-DLRip, HDrip] [ 2.18 GB ] Левша / Southpaw [2015 BDRip-AVC] DUB potroks Скачать
Фильмы 2015 [DVDrip, WEB-DLRip, HDrip] [ 2.05 GB ] Левша / Southpaw [2015 HDRip] killermax2013 Скачать
Фильмы 2015 [DVDrip, WEB-DLRip, HDrip] [ 2.14 GB ] Левша / Southpaw [2015 WEB-DLRip-AVC] DUB - / Newton5 Скачать

Последний раз редактировалось: Twi7ter (2015-11-17 18:38), всего редактировалось 3 раз(а)

Рекламный пират

30-09-2015 19:17 Левша Скачать торрент  

Шикарный фильм!!!

07-10-2015 13:11 Левша Скачать торрент  

Америкосы умеют снимать шикарные спортивные драмы, эта не исключение.

07-10-2015 15:26 Левша Скачать торрент  

ну дак у них к спорту относяться отлично всё для людей а у нас чем то заняться лет в 27 30 надо тысяч 50 футбол тенис бокс на все надо и плевать работодателям чем ты там занимаешься лишь бы вкалывал по 12 часов за копейки

07-10-2015 17:42 Левша Скачать торрент  

Да супер фильм

23-10-2015 14:48 Левша Скачать торрент  

Господа нытики, хотите вкалывайте за копейки, при чём тут фильм?

17-11-2015 18:51 Левша Скачать торрент  

Замена раздачи на Лицензию !

06-01-2016 12:42 Левша Скачать торрент  

KiKs писал(а):

Господа нытики, хотите вкалывайте за копейки, при чём тут фильм?

хорошо сказал

10-01-2016 17:38 Левша Скачать торрент  

Четкий фильм... советую

Pекламный агент PB

Дорогой пользователь! Огромная просьба, поблагодарите релизера, оцените раздачу и оставьте свои комментарий, если Вы скачали Левша через торрент бесплатно! Внесите свою лепту в развитие PiratBit!

Комментировать посты могут только пользователи прошедшие не сложную регистрацию

Левша через торрент Скачать бесплатно Левша Левша скачать торрент Левша смотреть онлайн Cкачать фильм Левша бесплатно Левша скачать торрент в хорошем качестве Левша смотреть онлайн бесплатно в хорошем качестве

Вы не можете начинать темыВы не можете отвечать на сообщенияВы не можете редактировать свои сообщенияВы не можете удалять свои сообщенияВы не можете голосовать в опросахВы не можете прикреплять файлы к сообщениямВы можете скачивать файлы

Скачать Левша (2015) через торрент

Категория: Фильмы 3175 1 Торрент добавлен: 26-10-2015 Рейтинг:

2015 / драма, спорт / 124 мин.Название: Левша / SouthpawСтрана: СШАРежиссер: Антуан Фукуа Роли сыграли: Джейк Джилленхол, Рэйчел МакАдамс, Форест Уитакер, Уна Лоуренс, Фифти Сент, Скайлан Брукс, Наоми Харрис, Виктор Ортис, Бо Напп, Мигель Гомес

Еще совсем недавно Билли Хоуп был на вершине славы в боксе. После завоевания титула у него появились деньги и признание людей. Им восхищались миллионы поклонников, однако сам Хоуп по истине считал этот успех не самым большим в своей жизни, ведь для него самое главное было его семья — любимая супруга и маленькая дочь.

Казалось, Билли добился всего, у него есть семья, уважение и деньги, однако все его счастье может в любой момент развеяться, что в общем-то и происходит. На одном мероприятие, куда Билли взял с собой жену происходит трагедия, в которой она погибает. Этот случай ударил его сильнее, чем все, что он на пропускал за всю свою длительную карьеру. После этого случая Билли находит успокоение в алкоголе и даже задумывается о том, что не к чему ему больше жить. Жизнь потихоньку рушиться, сначала ему запрещают выступать на ринге, затем он теряет свой дом и основные сбережения, а потом еще и социальная служба лишает его дочери.

Однако Билли не просто так стал чемпионом в ринге, ведь для этого требуется колоссальная самоотдача несмотря ни на что. Он оказался в тяжелой ситуации, но теперь ему необходимо было изменить все в лучшую сторону — найти работу, вернуть дочь и начать опять тренировки, чтобы доказать всему, что он является по-прежнему все тем же великим бойцом, которым восхищались миллионы людей.

Трейлер к фильму Левша (2015)

 

Левша (2015) скачать торрент

Кодек: MPEG4 Video (h364)Качество: BDRip 1080pВидео: 1920x796, 8 137 Kbps, 23.976fpsЗвук: Russian: AC-3, 6 ch, 384 kbps (Rus)Дублированный (iTunes)

7,75 Gb

Кодек: AVCКачество: BDRip 720pВидео: 1280x532 (2.40:1) at 23.976 fps, AVC at 4415 kbps avg, 0.270 bit/pixelЗвук: Аудио: 48.0 KHz, AAC LC, 2 ch, VBR, ~ 96.0 Kbps (Russian), Полное дублирование (iTunes)

3,91 Gb

Качество видео: HDRipФормат видео: AVIВидео: 720x304 (2.37:1), 23.976 fps, XviD build 73 ~1281 kbps avg, 0.24 bit/pixelАудио: 48 kHz, AC3 Dolby Digital, 3/2 (L,C,R,l,r) + LFE ch, ~384.00 kbps avg, Полное дублирование (iTunes)

1,45 Gb

psp-gu.ru

Скачать фильм Левша (2015) через торрент

gig-torrent.net

16 августа 2016 11:24 Левша / Southpaw (2015) DVD5 .torrent   [Информация о файле (нажмите для просмотра)] Перевод: ДублированныйСубтитры: АнглийскиеВидео: MPEG-2, [email protected] (NTSC 16:9), ~4100 Кбит/секАудио 1: AC3 5.1, 448 Кбит/сек [Английский - оригинал]Аудио 2: AC3 5.1, 448 Кбит/сек [Русский - дублированный]Видео: Идентификатор : 224 (0xE0) Формат : MPEG Video Версия формата : Version 2 Профиль формата : [email protected] Параметр BVOP формата : Да Параметр матрицы формата : Выборочная Параметр GOP формата : Variable Продолжительность : 28 м. Вид битрейта : Переменный Битрейт : 4110 Кбит/сек Максимальный битрейт : 8454 Кбит/сек Ширина : 720 пикселей Высота : 480 пикселей Соотношение сторон : 16:9 Частота кадров : 23,976 кадра/сек Стандарт вещания : NTSC Цветовое пространство : YUV Субдискретизация насыщенности : 4:2:0 Битовая глубина : 8 бит Тип развёртки : Прогрессивная Порядок развёртки : 2:3 Pulldown Метод сжатия : С потерями Бит/(Пиксели*Кадры) : 0.496 Временной код первого кадра : 00:28:13:00 Оригинал временного кода : Group of pictures header GOP, открыто/закрыто : Открыто Размер потока : 824 Мбайт (80%)Аудио #1: Идентификатор : 189 (0xBD)-128 (0x80) Формат : AC-3 Формат/Информация : Audio Coding 3 Расширение режима : CM (complete main) Параметр Endianness формата : Big Режим смешивания : DVD-Video Продолжительность : 28 м. Вид битрейта : Постоянный Битрейт : 448 Кбит/сек Каналы : 6 каналов Расположение каналов : Front: L C R, Side: L R, LFE Частота : 48,0 КГц Битовая глубина : 16 бит Метод сжатия : С потерями Задержка видео : -632 мс. Размер потока : 89,8 Мбайт (9%)Аудио #2: Идентификатор : 189 (0xBD)-129 (0x81) Формат : AC-3 Формат/Информация : Audio Coding 3 Расширение режима : CM (complete main) Параметр Endianness формата : Big Режим смешивания : DVD-Video Продолжительность : 28 м. Вид битрейта : Постоянный Битрейт : 448 Кбит/сек Каналы : 6 каналов Расположение каналов : Front: L C R, Side: L R, LFE Частота : 48,0 КГц Битовая глубина : 16 бит Метод сжатия : С потерями Задержка видео : -632 мс. Размер потока : 89,8 Мбайт (9%) 4,37 Gb 4 3
16 августа 2016 11:24 Левша / Southpaw (2015) DVD9 | D, А | Custom .torrent   [Информация о файле (нажмите для просмотра)] Перевод: Профессиональный (полное дублирование) + Авторский (одноголосый, закадровый) [М.Чадов]Субтитры: АнглийскиеВидео: MPEG-2, [email protected] (NTSC 16:9), ~6000 Кбит/секАудио 1: AC3 5.1, 448 Кбит/сек [Английский - оригинал]Аудио 2: AC3 5.1, 448 Кбит/сек [Русский - дублированный]Аудио 3: AC3 5.1, 448 Кбит/сек [Русский - одноголосый закадровый (М.Чадов)]Видео: Идентификатор : 224 (0xE0) Формат : MPEG Video Версия формата : Version 2 Профиль формата : [email protected] Параметр BVOP формата : Да Параметр матрицы формата : Выборочная Параметр GOP формата : Variable Продолжительность : 19 м. Вид битрейта : Переменный Битрейт : 6023 Кбит/сек Максимальный битрейт : 9800 Кбит/сек Ширина : 720 пикселей Высота : 480 пикселей Соотношение сторон : 16:9 Частота кадров : 23,976 кадра/сек Стандарт вещания : NTSC Цветовое пространство : YUV Субдискретизация насыщенности : 4:2:0 Битовая глубина : 8 бит Тип развёртки : Прогрессивная Порядок развёртки : 2:3 Pulldown Метод сжатия : С потерями Бит/(Пиксели*Кадры) : 0.727 Временной код первого кадра : 00:59:59:00 Оригинал временного кода : Group of pictures header Размер потока : 821 Мбайт (80%)Аудио #1: Идентификатор : 189 (0xBD)-128 (0x80) Формат : AC-3 Формат/Информация : Audio Coding 3 Расширение режима : CM (complete main) Параметр Endianness формата : Big Режим смешивания : DVD-Video Продолжительность : 19 м. Вид битрейта : Постоянный Битрейт : 448 Кбит/сек Каналы : 6 каналов Расположение каналов : Front: L C R, Side: L R, LFE Частота : 48,0 КГц Битовая глубина : 16 бит Метод сжатия : С потерями Размер потока : 61,0 Мбайт (6%)Аудио #2: Идентификатор : 189 (0xBD)-129 (0x81) Формат : AC-3 Формат/Информация : Audio Coding 3 Расширение режима : CM (complete main) Параметр Endianness формата : Big Режим смешивания : DVD-Video Продолжительность : 19 м. Вид битрейта : Постоянный Битрейт : 448 Кбит/сек Каналы : 6 каналов Расположение каналов : Front: L C R, Side: L R, LFE Частота : 48,0 КГц Битовая глубина : 16 бит Метод сжатия : С потерями Размер потока : 61,0 Мбайт (6%)Аудио #3: Идентификатор : 189 (0xBD)-130 (0x82) Формат : AC-3 Формат/Информация : Audio Coding 3 Расширение режима : CM (complete main) Параметр Endianness формата : Big Режим смешивания : DVD-Video Продолжительность : 19 м. Вид битрейта : Постоянный Битрейт : 448 Кбит/сек Каналы : 6 каналов Расположение каналов : Front: L C R, Side: L R, LFE Частота : 48,0 КГц Битовая глубина : 16 бит Метод сжатия : С потерями Размер потока : 61,0 Мбайт (6%) 7,44 Gb 5 3
16 августа 2016 11:24 Левша / Southpaw (2015) BDRemux 1080p | Лицензия .torrent   [Информация о файле (нажмите для просмотра)] Качество: Blu-Ray Remux (1080p)Видео: MPEG-4 AVC, 25983 Кбит/с, 1920x1080Аудио: Русский (DTS-HD MA, 6 ch, 1920 Кбит/с), (AC3, 6 ch, 448 Кбит/с), английский (DTS-HD MA, 6 ch, 3554 Кбит/с)Перевод: Дублированный [лицензия]Субтитры: Английские 27,44 Gb 9 5
16 августа 2016 11:24 Левша / Southpaw (2015) BDRip от HQCLUB | USA Transfer | Лицензия .torrent   [Информация о файле (нажмите для просмотра)] Перевод: Профессиональный (полное дублирование) BD RUSСубтитры: английские (обычные, SDH, SDH-Colored)Формат: AVIКачество: BDRip (источник:Видео: 720x304 (2.37:1), 23.976 fps, XviD build 65 ~2070 kbps avg, 0.39 bit/pixelАудио #1: 48 kHz, AC3 Dolby Digital, 3/2 (L,C,R,l,r) + LFE ch, ~448 kbps avg (DUB)Аудио #2: 48 kHz, AC3 Dolby Digital, 3/2 (L,C,R,l,r) + LFE ch, ~448 kbps avg (VO.CHADOV)(отдельно)Аудио #3: 48 kHz, AC3 Dolby Digital, 3/2 (L,C,R,l,r) + LFE ch, ~448 kbps avg (ENG)(отдельно) 2,18 Gb 27 9
16 августа 2016 11:24 Левша / Southpaw (2015) HDRip | КПК | Лицензия .torrent   [Информация о файле (нажмите для просмотра)] Перевод: Профессиональный (полное дублирование) Качество: HDRipФормат: MP4 647,82 Mb 29 4
16 августа 2016 11:24 Левша / Southpaw (2015) HDRip-AVC от ExKinoRay | Лицензия .torrent   [Информация о файле (нажмите для просмотра)] Качество: HDRip (AVC)Видео: MPEG-4 AVC, 2425 Кбит/с, 1024x426, 23.976 кадр/сАудио: Русский, английский (AC3, 6 ch, 448 Кбит/с)Перевод: ДублированныйВидео: Идентификатор : 1 Формат : AVC Формат/Информация : Advanced Video Codec Профиль формата : [email protected] Параметр CABAC формата : Да Параметр ReFrames формата : 12 кадров Идентификатор кодека : V_MPEG4/ISO/AVC Продолжительность : 2 ч. 3 м. Битрейт : 2425 Кбит/сек Ширина : 1024 пикселя Высота : 426 пикселей Соотношение сторон : 2,40:1 Режим частоты кадров : Постоянный Частота кадров : 23,976 кадра/сек Цветовое пространство : YUV Субдискретизация насыщенности : 4:2:0 Битовая глубина : 8 бит Тип развёртки : Прогрессивная Бит/(Пиксели*Кадры) : 0.232 Размер потока : 2,04 Гбайт (71%) Библиотека кодирования : x264 core 125 r2200 999b753 Настройки программы : cabac=1 / ref=12 / deblock=1:-3:-3 / analyse=0x3:0x133 / me=umh / subme=11 / psy=1 / psy_rd=1.00:0.10 / mixed_ref=1 / me_range=32 / chroma_me=1 / trellis=2 / 8x8dct=1 / cqm=0 / deadzone=21,11 / fast_pskip=0 / chroma_qp_offset=-3 / threads=12 / lookahead_threads=2 / sliced_threads=0 / nr=0 / decimate=0 / interlaced=0 / bluray_compat=0 / constrained_intra=0 / bframes=9 / b_pyramid=2 / b_adapt=2 / b_bias=0 / direct=3 / weightb=1 / open_gop=0 / weightp=2 / keyint=240 / keyint_min=23 / scenecut=40 / intra_refresh=0 / rc=2pass / mbtree=0 / bitrate=2425 / ratetol=1.0 / qcomp=0.60 / qpmin=0 / qpmax=69 / qpstep=4 / cplxblur=20.0 / qblur=0.5 / ip_ratio=1.40 / pb_ratio=1.30 / aq=1:1.00 Язык : English Default : Да Forced : НетАудио #1: Идентификатор : 2 Формат : AC-3 Формат/Информация : Audio Coding 3 Расширение режима : CM (complete main) Параметр Endianness формата : Big Идентификатор кодека : A_AC3 Продолжительность : 2 ч. 3 м. Вид битрейта : Постоянный Битрейт : 448 Кбит/сек Каналы : 6 каналов Расположение каналов : Front: L C R, Side: L R, LFE Частота : 48,0 КГц Битовая глубина : 16 бит Метод сжатия : С потерями Размер потока : 397 Мбайт (13%) Заголовок : Дублированный (Лицензия) Язык : Russian Default : Да Forced : НетАудио #2: Идентификатор : 3 Формат : AC-3 Формат/Информация : Audio Coding 3 Расширение режима : CM (complete main) Параметр Endianness формата : Big Идентификатор кодека : A_AC3 Продолжительность : 2 ч. 3 м. Вид битрейта : Постоянный Битрейт : 448 Кбит/сек Каналы : 6 каналов Расположение каналов : Front: L C R, Side: L R, LFE Частота : 48,0 КГц Битовая глубина : 16 бит Метод сжатия : С потерями Размер потока : 397 Мбайт (13%) Язык : English Default : Нет Forced : Нет 2,87 Gb 4 1
16 августа 2016 11:24 Левша / Southpaw (2015) BDRip от HQ-ViDEO .torrent   [Информация о файле (нажмите для просмотра)] Перевод: Дублированный|BD RUS|Субтитры: Английские.Формат: AVIКачество: BDRip (источник: HDTracker /BD-Remux / 1080p)Кодек: XviD, build 67 codecВидео: 704 x 288; 23.976 fps; 2063 kbps; 0.424 bit/pixelАудио: AC3 Dolby Digital; 448 Kbps; 6 channels; 48 KHz|все дорожки| 2,18 Gb 154 7
16 августа 2016 11:24 Левша / Southpaw (2015) HDRip от Scarabey | Лицензия .torrent   [Информация о файле (нажмите для просмотра)] Перевод: Профессиональный (полное дублирование) [Лицензия]Видео: 720x304 (2.37:1), 23.976 fps, XviD build 73 ~2127 kbps avg, 0.41 bit/pixelАудио: 48 kHz, AC3 Dolby Digital, 3/2 (L,C,R,l,r) + LFE ch, ~384.00 kbps avg 2,18 Gb 15 4
16 августа 2016 11:24 Левша / Southpaw (2015) HDRip от Scarabey | Лицензия .torrent   [Информация о файле (нажмите для просмотра)] Перевод: Профессиональный (полное дублирование) [Лицензия]Видео: 720x304 (2.37:1), 23.976 fps, XviD build 73 ~1471 kbps avg, 0.28 bit/pixelАудио: 48 kHz, AC3 Dolby Digital, 2/0 (L,R) ch, ~192 kbps 1,45 Gb 571 16
16 августа 2016 11:24 Левша / Southpaw (2015) HDRip от Scarabey | Лицензия .torrent   [Информация о файле (нажмите для просмотра)] Перевод: Профессиональный (полное дублирование) [Лицензия]Видео: 640x272 (2.35:1), 23.976 fps, XviD build 73 ~706 kbps avg, 0.17 bit/pixelАудио: 48 kHz, MPEG Layer 3, 2 ch, ~128.00 kbps avg 747,47 Mb 27 13
16 августа 2016 11:24 Левша / Southpaw (2015) BDRip 720p от NNNB | D, A .torrent   [Информация о файле (нажмите для просмотра)] Перевод: Дублированный - [лицензия BD RUS], Авторский (одноголосый)[М. Чадов]Качество: BDRip 720pФормат: AVC (библиотека кодирования x.264)Видео: 1280x532, 7053 Кбит/сек, 23,976 кадр/сек, 0,432 Бит/[Пиксели*Кадры]Аудио №1: русский / AC3 / 5.1 / 48 kHz / 640 kbps / 16 bit|Дублированный| Аудио №2: русский / AC3 / 5.1 / 48 kHz / 640 kbps / 16 bit|Авторский, М. Чадов| Аудио №3: английский / AC3 / 5.1 / 48 kHz / 640 kbps / 16 bitСубтитры: английские, английские (SDH) 7,9 Gb 9 3
16 августа 2016 11:24 Левша / Southpaw (2015) WEB-DLRip-AVC от ExKinoRay | iTunes Russia .torrent   [Информация о файле (нажмите для просмотра)] Перевод: Дублированный [iTunes Russia]Кодек: x264Качество: WEB-DLRip (AVC)Видео: 720x300 (2,40:1), 23,976 fps, x264 ~804 kbps avg, 0.149 bit/pixelАудио: 48 kHz, ААС-HE, 2 ch, ~72 kbps avgВидео: Идентификатор : 1 Формат : AVC Формат/Информация : Advanced Video Codec Профиль формата : [email protected] Параметр CABAC формата : Да Параметр ReFrames формата : 9 кадров Идентификатор кодека : V_MPEG4/ISO/AVC Продолжительность : 1 ч. 58 м. Номинальный битрейт : 804 Кбит/сек Ширина : 720 пикселей Высота : 300 пикселей Соотношение сторон : 2,40:1 Режим частоты кадров : Постоянный Частота кадров : 25,000 кадров/сек Цветовое пространство : YUV Субдискретизация насыщенности : 4:2:0 Битовая глубина : 8 бит Тип развёртки : Прогрессивная Бит/(Пиксели*Кадры) : 0.149 Заголовок : by Vovan366(ExKinoRay) Библиотека кодирования : x264 core 130 r2273 b3065e6 Настройки программы : cabac=1 / ref=9 / deblock=1:-2:-2 / analyse=0x3:0x133 / me=umh / subme=10 / psy=1 / psy_rd=1.00:0.15 / mixed_ref=1 / me_range=32 / chroma_me=1 / trellis=2 / 8x8dct=1 / cqm=0 / deadzone=21,11 / fast_pskip=0 / chroma_qp_offset=-3 / threads=6 / lookahead_threads=1 / sliced_threads=0 / nr=0 / decimate=0 / interlaced=0 / bluray_compat=0 / constrained_intra=0 / bframes=9 / b_pyramid=2 / b_adapt=2 / b_bias=0 / direct=3 / weightb=1 / open_gop=0 / weightp=2 / keyint=240 / keyint_min=24 / scenecut=40 / intra_refresh=0 / rc=2pass / mbtree=0 / bitrate=804 / ratetol=1.0 / qcomp=0.60 / qpmin=0 / qpmax=69 / qpstep=4 / cplxblur=20.0 / qblur=0.5 / ip_ratio=1.40 / pb_ratio=1.30 / aq=1:1.00 Default : Да Forced : НетАудио: Идентификатор : 2 Формат : AAC Формат/Информация : Advanced Audio Codec Профиль формата : HE-AAC / LC Идентификатор кодека : A_AAC Продолжительность : 1 ч. 58 м. Каналы : 2 канала Расположение каналов : Front: L R Частота : 48,0 КГц / 24,0 КГц Метод сжатия : С потерями Задержка видео : 31 мс. Язык : Russian Default : Да Forced : Нет 744,02 Mb 3 3
16 августа 2016 11:24 Левша / Southpaw (2015) HDRip-AVC | D | Лицензия .torrent   [Информация о файле (нажмите для просмотра)] Кодек: x264Качество: HDRip-AVC (Исх: BDRip 1080p)Видео: 796x330 (2,40:1), 23,976 fps, x264 ~808 kbps avg, 0.128 bit/pixelАудио: 48 kHz, AAC-HE, 2 ch, Front: L R ~32 kbps avgВидео: Идентификатор : 1 Формат : AVC Формат/Информация : Advanced Video Codec Профиль формата : [email protected] Параметр CABAC формата : Да Параметр ReFrames формата : 10 кадров Идентификатор кодека : V_MPEG4/ISO/AVC Продолжительность : 2 ч. 3 м. Номинальный битрейт : 808 Кбит/сек Ширина : 796 пикселей Высота : 330 пикселей Соотношение сторон : 2,40:1 Режим частоты кадров : Постоянный Частота кадров : 23,976 кадра/сек Цветовое пространство : YUV Субдискретизация насыщенности : 4:2:0 Битовая глубина : 8 бит Тип развёртки : Прогрессивная Бит/(Пиксели*Кадры) : 0.128 Библиотека кодирования : x264 core 125 r2208 d9d2288 Настройки программы : cabac=1 / ref=10 / deblock=1:-2:-2 / analyse=0x3:0x133 / me=umh / subme=10 / psy=1 / psy_rd=1.00:0.00 / mixed_ref=1 / me_range=32 / chroma_me=1 / trellis=2 / 8x8dct=1 / cqm=0 / deadzone=21,11 / fast_pskip=0 / chroma_qp_offset=-2 / threads=12 / lookahead_threads=2 / sliced_threads=0 / nr=0 / decimate=0 / interlaced=0 / bluray_compat=0 / constrained_intra=0 / bframes=10 / b_pyramid=2 / b_adapt=2 / b_bias=0 / direct=3 / weightb=1 / open_gop=0 / weightp=2 / keyint=250 / keyint_min=23 / scenecut=40 / intra_refresh=0 / rc_lookahead=60 / rc=2pass / mbtree=1 / bitrate=808 / ratetol=1.0 / qcomp=0.60 / qpmin=0 / qpmax=69 / qpstep=4 / cplxblur=20.0 / qblur=0.5 / ip_ratio=1.40 / aq=1:0.80 Default : Да Forced : НетАудио: Идентификатор : 2 Формат : AAC Формат/Информация : Advanced Audio Codec Профиль формата : HE-AAC / LC Идентификатор кодека : A_AAC Продолжительность : 2 ч. 3 м. Каналы : 2 канала Расположение каналов : Front: L R Частота : 48,0 КГц / 24,0 КГц Метод сжатия : С потерями Задержка видео : 31 мс. Default : Да Forced : Нет 745,06 Mb 10 3
16 августа 2016 11:24 Левша / Southpaw (2015) BDRip-AVC от New-Team | Лицензия .torrent   [Информация о файле (нажмите для просмотра)] Перевод: Профессиональный (полное дублирование) [Лицензия BD RUS]Субтитры: английские (Full), английские (SDH)Видео: 1873 Кбит/сек, 1052*436 (2,40:1), в 23,976 кадр/сек, AVCАудио #1: Russian, 448 Кбит/сек, 48,0 КГц, 16 бит, 6 канала(ов), AC-3Аудио #2: English, 200 Кбит/сек, 48,0 КГц / 24,0 КГц, 6 канала(ов), AAC (HE-AAC / LC)Видео: Идентификатор : 1 Формат : AVC Формат/Информация : Advanced Video Codec Профиль формата : [email protected] Параметр CABAC формата : Да Параметр ReFrames формата : 13 кадры Идентификатор кодека : V_MPEG4/ISO/AVC Продолжительность : 2 ч. 3 м. Номинальный битрейт : 1873 Кбит/сек Ширина : 1052 пикс. Высота : 436 пикс. Соотношение сторон : 2,40:1 Частота кадров : 23,976 кадр/сек Цветовое пространство : YUV Подвыборка цветности : 4:2:0 Битовая глубина : 8 бит Тип развёртки : Прогрессивная Бит/(Пиксели*Кадры) : 0.170 Заголовок : Southpaw (2015) (New-Team) (Rip by Stalker oK) Библиотека кодирования : x264 core 146 r2538kMod 121396c Настройки программы : cabac=1 / ref=13 / deblock=1:-3:-3 / analyse=0x3:0x133 / me=umh / subme=11 / psy=1 / fade_compensate=0.00 / psy_rd=1.00:0.10 / mixed_ref=1 / me_range=48 / chroma_me=1 / trellis=2 / 8x8dct=1 / cqm=0 / deadzone=21,11 / fast_pskip=0 / chroma_qp_offset=-3 / threads=12 / lookahead_threads=3 / sliced_threads=0 / nr=0 / decimate=0 / interlaced=0 / bluray_compat=0 / constrained_intra=0 / fgo=0 / bframes=13 / b_pyramid=2 / b_adapt=2 / b_bias=0 / direct=3 / weightb=1 / open_gop=0 / weightp=2 / keyint=240 / keyint_min=23 / scenecut=40 / intra_refresh=0 / rc_lookahead=60 / rc=2pass / mbtree=0 / bitrate=1873 / ratetol=1.0 / qcomp=0.70 / qpmin=0 / qpmax=69 / qpstep=4 / cplxblur=20.0 / qblur=0.5 / vbv_maxrate=50000 / vbv_bufsize=62500 / nal_hrd=none / filler=0 / ip_ratio=1.40 / pb_ratio=1.30 / aq=3:0.87Аудио #1: Идентификатор : 2 Формат : AC-3 Формат/Информация : Audio Coding 3 Расширение режима : CM (complete main) Идентификатор кодека : A_AC3 Продолжительность : 2 ч. 3 м. Вид битрейта : Постоянный Битрейт : 448 Кбит/сек Канал(ы) : 6 канала(ов) Расположение каналов : Front: L C R, Side: L R, LFE Частота : 48,0 КГц Битовая глубина : 16 бит Метод сжатия : С потерями Размер потока : 397 Мбайт (18%) Язык : RussianАудио #2: Идентификатор : 3 Формат : AAC Формат/Информация : Advanced Audio Codec Профиль формата : HE-AAC / LC Идентификатор кодека : A_AAC Продолжительность : 2 ч. 3 м. Канал(ы) : 6 канала(ов) Расположение каналов : Front: L C R, Side: L R, LFE Частота : 48,0 КГц / 24,0 КГц Метод сжатия : С потерями Задержка видео : 31 мс. Язык : English 2,18 Gb 14 1
16 августа 2016 11:24 Левша / Southpaw (2015) BDRip 720p от Scarabey | Лицензия .torrent   [Информация о файле (нажмите для просмотра)] Перевод: Профессиональный (полное дублирование) [Лицензия]Видео: 1280х530, 23.976 fps, AVC ~4233 kbps avg, 0.27 bit/pixelАудио №1: 48 kHz, DTS, 3/2 (L,C,R,l,r) + LFE ch, ~1509.00 kbps avg - Blu-ray RUSАудио №2: 48 kHz, AC3 Dolby Digital, 3/2 (L,C,R,l,r) + LFE ch, ~384.00 kbps avg - iTunesАудио №3: 48 kHz, AC3 Dolby Digital, 3/2 (L,C,R,l,r) + LFE ch, ~640.00 kbps avg -оригиналВидео: SOURCE.........: [email protected] ENCODER........: [email protected] 6,05 Gb 91 7
16 августа 2016 11:23 Левша / Southpaw (2015) BDRip-AVC от New-Team | Лицензия .torrent   [Информация о файле (нажмите для просмотра)] Перевод: Профессиональный (полное дублирование) [Лицензия BD RUS]Субтитры: английские (Full), английские (SDH)Видео: 1294 Кбит/сек, 912x378 (2.40:1), 23,976 кадр/сек, AVCАудио: русский, 384 Кбит/сек, 48 КГц, 16 бит, 5.1, AC3Видео: Идентификатор : 1 Формат : AVC Формат/Информация : Advanced Video Codec Профиль формата : [email protected] Параметр CABAC формата : Да Параметр ReFrames формата : 13 кадры Идентификатор кодека : V_MPEG4/ISO/AVC Продолжительность : 2 ч. 3 м. Битрейт : 1294 Кбит/сек Ширина : 912 пикс. Высота : 378 пикс. Соотношение сторон : 2,40:1 Частота кадров : 23,976 кадр/сек Цветовое пространство : YUV Подвыборка цветности : 4:2:0 Битовая глубина : 8 бит Тип развёртки : Прогрессивная Бит/(Пиксели*Кадры) : 0.157 Размер потока : 1,09 Гбайт (75%) Заголовок : Southpaw (2015) (New-Team) (Rip by Stalker oK) Библиотека кодирования : x264 core 146 r2538kMod 121396c Настройки программы : cabac=1 / ref=13 / deblock=1:-3:-3 / analyse=0x3:0x133 / me=umh / subme=11 / psy=1 / fade_compensate=0.00 / psy_rd=1.00:0.10 / mixed_ref=1 / me_range=48 / chroma_me=1 / trellis=2 / 8x8dct=1 / cqm=0 / deadzone=21,11 / fast_pskip=0 / chroma_qp_offset=-3 / threads=12 / lookahead_threads=2 / sliced_threads=0 / nr=0 / decimate=0 / interlaced=0 / bluray_compat=0 / constrained_intra=0 / fgo=0 / bframes=14 / b_pyramid=2 / b_adapt=2 / b_bias=0 / direct=3 / weightb=1 / open_gop=0 / weightp=2 / keyint=240 / keyint_min=23 / scenecut=40 / intra_refresh=0 / rc_lookahead=60 / rc=2pass / mbtree=0 / bitrate=1294 / ratetol=1.0 / qcomp=0.70 / qpmin=0 / qpmax=69 / qpstep=4 / cplxblur=20.0 / qblur=0.5 / vbv_maxrate=50000 / vbv_bufsize=62500 / nal_hrd=none / filler=0 / ip_ratio=1.40 / pb_ratio=1.30 / aq=3:0.90Аудио: Идентификатор : 2 Формат : AC-3 Формат/Информация : Audio Coding 3 Расширение режима : CM (complete main) Идентификатор кодека : A_AC3 Продолжительность : 2 ч. 3 м. Вид битрейта : Постоянный Битрейт : 384 Кбит/сек Канал(ы) : 6 канала(ов) Расположение каналов : Front: L C R, Side: L R, LFE Частота : 48,0 КГц Битовая глубина : 16 бит Метод сжатия : С потерями Размер потока : 340 Мбайт (23%) Язык : Russian 1,45 Gb 42 5
16 августа 2016 11:23 Левша / Southpaw (2015) BDRip-AVC от HELLYWOOD | Лицензия .torrent   [Информация о файле (нажмите для просмотра)] Перевод: Дубляж [лицензия BD RUS]Субтитры: английские (Full), английские (SDH)Качество: BDRip-AVCФормат: MKVВидео: AVC, 1020x424 (2.40:1), 1625 kbps, 23,976 fps, 0.157 bit/pixelАудио#1: AC3 / 5.1 / 48 kHz / 448 kbps / 16 bit |RUSАудио#2: AC3 / 5.1 / 48 kHz / 448 kbps / 16 bit |ENG 2,18 Gb 106 6
16 августа 2016 11:23 Левша / Southpaw (2015) BDRip-AVC от HELLYWOOD | Лицензия .torrent   [Информация о файле (нажмите для просмотра)] Перевод: Дубляж [лицензия BD RUS]Субтитры: английские (Full), английские (SDH)Качество: BDRip-AVCФормат: MKVВидео: AVC, 944x392 (2.40:1), 1305 kbps, 23,976 fps, 0,147 bppАудио: / AC3 / 5.1 / 48 kHz / 384 kbps / 16 bit 1,46 Gb 9 1
16 августа 2016 11:23 Левша / Southpaw (2015) BDRip от Twi7ter | Лицензия .torrent   [Информация о файле (нажмите для просмотра)] Перевод: Профессиональный (полное дублирование)[лицензия]Субтитры: НетКачество: WEB-DLRip| исх. SOUTHPAW_REMUX_HDCLUB |Формат: AVIВидео: 720x304 (2.37:1), 23.976 fps, XviD build 73 ~1487 kbps avg, 0.28 bit/pixelАудио: 48 kHz, AC3 Dolby Digital, 2/0 (L,R) ch, ~192 kbps 1,46 Gb 155 11
16 августа 2016 11:23 Левша / Southpaw (2015) BDRip 720p | Лицензия .torrent   [Информация о файле (нажмите для просмотра)] Перевод: Профессиональный (дублированный) Blu-ray RUSФормат: MatroskaВидео: 1280x532 at 23.976 fps, [email protected], ~7000 kbps avgСубтитры: English (Full, SDH)Видео: Идентификатор : 1 Формат : AVC Формат/Информация : Advanced Video Codec Профиль формата : [email protected] Параметр CABAC формата : Да Параметр ReFrames формата : 12 кадров Идентификатор кодека : V_MPEG4/ISO/AVC Продолжительность : 2 ч. 3 м. Битрейт : 7004 Кбит/сек Ширина : 1280 пикселей Высота : 532 пикселя Соотношение сторон : 2,40:1 Режим частоты кадров : Постоянный Частота кадров : 23,976 кадра/сек Цветовое пространство : YUV Субдискретизация насыщенности : 4:2:0 Битовая глубина : 8 бит Тип развёртки : Прогрессивная Бит/(Пиксели*Кадры) : 0.429 Размер потока : 6,06 Гбайт (66%) Библиотека кодирования : x264 core 148 r2597 e86f3a1 Настройки программы : cabac=1 / ref=12 / deblock=1:-3:-3 / analyse=0x3:0x133 / me=tesa / subme=11 / psy=1 / psy_rd=1.00:0.00 / mixed_ref=1 / me_range=32 / chroma_me=1 / trellis=2 / 8x8dct=1 / cqm=0 / deadzone=21,11 / fast_pskip=0 / chroma_qp_offset=-2 / threads=12 / lookahead_threads=3 / sliced_threads=0 / nr=0 / decimate=1 / interlaced=0 / bluray_compat=0 / constrained_intra=0 / bframes=10 / b_pyramid=2 / b_adapt=2 / b_bias=0 / direct=3 / weightb=1 / open_gop=0 / weightp=2 / keyint=240 / keyint_min=23 / scenecut=40 / intra_refresh=0 / rc_lookahead=60 / rc=crf / mbtree=0 / crf=16.1 / qcomp=0.73 / qpmin=0 / qpmax=69 / qpstep=4 / vbv_maxrate=62500 / vbv_bufsize=78125 / crf_max=0.0 / nal_hrd=none / filler=0 / ip_ratio=1.24 / pb_ratio=1.18 / aq=1:0.80 Язык : English Default : Да Forced : НетАудио #1: Идентификатор : 2 Формат : DTS Формат/Информация : Digital Theater Systems Режим : 16 Параметр Endianness формата : Big Идентификатор кодека : A_DTS Продолжительность : 2 ч. 3 м. Вид битрейта : Постоянный Битрейт : 1509 Кбит/сек Каналы : 6 каналов Расположение каналов : Front: L C R, Side: L R, LFE Частота : 48,0 КГц Битовая глубина : 16 бит Метод сжатия : С потерями Размер потока : 1,31 Гбайт (14%) Заголовок : BD RUS Язык : Russian Default : Да Forced : НетАудио #2: Идентификатор : 3 Формат : AC-3 Формат/Информация : Audio Coding 3 Расширение режима : CM (complete main) Параметр Endianness формата : Big Идентификатор кодека : A_AC3 Продолжительность : 2 ч. 3 м. Вид битрейта : Постоянный Битрейт : 448 Кбит/сек Каналы : 6 каналов Расположение каналов : Front: L C R, Side: L R, LFE Частота : 48,0 КГц Метод сжатия : С потерями Размер потока : 397 Мбайт (4%) Заголовок : BD RUS Язык : Russian Default : Нет Forced : НетАудио #3: Идентификатор : 4 Формат : DTS Формат/Информация : Digital Theater Systems Режим : 16 Параметр Endianness формата : Big Идентификатор кодека : A_DTS Продолжительность : 2 ч. 3 м. Вид битрейта : Постоянный Битрейт : 1509 Кбит/сек Каналы : 6 каналов Расположение каналов : Front: L C R, Side: L R, LFE Частота : 48,0 КГц Битовая глубина : 24 бит Метод сжатия : С потерями Размер потока : 1,31 Гбайт (14%) Заголовок : DTS 5.1 Язык : English Default : Нет Forced : Нет 9,24 Gb 11 3
16 августа 2016 11:23 Левша / Southpaw (2015) BDRip 1080p | Лицензия .torrent   [Информация о файле (нажмите для просмотра)] Перевод: Профессиональный (дублированный) Blu-ray RUSФормат: MatroskaВидео: 1920x796 at 23.976 fps, [email protected], ~11100 kbps avgСубтитры: English (Full, SDH)Видео: Идентификатор : 1 Формат : AVC Формат/Информация : Advanced Video Codec Профиль формата : [email protected] Параметр CABAC формата : Да Параметр ReFrames формата : 5 кадров Идентификатор кодека : V_MPEG4/ISO/AVC Продолжительность : 2 ч. 3 м. Битрейт : 11,1 Мбит/сек Ширина : 1920 пикселей Высота : 796 пикселей Соотношение сторон : 2,40:1 Режим частоты кадров : Постоянный Частота кадров : 23,976 кадра/сек Цветовое пространство : YUV Субдискретизация насыщенности : 4:2:0 Битовая глубина : 8 бит Тип развёртки : Прогрессивная Бит/(Пиксели*Кадры) : 0.304 Размер потока : 9,39 Гбайт (74%) Заголовок : BLUEBIRD Библиотека кодирования : x264 core 148 r2597 e86f3a1 Настройки программы : cabac=1 / ref=5 / deblock=1:-3:-3 / analyse=0x3:0x113 / me=umh / subme=11 / psy=1 / psy_rd=1.00:0.00 / mixed_ref=1 / me_range=32 / chroma_me=1 / trellis=2 / 8x8dct=1 / cqm=0 / deadzone=21,11 / fast_pskip=0 / chroma_qp_offset=-2 / threads=12 / lookahead_threads=2 / sliced_threads=0 / nr=0 / decimate=0 / interlaced=0 / bluray_compat=0 / constrained_intra=0 / bframes=8 / b_pyramid=2 / b_adapt=2 / b_bias=0 / direct=3 / weightb=1 / open_gop=1 / weightp=2 / keyint=240 / keyint_min=23 / scenecut=40 / intra_refresh=0 / rc_lookahead=80 / rc=2pass / mbtree=1 / bitrate=11150 / ratetol=1.0 / qcomp=0.60 / qpmin=0 / qpmax=69 / qpstep=4 / cplxblur=20.0 / qblur=0.5 / vbv_maxrate=50000 / vbv_bufsize=62500 / nal_hrd=none / filler=0 / ip_ratio=1.40 / aq=3:0.80 Язык : English Default : Да Forced : НетАудио #1: Идентификатор : 2 Формат : DTS Формат/Информация : Digital Theater Systems Режим : 16 Параметр Endianness формата : Big Идентификатор кодека : A_DTS Продолжительность : 2 ч. 3 м. Вид битрейта : Постоянный Битрейт : 1509 Кбит/сек Каналы : 6 каналов Расположение каналов : Front: L C R, Side: L R, LFE Частота : 48,0 КГц Битовая глубина : 16 бит Метод сжатия : С потерями Размер потока : 1,31 Гбайт (10%) Заголовок : BD RUS Язык : Russian Default : Да Forced : НетАудио #2: Идентификатор : 3 Формат : AC-3 Формат/Информация : Audio Coding 3 Расширение режима : CM (complete main) Параметр Endianness формата : Big Идентификатор кодека : A_AC3 Продолжительность : 2 ч. 3 м. Вид битрейта : Постоянный Битрейт : 448 Кбит/сек Каналы : 6 каналов Расположение каналов : Front: L C R, Side: L R, LFE Частота : 48,0 КГц Метод сжатия : С потерями Размер потока : 397 Мбайт (3%) Заголовок : BD RUS Язык : Russian Default : Нет Forced : НетАудио #3: Идентификатор : 4 Формат : DTS Формат/Информация : Digital Theater Systems Режим : 16 Параметр Endianness формата : Big Идентификатор кодека : A_DTS Продолжительность : 2 ч. 3 м. Вид битрейта : Постоянный Битрейт : 1509 Кбит/сек Каналы : 6 каналов Расположение каналов : Front: L C R, Side: L R, LFE Частота : 48,0 КГц Битовая глубина : 24 бит Метод сжатия : С потерями Размер потока : 1,31 Гбайт (10%) Заголовок : DTS 5.1 Язык : English Default : Нет Forced : Нет 12,64 Gb 41 3

Скачать фильм Левша через торрент в хорошем качестве бесплатно WEB-DLRip-AVC

GeneralUnique ID                   : 183089194408115491239465578712241035381 (0x89BDB23A3109575EA22703DA14585875)Complete name               : E:\торрент\Southpaw.2015.D.AVC.WEB-DL.X264.itunes.mkvFormat                      : MatroskaFormat version              : Version 4 / Version 2File size                   : 2.14 GiBDuration                    : 2h 3mnOverall bit rate            : 2 478 KbpsEncoded date                : UTC 2015-08-31 06:34:55Writing application         : mkvmerge v8.1.0 ('Psychedelic Postcard') 32bitWriting library             : Lavf56.22.100DURATION                    : 01:59:44.244000000NUMBER_OF_FRAMES            : 2383NUMBER_OF_BYTES             : 78495_STATISTICS_WRITING_APP     : mkvmerge v8.1.0 ('Psychedelic Postcard') 32bit_STATISTICS_WRITING_DATE_UT : 2015-08-31 21:52:43_STATISTICS_TAGS            : BPS DURATION NUMBER_OF_FRAMES NUMBER_OF_BYTES

VideoID                          : 1Format                      : AVCFormat/Info                 : Advanced Video CodecFormat profile              : [email protected] settings, CABAC      : YesFormat settings, ReFrames   : 11 framesCodec ID                    : V_MPEG4/ISO/AVCDuration                    : 2h 3mnBit rate                    : 1 900 KbpsWidth                       : 1 024 pixelsHeight                      : 434 pixelsDisplay aspect ratio        : 2.35:1Frame rate mode             : ConstantFrame rate                  : 23.976 fpsStandard                    : ComponentColor space                 : YUVChroma subsampling          : 4:2:0Bit depth                   : 8 bitsScan type                   : ProgressiveBits/(Pixel*Frame)          : 0.178Stream size                 : 1.60 GiB (75%)Writing library             : x264 core 144 r2525Encoding settings           : cabac=1 / ref=11 / deblock=1:0:-1 / analyse=0x3:0x102 / me=umh / subme=9 / psy=1 / psy_rd=1.00:1.00 / mixed_ref=0 / me_range=32 / chroma_me=1 / trellis=1 / 8x8dct=1 / cqm=0 / deadzone=21,21 / fast_pskip=1 / chroma_qp_offset=-4 / threads=6 / lookahead_threads=1 / sliced_threads=0 / nr=0 / decimate=1 / interlaced=0 / bluray_compat=0 / constrained_intra=0 / bframes=11 / b_pyramid=0 / b_adapt=1 / b_bias=11 / direct=3 / weightb=1 / open_gop=1 / weightp=2 / keyint=239 / keyint_min=23 / scenecut=40 / intra_refresh=0 / rc_lookahead=33 / rc=2pass / mbtree=1 / bitrate=1900 / ratetol=1.0 / qcomp=0.90 / qpmin=16 / qpmax=69 / qpstep=12 / cplxblur=20.0 / qblur=0.5 / vbv_maxrate=35000 / vbv_bufsize=44000 / nal_hrd=none / filler=0 / ip_ratio=1.40 / aq=1:1.00Default                     : YesForced                      : NoColor range                 : LimitedDURATION                    : 02:03:46.294000000NUMBER_OF_FRAMES            : 178053NUMBER_OF_BYTES             : 1763361047_STATISTICS_WRITING_APP     : mkvmerge v8.1.0 ('Psychedelic Postcard') 32bit_STATISTICS_WRITING_DATE_UT : 2015-08-31 21:52:43_STATISTICS_TAGS            : BPS DURATION NUMBER_OF_FRAMES NUMBER_OF_BYTES

Audio #1ID                          : 2Format                      : AC-3Format/Info                 : Audio Coding 3Mode extension              : CM (complete main)Format settings, Endianness : BigCodec ID                    : A_AC3Duration                    : 2h 3mnBit rate mode               : ConstantBit rate                    : 384 KbpsChannel(s)                  : 6 channelsChannel positions           : Front: L C R, Side: L R, LFESampling rate               : 48.0 KHzCompression mode            : LossyDelay relative to video     : -42msStream size                 : 340 MiB (15%)Language                    : RussianDefault                     : YesForced                      : No

Audio #2ID                          : 3Format                      : AC-3Format/Info                 : Audio Coding 3Mode extension              : CM (complete main)Format settings, Endianness : BigCodec ID                    : A_AC3Duration                    : 2h 3mnBit rate mode               : ConstantBit rate                    : 192 KbpsChannel(s)                  : 2 channelsChannel positions           : Front: L RSampling rate               : 48.0 KHzCompression mode            : LossyDelay relative to video     : -42msStream size                 : 170 MiB (8%)Language                    : EnglishDefault                     : NoForced                      : No

TextID                          : 4Format                      : UTF-8Codec ID                    : S_TEXT/UTF8Codec ID/Info               : UTF-8 Plain TextLanguage                    : EnglishDefault                     : NoForced                      : No

piratbit.ru

Скачать фильм Левша через торрент в хорошем качестве бесплатно BDRip-AVC от sokol_ok

ОбщееУникальный идентификатор : 177693689819817920442830716013041448721 (0x85AE8F500D9CAF6E90BA41E85D387711)Полное имя : M:\Rips\Southpaw\Southpaw.2015.BDRip-AVC.Dub.2.18Gb...stalkerok.new-team.mkvФормат : MatroskaРазмер файла : 2,18 ГбайтПродолжительность : 2 ч. 3 м.Общий поток : 2520 Кбит/секНазвание фильма : Southpaw (2015) (New-Team) (Rip by Stalker oK)Дата кодирования : UTC 2015-11-19 10:17:46Программа кодирования : mkvmerge v7.9.0 ('Birds') 64bitБиблиотека кодирования : libebml v1.3.1 + libmatroska v1.4.2

ВидеоИдентификатор : 1Формат : AVCФормат/Информация : Advanced Video CodecПрофиль формата : [email protected]Параметр CABAC формата : ДаПараметр ReFrames формата : 13 кадрыИдентификатор кодека : V_MPEG4/ISO/AVCПродолжительность : 2 ч. 3 м.Номинальный битрейт : 1873 Кбит/секШирина : 1052 пикс.Высота : 436 пикс.Соотношение сторон : 2,40:1Частота кадров : 23,976 кадр/секЦветовое пространство : YUVПодвыборка цветности : 4:2:0Битовая глубина : 8 битТип развёртки : ПрогрессивнаяБит/(Пиксели*Кадры) : 0.170Заголовок : Southpaw (2015) (New-Team) (Rip by Stalker oK)Библиотека кодирования : x264 core 146 r2538kMod 121396cНастройки программы : cabac=1 / ref=13 / deblock=1:-3:-3 / analyse=0x3:0x133 / me=umh / subme=11 / psy=1 / fade_compensate=0.00 / psy_rd=1.00:0.10 / mixed_ref=1 / me_range=48 / chroma_me=1 / trellis=2 / 8x8dct=1 / cqm=0 / deadzone=21,11 / fast_pskip=0 / chroma_qp_offset=-3 / threads=12 / lookahead_threads=3 / sliced_threads=0 / nr=0 / decimate=0 / interlaced=0 / bluray_compat=0 / constrained_intra=0 / fgo=0 / bframes=13 / b_pyramid=2 / b_adapt=2 / b_bias=0 / direct=3 / weightb=1 / open_gop=0 / weightp=2 / keyint=240 / keyint_min=23 / scenecut=40 / intra_refresh=0 / rc_lookahead=60 / rc=2pass / mbtree=0 / bitrate=1873 / ratetol=1.0 / qcomp=0.70 / qpmin=0 / qpmax=69 / qpstep=4 / cplxblur=20.0 / qblur=0.5 / vbv_maxrate=50000 / vbv_bufsize=62500 / nal_hrd=none / filler=0 / ip_ratio=1.40 / pb_ratio=1.30 / aq=3:0.87

Аудио #1Идентификатор : 2Формат : AC-3Формат/Информация : Audio Coding 3Расширение режима : CM (complete main)Идентификатор кодека : A_AC3Продолжительность : 2 ч. 3 м.Вид битрейта : ПостоянныйБитрейт : 448 Кбит/секКанал(ы) : 6 канала(ов)Расположение каналов : Front: L C R, Side: L R, LFEЧастота : 48,0 КГцБитовая глубина : 16 битМетод сжатия : С потерямиРазмер потока : 397 Мбайт (18%)Язык : Russian

Аудио #2Идентификатор : 3Формат : AACФормат/Информация : Advanced Audio CodecПрофиль формата : HE-AAC / LCИдентификатор кодека : A_AACПродолжительность : 2 ч. 3 м.Канал(ы) : 6 канала(ов)Расположение каналов : Front: L C R, Side: L R, LFEЧастота : 48,0 КГц / 24,0 КГцМетод сжатия : С потерямиЗадержка видео : 31 мс.Язык : English

Текст #1Идентификатор : 4Формат : UTF-8Идентификатор кодека : S_TEXT/UTF8Идентификатор кодека/Информация : UTF-8 Plain TextЗаголовок : FullЯзык : English

Текст #2Идентификатор : 5Формат : UTF-8Идентификатор кодека : S_TEXT/UTF8Идентификатор кодека/Информация : UTF-8 Plain TextЗаголовок : SDHЯзык : English

Меню00:00:00.000 : en:Chapter 100:08:49.695 : en:Chapter 200:12:58.569 : en:Chapter 300:20:00.657 : en:Chapter 400:23:40.085 : en:Chapter 500:29:34.147 : en:Chapter 600:34:59.555 : en:Chapter 700:39:44.298 : en:Chapter 800:45:46.285 : en:Chapter 900:52:38.655 : en:Chapter 1000:59:28.815 : en:Chapter 1101:07:08.733 : en:Chapter 1201:12:49.823 : en:Chapter 1301:18:14.481 : en:Chapter 1401:23:40.056 : en:Chapter 1501:29:40.416 : en:Chapter 1601:37:00.147 : en:Chapter 1701:45:19.896 : en:Chapter 1801:55:01.060 : en:Chapter 1901:59:38.504 : en:Chapter 2002:03:28.192 : en:Chapter 21

piratbit.ru

Скачать фильм Левша через торрент в хорошем качестве бесплатно WEB-DLRip

piratbit.ru

Размер: 1.46 GB | Добавлен: 2 года 1 мес. назад | Торрент скачан:5041 раз
Реклама Дарим 3000 рублей за регистрацию, не упусти свой шанс получить шикарный бонус!!!

30-08-2015 10:23 Левша Скачать торрент  

Левша / Southpaw«Преодолей судьбу»
  • Год выпуска: 2015
  • Страна: США
  • Жанр: драма, спорт, боевик, триллер
  • Продолжительность: 02:03:46
  • Перевод: Дублированное [iTunes]
  • Режиссер: Антуан Фукуа / Antoine Fuqua
  • В ролях: Джейк Джилленхол (Billy Hope), Рэйчел МакАдамс (Maureen Hope), Форест Уитакер (Tick Wills), Уна Лоуренс (Leila Hope), Фифти Сент (Jordan Mains), Скайлан Брукс (Hoppy), Наоми Харрис (Angela Rivera), Виктор Ортис (Ramone), Бо Напп (Jon Jon), Мигель Гомес (Miguel «Magic» Escobar), Доминик Колон (Mikey), Хосе Карабалло (Eli Frost)
  • Описание: У боксера Билли Хоупа все было прекрасно: звание чемпиона, красавица-жена и любимая дочка. Но фортуна отворачивается от него: при трагических обстоятельствах погибает любимая жена, дисквалификация на ринге, нулевые доходы, суд лишает его родительских прав... Хоуп должен отстоять звание чемпиона и вернуть дочь. Есть ли у Хоупа шансы на победу? Все решит его знаменитый хук левой...
  • Рейтинг:
  • Качество: WEB-DLRip
  • Формат: :AVI
  • Видео кодек: XviD
  • Аудио кодек: AC3
  • Видео: MPEG4, XviD, 720x304 (2.35:1), 25.000 fps, 1 371 Kbps (0.250 bit/pixel)
  • Аудио: AC3, 384 kb/s (6 ch) / 48 kHz
  • Оформление: GEKADOL Скриншоты:
  • Скачать Левша через торрент http://i4.imageban.ru/out/2015/08/29/2cdd0b14c5208b6a6cf8e12cbb76b183.jpg Скачать фильм Левша через торрент бесплантно в хорошем качестве Описание: У боксера Билли Хоупа все было прекрасно: звание чемпиона, красавица-жена и любимая дочка. Но фортуна отворачивается от него: при ... 2015-08-31 19:48 9.4 10 163

    Loading...

    Loading...

    % Раздел Тема Автор DL S | L
    Фильмы (Blu-ray, BD-Remux, HDDVD) [ 27.47 GB ] Левша / Southpaw [2015 BD Remux Pavlin Скачать
    Фильмы 2015 [DVDrip, WEB-DLRip, HDrip] [ 1.46 GB ] Левша / Southpaw [2015 BDRip] DUB Twi7ter Скачать
    Фильмы 2015 [DVDrip, WEB-DLRip, HDrip] [ 2.18 GB ] Левша / Southpaw [2015 BDRip-AVC от sokol_ok] DUB sokol_ok Скачать
    Фильмы [HD 720p, 1080p] (Хороший звук DUB, MVO) [ 7.9 GB ] Левша / Southpaw [2015 BDRip 720p] DUB AVO _denis_100 Скачать
    Фильмы 2015 [DVDrip, WEB-DLRip, HDrip] [ 1.45 GB ] Левша / Southpaw [2015 BDRip-AVC от sokol_ok] DUB sokol_ok Скачать
    Фильмы 2015 [DVDrip, WEB-DLRip, HDrip] [ 2.18 GB ] Левша / Southpaw [2015 BDRip-AVC] DUB potroks Скачать
    Фильмы (WEB-DL 720p, 1080p) [ 3.69 GB ] Левша / Southpaw [2015 WEB-DL 720p Дублированное Ворон Скачать

    Последний раз редактировалось: Ворон (2015-09-17 08:57), всего редактировалось 2 раз(а)

    Рекламный пират

    30-08-2015 10:37 Левша Скачать торрент  

    30-08-2015 13:38 Левша Скачать торрент  

    Крутой фильм, понравился! Советую!

    30-08-2015 15:57 Левша Скачать торрент  

    Lanvin90 писал(а):

    Крутой фильм, понравился! Советую!

    Присоединяюсь! Хороших фильмов сейчас не много, этот - хороший!

    31-08-2015 13:36 Левша Скачать торрент  

    pretender_24 писал(а):

    Lanvin90 писал(а):

    Крутой фильм, понравился! Советую!

    Присоединяюсь! Хороших фильмов сейчас не много, этот - хороший!Как качество??? Америкосы про бокс умеют снимать эт точно,я его с начала года жду,как трейлер появился.

    31-08-2015 19:49 Левша Скачать торрент  

    Обновлено на Дублированное [iTunes]

    01-09-2015 17:25 Левша Скачать торрент  

    может по смыслу и не плох фильм , но мне не понравилось если честно, бои поставлены ниочем, меня бесит когда про бокс или единоборства снимают с обычными актерами , которые понятия не знают о единоборствах, роя джонса вот пригласили бы на роль , было бы шикарно , а так понимая в боксе смотреть на это убожество не оч приятно .

    01-09-2015 17:27 Левша Скачать торрент  

    01-09-2015 17:56 Левша Скачать торрент  

    Посмотри подготовку Джейка Джилленхола к это фильму а потом говорите

    Pекламный агент PB

    02-09-2015 09:57 Левша Скачать торрент  

    не то это все говорю , пусть хоть ,,опу порвет на подготовке , не бокс это , кто знает тот поймет о чем я

    02-09-2015 10:56 Левша Скачать торрент  

    Не слушайте бред кто пишет о фильме плохо они дебилы. Качайте фильм хороший.

    02-09-2015 18:31 Левша Скачать торрент  

    фИЛЬМ СУПЕР НА 200%

    02-09-2015 20:57 Левша Скачать торрент  

    классное кино))) всем советую!

    03-09-2015 10:02 Левша Скачать торрент  

    фильм хорош !!!

    04-09-2015 17:42 Левша Скачать торрент  

    05-09-2015 21:08 Левша Скачать торрент  

    алексей64 писал(а):

    не то это все говорю , пусть хоть ,,опу порвет на подготовке , не бокс это , кто знает тот поймет о чем я

    фильм не про бокс чувак.смотри глубже.бокс здесь просто фон,на котором разворачиваются основные события.даже по трейлеру видно

    06-09-2015 05:32 Левша Скачать торрент  

    хорошее кино, одобрямс!

    Pекламный агент PB

    06-09-2015 15:22 Левша Скачать торрент  

    зачётный фильм

    06-09-2015 19:02 Левша Скачать торрент  

    алексей64 писал(а):

    не то это все говорю , пусть хоть ,,опу порвет на подготовке , не бокс это , кто знает тот поймет о чем я

    полностью с тобой согласен!

    07-09-2015 14:18 Левша Скачать торрент  

    nikitos_1983 писал(а):

    алексей64 писал(а):

    не то это все говорю , пусть хоть ,,опу порвет на подготовке , не бокс это , кто знает тот поймет о чем я

    фильм не про бокс чувак.смотри глубже.бокс здесь просто фон,на котором разворачиваются основные события.даже по трейлеру видноуважаемый , я понял что не про бокс фильм , поэтому и высказался что постановка боев шлак полный , смысл тогда этого фильма не пойму , просто мелодрама , для домохозяек что ли , поплакать , этого дерьма тут валом , фильм завязан на боксе , и я высказал то , что мне не нравиться как тут поставили бои , ну хоть пригласили боксера того же сняться , на крайняк рокки посмотреть , где они тупо стоят и бьют по морде тупо , а ведь чемпионы , вот о чем я ,я не навязываю свою точку зрения , нравиться и нравиться , а те кто увлекаются боксом , тем смотреть не интересно , я эт не только за себя говорю(а если честно еслиб хотели мелодраму состряпать с элементами бокса , сняли бы лучше про тайсона и каса даматту фильм , вот уж где мелодрамма и драма , да таких примеров куча , а тут сопли ниочем )

    10-09-2015 16:58 Левша Скачать торрент  

    Очень хороший фильм 10 из 10. Ворон, спасибо за релиз!

    12-09-2015 16:05 Левша Скачать торрент  

    Норм! Спасибо! Досмотрел с интересом до конца! Фильм без соплей, не смотря на то, что америкосы снимали.

    15-09-2015 12:21 Левша Скачать торрент  

    Фильм - очередное голливудское творение.... На один раз, и-то с натягом. Все ждал, что что-то будет не так известно с самого начала, но увы! Картинка конечно красивая, актер старается, но все время ноет плачет и умирает... Посмотрел и стер!

    16-09-2015 14:18 Левша Скачать торрент  

    Vitys163 писал(а):

    Не слушайте бред кто пишет о фильме плохо они дебилы. Качайте фильм хороший.

    оскорблять других нехорошее занятие

    16-09-2015 14:22 Левша Скачать торрент  

    Тяжелая спорт.драма. Америкосы их умеют снимать, 10/10.

    Pекламный агент PB

    Дорогой пользователь! Огромная просьба, поблагодарите релизера, оцените раздачу и оставьте свои комментарий, если Вы скачали Левша через торрент бесплатно! Внесите свою лепту в развитие PiratBit!

    Комментировать посты могут только пользователи прошедшие не сложную регистрацию

    Левша через торрент Скачать бесплатно Левша Левша скачать торрент Левша смотреть онлайн Cкачать фильм Левша бесплатно Левша скачать торрент в хорошем качестве Левша смотреть онлайн бесплатно в хорошем качестве

    Вы не можете начинать темыВы не можете отвечать на сообщенияВы не можете редактировать свои сообщенияВы не можете удалять свои сообщенияВы не можете голосовать в опросахВы не можете прикреплять файлы к сообщениямВы можете скачивать файлы


    Смотрите также