Ледниковый период 4 скачать в хорошем качестве через торрент


Скачать Ледниковый период 4: Континентальный дрейф через торрент

Категория: Фильмы 4658 0 Торрент добавлен: 16-04-2015 Рейтинг:

2012 / мультфильм / 78 мин.Производство: США Режиссер: Стив Мартино, Майк Трумейер В ролях: Рэй Романо, Джон Легуизамо, Куин Латифа, Дэнис Лири, Джош Пек, Азиз Ансари, Джой Бехар, Кристофер Кэмпбелл, Ален Шаба, Эстер Дин

7 лет прошло с тех пор, как земная кора изменилась. Это привело к непоправимому дрейфу континентов. Теперь главные герои мультфильма отстали от своего стада, и, чтобы добраться до него, они садятся на платину - айсберг. Проехав весь океан, друзья приезжают на необычный остров, где живут странные звери и пираты, которые не хотят принимать новичков на своей земле. Наших героев ждут приключения, противостояния, опасность, борьба за жизнь и новая проверка дружбы на прочность. И только хорошая командная работа поможет им спастись, но это они понимают не сразу.

Трейлер к мультфильму Ледниковый период 4: Континентальный дрейф

Ледниковый период 4: Континентальный дрейф скачать торрент

Формат: M2TSВидео кодек: H.26xАудио кодек: DTSВидео: Видео 1: MPEG-4 AVC Video 19494 kbps 1080p / 23,976 fps / 16:9 / High Profile 4.1, 1920х1080 Аудио: Аудио 1: DTS-HD Master Audio English 3915 kbps 5.1 / 48 kHz / 3915 kbps / 24-bit (DTS Core: 5.1 / 48 kHz / 1509 kbps / 24-bit) 40,29 Gb

скачать

3D

Формат: MKVВидео кодек: H.26xАудио кодек: AC3Видео: AVC / 23,976 fps / 1920х1080p / 10,1 Мbps Аудио: Звук 1: Рус / 48 KHz / 5.1 ch / 640 Kbps Проф. (полное дублирование)

7,37 Gb

скачать

Формат: MKVВидео кодек: H.26xАудио кодек: AC3Видео: 1920x800 (2,40:1), 23.976 fps, 6045 kbps Аудио: Аудио 1: 6 ch, 640 kbps (Rus)

4,37 Gb

Формат: AVIВидео кодек: XviDАудио кодек: AC3Видео: 1770 kb/s, 720x304 Аудио: 448 kb/s, (6 ch) Проф. (полное дублирование)

скачать

Вы находитесь на странице, где можете совершенно бесплатно скачать фильм Ледниковый период 4: Континентальный дрейф в хорошем качестве через торрент, в любом формате, который больше всего вам на данный момент подходит. Скачивание осуществляется через торрент, что означает максимально высокую скорость загрузки. Желаем Вам приятного просмотра!. Не забудь поделиться своими впечатлениями после того как посмотришь фильм Ледниковый период 4: Континентальный дрейф.

Информация Посетители, находящиеся в группе Гости, не могут оставлять комментарии к данной публикации.

psp-gu.ru

4: , HELLYWOOD

x264 [info]: frame I:1181 Avg QP:13.96 size:134821x264 [info]: frame P:32933 Avg QP:16.24 size: 43927x264 [info]: frame B:92126 Avg QP:17.63 size: 18108x264 [info]: consecutive B-frames: 3.5% 6.7% 14.4% 28.8% 17.9% 24.4% 2.1% 0.8% 0.7% 0.7%x264 [info]: mb I I16..4: 5.2% 71.3% 23.5%x264 [info]: mb P I16..4: 1.2% 15.8% 2.6% P16..4: 25.1% 26.8% 14.3% 3.6% 0.6% skip:10.2%x264 [info]: mb B I16..4: 0.2% 2.7% 0.4% B16..8: 28.7% 22.0% 5.4% direct: 7.2% skip:33.4% L0:38.0% L1:41.5% BI:20.5%x264 [info]: 8x8 transform intra:80.3% inter:51.7%x264 [info]: direct mvs spatial:95.4% temporal:4.6%x264 [info]: coded y,uvDC,uvAC intra: 89.4% 89.2% 71.7% inter: 31.7% 25.9% 12.8%x264 [info]: i16 v,h,dc,p: 24% 13% 4% 59%x264 [info]: i8 v,h,dc,ddl,ddr,vr,hd,vl,hu: 10% 9% 7% 9% 13% 12% 14% 11% 15%x264 [info]: i4 v,h,dc,ddl,ddr,vr,hd,vl,hu: 14% 9% 6% 8% 15% 12% 14% 9% 13%x264 [info]: i8c dc,h,v,p: 38% 26% 16% 20%x264 [info]: Weighted P-Frames: Y:2.8% UV:2.3%x264 [info]: ref P L0: 56.8% 8.5% 13.5% 6.2% 4.4% 3.2% 2.5% 1.5% 1.1% 0.9% 0.7% 0.6% 0.1% 0.0%x264 [info]: ref B L0: 78.6% 11.4% 4.1% 1.9% 1.3% 0.9% 0.7% 0.4% 0.3% 0.2% 0.1%x264 [info]: ref B L1: 93.9% 6.1%

GeneralUnique ID : 197764685195324026226938229513032860996 (0x94C817C957C8CFC3928CF39188A48544)Complete name : D:\Lednikovyj.Period.4.Kontinentalnyj.Drejf.2012.BDRip.720p.TRIPLE.Subs.-HELLYWOOD.mkvFormat : MatroskaFormat version : Version 4 / Version 2File size : 4.11 GiBDuration : 1h 27mnOverall bit rate : 6 706 KbpsMovie name : Ice Age: Continental Drift (2012) - https://hellywood.ru/Encoded date : UTC 2015-01-21 07:19:22Writing application : mkvmerge v6.9.1 ('Blue Panther') 32bit built on Apr 18 2014 18:15:44Writing library : libebml v1.3.0 + libmatroska v1.4.1

VideoID : 1Format : AVCFormat/Info : Advanced Video CodecFormat profile : [email protected] settings, CABAC : YesFormat settings, ReFrames : 12 framesCodec ID : V_MPEG4/ISO/AVCDuration : 1h 27mnBit rate : 4 975 KbpsWidth : 1 280 pixelsHeight : 534 pixelsDisplay aspect ratio : 2.40:1Frame rate : 23.976 fpsColor space : YUVChroma subsampling : 4:2:0Bit depth : 8 bitsScan type : ProgressiveBits/(Pixel*Frame) : 0.304Stream size : 2.97 GiB (72%)Title : serokuz74Writing library : x264 core 144 r2525kMod 40bb568Encoding settings : cabac=1 / ref=12 / deblock=1:-1:-1 / analyse=0x3:0x133 / me=tesa / subme=11 / psy=1 / fade_compensate=0.00 / psy_rd=1.00:0.00 / mixed_ref=1 / me_range=32 / chroma_me=1 / trellis=2 / 8x8dct=1 / cqm=0 / deadzone=21,11 / fast_pskip=0 / chroma_qp_offset=-2 / threads=12 / lookahead_threads=2 / sliced_threads=0 / nr=0 / decimate=0 / interlaced=0 / bluray_compat=0 / constrained_intra=0 / fgo=0 / bframes=9 / b_pyramid=2 / b_adapt=2 / b_bias=0 / direct=3 / weightb=1 / open_gop=0 / weightp=2 / keyint=250 / keyint_min=23 / scenecut=40 / intra_refresh=0 / rc_lookahead=60 / rc=2pass / mbtree=0 / bitrate=4975 / ratetol=1.0 / qcomp=0.60 / qpmin=0 / qpmax=69 / qpstep=4 / cplxblur=20.0 / qblur=0.5 / vbv_maxrate=50000 / vbv_bufsize=62500 / nal_hrd=none / filler=0 / ip_ratio=1.30 / pb_ratio=1.20 / aq=1:0.80Language : EnglishDefault : YesForced : NoMatrix coefficients : BT.709-5, BT.1361, IEC 61966-2-4 709, SMPTE RP177

Audio #1ID : 2Format : AC-3Format/Info : Audio Coding 3Mode extension : CM (complete main)Format settings, Endianness : BigCodec ID : A_AC3Duration : 1h 27mnBit rate mode : ConstantBit rate : 640 KbpsChannel(s) : 6 channelsChannel positions : Front: L C R, Side: L R, LFESampling rate : 48.0 KHzBit depth : 16 bitsCompression mode : LossyStream size : 402 MiB (10%)Title : AC3 5.1 @ 640 kbps - DUB, CEELanguage : RussianDefault : YesForced : No

Audio #2ID : 3Format : AC-3Format/Info : Audio Coding 3Mode extension : CM (complete main)Format settings, Endianness : BigCodec ID : A_AC3Duration : 1h 27mnBit rate mode : ConstantBit rate : 448 KbpsChannel(s) : 6 channelsChannel positions : Front: L C R, Side: L R, LFESampling rate : 48.0 KHzBit depth : 16 bitsCompression mode : LossyStream size : 281 MiB (7%)Title : AC3 5.1 @ 448 kbps - DUB, CEELanguage : UkrainianDefault : NoForced : No

Audio #3ID : 4Format : AC-3Format/Info : Audio Coding 3Mode extension : CM (complete main)Format settings, Endianness : BigCodec ID : A_AC3Duration : 1h 27mnBit rate mode : ConstantBit rate : 640 KbpsChannel(s) : 6 channelsChannel positions : Front: L C R, Side: L R, LFESampling rate : 48.0 KHzBit depth : 16 bitsCompression mode : LossyStream size : 402 MiB (10%)Title : AC3 5.1 @ 640 kbps - OriginalLanguage : EnglishDefault : NoForced : No

Text #1ID : 5Format : UTF-8Codec ID : S_TEXT/UTF8Codec ID/Info : UTF-8 Plain TextTitle : Full, R5Language : RussianDefault : NoForced : No

Text #2ID : 6Format : UTF-8Codec ID : S_TEXT/UTF8Codec ID/Info : UTF-8 Plain TextTitle : Full, GrobyLanguage : RussianDefault : NoForced : No

Text #3ID : 7Format : UTF-8Codec ID : S_TEXT/UTF8Codec ID/Info : UTF-8 Plain TextTitle : Full, R5Language : UkrainianDefault : NoForced : No

Text #4ID : 8Format : UTF-8Codec ID : S_TEXT/UTF8Codec ID/Info : UTF-8 Plain TextTitle : FullLanguage : EnglishDefault : NoForced : No

Text #5ID : 9Format : UTF-8Codec ID : S_TEXT/UTF8Codec ID/Info : UTF-8 Plain TextTitle : Full - ILanguage : EnglishDefault : NoForced : No

Menu00:00:00.000 : en:Chapter 0100:03:24.037 : en:Chapter 0200:05:07.223 : en:Chapter 0300:09:33.406 : en:Chapter 0400:13:08.704 : en:Chapter 0500:15:55.329 : en:Chapter 0600:18:22.643 : en:Chapter 0700:22:23.717 : en:Chapter 0800:25:56.555 : en:Chapter 0900:29:17.964 : en:Chapter 1000:32:57.600 : en:Chapter 1100:36:14.380 : en:Chapter 1200:38:41.652 : en:Chapter 1300:43:48.709 : en:Chapter 1400:45:29.643 : en:Chapter 1500:49:38.976 : en:Chapter 1600:53:49.476 : en:Chapter 1700:57:22.856 : en:Chapter 1801:02:31.038 : en:Chapter 1901:08:08.334 : en:Chapter 2001:11:10.474 : en:Chapter 2101:13:14.640 : en:Chapter 2201:16:53.400 : en:Chapter 2301:19:23.633 : en:Chapter 24

hellywood.ru

Континентальный дрейф через торрент в хорошем качестве бесплатно 1080p

x264 [info]: frame I:1207 Avg QP:14.08 size:283688x264 [info]: frame P:33525 Avg QP:16.59 size: 97806x264 [info]: frame B:91507 Avg QP:18.45 size: 40976x264 [info]: consecutive B-frames: 2.5% 7.2% 5.7% 62.3% 9.5% 10.4% 1.6% 0.9%x264 [info]: mb I I16..4: 21.6% 45.4% 32.9%x264 [info]: mb P I16..4: 4.1% 17.8% 3.6% P16..4: 26.5% 25.4% 9.5% 3.0% 0.3% skip: 9.8%x264 [info]: mb B I16..4: 1.0% 3.2% 0.6% B16..8: 30.5% 17.4% 2.7% direct:10.6% skip:34.1% L0:34.9% L1:40.1% BI:25.1%x264 [info]: 8x8 transform intra:67.0% inter:37.7%x264 [info]: direct mvs spatial:97.0% temporal:3.0%x264 [info]: coded y,uvDC,uvAC intra: 88.8% 85.5% 64.4% inter: 34.6% 27.1% 10.8%x264 [info]: i16 v,h,dc,p: 9% 12% 25% 54%x264 [info]: i8 v,h,dc,ddl,ddr,vr,hd,vl,hu: 9% 13% 9% 9% 11% 11% 12% 11% 15%x264 [info]: i4 v,h,dc,ddl,ddr,vr,hd,vl,hu: 9% 13% 13% 7% 12% 11% 12% 9% 13%x264 [info]: i8c dc,h,v,p: 35% 28% 18% 19%x264 [info]: Weighted P-Frames: Y:1.4% UV:1.1%x264 [info]: ref P L0: 65.0% 8.8% 14.8% 6.4% 4.7% 0.3% 0.0%x264 [info]: ref B L0: 88.9% 8.8% 1.7% 0.5%x264 [info]: ref B L1: 96.5% 3.5%x264 [info]: kb/s:11199.40

GeneralUnique ID : 246444775181639163056624305533704209005 (0xB9678986FD09799DBED8C5F14480026D)Complete name : Ice.Age.Continental.Drift.2012.BDRip.1080p.barm.mkvFormat : MatroskaFormat version : Version 2File size : 8.54 GiBDuration : 1h 27mnOverall bit rate : 13.9 MbpsMovie name : Ice Age: Continental Drift 2012Encoded date : UTC 2012-11-03 17:08:47Writing application : mkvmerge v5.8.0 ('No Sleep / Pillow') built on Sep 2 2012 15:37:04Writing library : libebml v1.2.3 + libmatroska v1.3.0Attachment : Yes

VideoID : 1Format : AVCFormat/Info : Advanced Video CodecFormat profile : [email protected] settings, CABAC : YesFormat settings, ReFrames : 5 framesCodec ID : V_MPEG4/ISO/AVCDuration : 1h 27mnBit rate : 11.2 MbpsWidth : 1 920 pixelsHeight : 800 pixelsDisplay aspect ratio : 2.40:1Frame rate mode : ConstantFrame rate : 23.976 fpsColor space : YUVChroma subsampling : 4:2:0Bit depth : 8 bitsScan type : ProgressiveBits/(Pixel*Frame) : 0.304Stream size : 6.71 GiB (79%)Title : Ice Age: Continental DriftWriting library : x264 core 128 r2216 198a7eaEncoding settings : cabac=1 / ref=5 / deblock=1:-1:-1 / analyse=0x3:0x133 / me=umh / subme=11 / psy=1 / psy_rd=0.80:0.00 / mixed_ref=1 / me_range=48 /chroma_me=1 / trellis=2 / 8x8dct=1 / cqm=0 / deadzone=21,11 / fast_pskip=0 / chroma_qp_offset=-2 / threads=6 / lookahead_threads=1 / sliced_threads=0 / nr=0 / decimate=0 /interlaced=0 / bluray_compat=0 / constrained_intra=0 / bframes=7 / b_pyramid=2 / b_adapt=2 / b_bias=0 / direct=3 / weightb=1 / open_gop=0 / weightp=2 / keyint=250 /keyint_min=23 / scenecut=40 / intra_refresh=0 / rc_lookahead=60 / rc=2pass / mbtree=0 / bitrate=11200 / ratetol=1.0 / qcomp=0.70 / qpmin=0 / qpmax=69 / qpstep=4 /cplxblur=20.0 / qblur=0.5 / vbv_maxrate=50000 / vbv_bufsize=62500 / nal_hrd=none / ip_ratio=1.40 / pb_ratio=1.25 / aq=2:0.70Language : EnglishDefault : YesForced : NoMatrix coefficients : BT.709

Audio #1ID : 2Format : DTSFormat/Info : Digital Theater SystemsCodec ID : A_DTSDuration : 1h 27mnBit rate mode : ConstantBit rate : 755 KbpsChannel(s) : 6 channelsChannel positions : Front: L C R, Side: L R, LFESampling rate : 48.0 KHzBit depth : 24 bitsCompression mode : LossyStream size : 474 MiB (5%)Title : Dubljaz, 48 kHz, DTS, 3/2 (L,C,R,l,r) + LFE ch, ~768 kbpsLanguage : RussianDefault : YesForced : No

Audio #2ID : 3Format : AC-3Format/Info : Audio Coding 3Mode extension : CM (complete main)Format settings, Endianness : BigCodec ID : A_AC3Duration : 1h 27mnBit rate mode : ConstantBit rate : 448 KbpsChannel(s) : 6 channelsChannel positions : Front: L C R, Side: L R, LFESampling rate : 48.0 KHzBit depth : 16 bitsCompression mode : LossyStream size : 281 MiB (3%)Title : Dubljaz, 48 kHz, AC3, 3/2 (L,C,R,l,r) + LFE ch, ~ 448.00 kbpsLanguage : UkrainianDefault : NoForced : No

Audio #3ID : 4Format : DTSFormat/Info : Digital Theater SystemsCodec ID : A_DTSDuration : 1h 27mnBit rate mode : ConstantBit rate : 1 510 KbpsChannel(s) : 6 channelsChannel positions : Front: L C R, Side: L R, LFESampling rate : 48.0 KHzBit depth : 24 bitsCompression mode : LossyStream size : 948 MiB (11%)Title : Original, 48 kHz, DTS, 3/2 (L,C,R,l,r) + LFE ch, ~1509 kbpsLanguage : EnglishDefault : NoForced : No

Text #1ID : 5Format : UTF-8Codec ID : S_TEXT/UTF8Codec ID/Info : UTF-8 Plain TextTitle : ForcedLanguage : RussianDefault : YesForced : No

Text #2ID : 6Format : UTF-8Codec ID : S_TEXT/UTF8Codec ID/Info : UTF-8 Plain TextLanguage : RussianDefault : NoForced : No

Text #3ID : 7Format : UTF-8Codec ID : S_TEXT/UTF8Codec ID/Info : UTF-8 Plain TextTitle : ForcedLanguage : UkrainianDefault : NoForced : No

Text #4ID : 8Format : UTF-8Codec ID : S_TEXT/UTF8Codec ID/Info : UTF-8 Plain TextLanguage : UkrainianDefault : NoForced : No

Text #5ID : 9Format : UTF-8Codec ID : S_TEXT/UTF8Codec ID/Info : UTF-8 Plain TextTitle : SDHLanguage : EnglishDefault : NoForced : No

Text #6ID : 10Format : UTF-8Codec ID : S_TEXT/UTF8Codec ID/Info : UTF-8 Plain TextLanguage : EnglishDefault : NoForced : No

Menu00:00:00.000 : en:Chapter 100:03:25.038 : en:Chapter 200:05:08.225 : en:Chapter 300:09:34.407 : en:Chapter 400:13:09.705 : en:Chapter 500:15:56.330 : en:Chapter 600:18:23.644 : en:Chapter 700:22:24.718 : en:Chapter 800:25:57.556 : en:Chapter 900:29:18.965 : en:Chapter 1000:32:58.601 : en:Chapter 1100:36:15.381 : en:Chapter 1200:38:42.653 : en:Chapter 1300:43:49.710 : en:Chapter 1400:45:30.644 : en:Chapter 1500:49:39.977 : en:Chapter 1600:53:50.477 : en:Chapter 1700:57:23.857 : en:Chapter 1801:02:32.040 : en:Chapter 1901:08:09.335 : en:Chapter 2001:11:11.475 : en:Chapter 2101:13:15.641 : en:Chapter 2201:16:54.401 : en:Chapter 2301:19:24.634 : en:Chapter 24

piratbit.ru

Антология через торрент в хорошем качестве бесплатно HDRip-AVC

piratbit.ru

Раздают: 1 [ 0 KB/s ]
Размер: 5.81 GB | Добавлен: 4 года 11 мес. назад | Торрент скачан:1266 раз
Реклама Дарим 3000 рублей за регистрацию, не упусти свой шанс получить шикарный бонус!!!

13-01-2012 12:11 Ледниковый период: Антология Скачать торрент  

Ледниковый период: Антология / Ice Age: AntologyЛедниковый период / Ice Age«Отмороженные герои»

Год выпуска: 2002Страна: СШАЖанр: мультфильм, комедия, приключения, семейныйПродолжительность: 01:21:05Перевод: Профессиональный (полное дублирование)

Режиссер: Крис Уэдж, Карлос Салдана

В ролях: Рэй Романо, Джон Легуизамо, Дэнис Лири, Горан Вишнич, Джек Блэк, Седрик «Развлекатель», Стивен Рут, Дидрих Бадер, Алан Тьюдик, Лорри Бэгли

Описание: Веселые и опасные приключения героев. 20 тыс. лет назад. Чтобы избежать приближающегося из-за наступления ледникового периода холода, животные мигрируют на юг. Однако некоторые из них все-таки решают остаться — одинокий, угрюмый мамонт Манфред, а также бесшабашный ленивец Сид.Случайно эта парочка наталкивается на человеческого детеныша. Они решаются вернуть его людям и отправляются в путешествие. По пути они встречают саблезубого хитрого тигра. И теперь этой веселой компании предстоят забавные приключения!

|

Качество: HDRip-AVC (Rip by Demonessa)Исходник: BDRip 1080pФормат: MKVВидео кодек: H.264Аудио кодек: AC3Видео: H.264, 1024*560, 23,976 кадр/сек, 2185 Кбит/сек, 0.159 Бит/(Пиксели*Кадры)Аудио: AC3, 384 Кбит/сек, 6 каналов, 48,0 КГц

Код:

ОбщееУникальный идентификатор         : 188246645680816737512510007301274998183 (0x8D9EFC3510BEC017811228AD9BFA15A7)Полное имя                       : E:VideoR.G. nICE Films (Rips by Demonessa)МультфильмыЛедниковый период (Трилогия)Ледниковый период Rip by Demonessa.mkvФормат                           : MatroskaРазмер файла                     : 1,46 ГбайтПродолжительность                : 1 ч. 21 м.Общий поток                      : 2569 Кбит/секДата кодирования                 : UTC 2011-10-12 01:53:22Программа кодирования            : mkvmerge v4.9.1 ('Ich will') built on Jul 11 2011 23:53:15Библиотека кодирования           : libebml v1.2.1 + libmatroska v1.1.1

ВидеоИдентификатор                    : 1Формат                           : AVCФормат/Информация                : Advanced Video CodecПрофиль формата                  : [email protected]Параметр CABAC формата           : ДаПараметр ReFrames формата        : 14 кадрыИдентификатор кодека             : V_MPEG4/ISO/AVCПродолжительность                : 1 ч. 21 м.Битрейт                          : 2185 Кбит/секШирина                           : 1024 пикс.Высота                           : 560 пикс.Соотношение сторон               : 16:9Частота кадров                   : 23,976 кадр/секЦветовое пространство            : YUVПодвыборка цветности             : 4:2:0Битовая глубина                  : 8 битТип развёртки                    : ПрогрессивнаяБит/(Пиксели*Кадры)              : 0.159Размер потока                    : 1,21 Гбайт (83%)Заголовок                        : Rip by DemonessaБиблиотека кодирования           : x264 core 116 r2074 2641b9eНастройки программы              : cabac=1 / ref=14 / deblock=1:-2:-1 / analyse=0x3:0x113 / me=umh / subme=9 / psy=1 / psy_rd=1.00:0.00 / mixed_ref=1 / me_range=32 / chroma_me=1 / trellis=2 / 8x8dct=1 / cqm=0 / deadzone=21,11 / fast_pskip=1 / chroma_qp_offset=-2 / threads=4 / sliced_threads=0 / nr=0 / decimate=1 / interlaced=0 / bluray_compat=0 / constrained_intra=0 / bframes=8 / b_pyramid=2 / b_adapt=1 / b_bias=0 / direct=1 / weightb=1 / open_gop=0 / weightp=2 / keyint=250 / keyint_min=23 / scenecut=40 / intra_refresh=0 / rc_lookahead=40 / rc=2pass / mbtree=1 / bitrate=2185 / ratetol=1.0 / qcomp=0.70 / qpmin=10 / qpmax=51 / qpstep=4 / cplxblur=20.0 / qblur=0.5 / ip_ratio=1.40 / aq=1:1.00Язык                             : English

АудиоИдентификатор                    : 2Формат                           : AC-3Формат/Информация                : Audio Coding 3Расширение режима                : CM (complete main)Идентификатор кодека             : A_AC3Продолжительность                : 1 ч. 21 м.Вид битрейта                     : ПостоянныйБитрейт                          : 384 Кбит/секКанал(ы)                         : 6 канала(ов)Расположение каналов             : Front: L C R, Side: L R, LFEЧастота                          : 48,0 КГцБитовая глубина                  : 16 битМетод сжатия                     : С потерямиРазмер потока                    : 223 Мбайт (15%)Заголовок                        : ДубляжЯзык                             : Russian

Ледниковый период 2: Глобальное потепление / Ice Age: The Meltdown«Зима закончилась!»

Год выпуска: 2006Страна: СШАЖанр: мультфильм, комедия, приключения, семейныйПродолжительность: 01:30:36Перевод: Профессиональный (полное дублирование)

Режиссер: Карлос Салдана

В ролях: Рэй Романо, Джон Легуизамо, Дэнис Лири, Шонн Уильям Скотт, Джош Пек, Куин Латифа, Уилл Арнетт, Джей Лено, Крис Уэдж, Питер Экерман

Описание: Саблезубый тигр Диего, мамонт Манфред, грызун Скрэт и ленивец Сид дожили до глобального потепления. С одной стороны, это круто — ледяная пустыня превратилась в настоящий аквапарк, где можно принимать теплые ванны и резвиться под сенью струй. С другой — не очень: стремительный паводок идет прямиком к их родной долине.Теперь ответственным животным придется спасать соседей от потопа, что довольно проблематично — строить ковчег совершенно не из чего, кроме как из талого снега. Но не беспокойтесь — эвакуация разнообразной живности в сухое место пройдет не менее суетливо, смешно и успешно, чем и прошлая операция по возвращению человеческого детеныша в лоно семьи.

|

Качество: HDRip-AVC (Rip by Demonessa)Исходник: BDRip 1080pФормат: MKVВидео кодек: H.264Аудио кодек: AC3Видео: H.264, 1024*560, 23,976 кадр/сек, 1914 Кбит/сек, 0.139 Бит/(Пиксели*Кадры)Аудио: AC3, 384 Кбит/сек, 6 каналов, 48,0 КГц

Код:

ОбщееУникальный идентификатор         : 192163655884576147984279575014818015881 (0x90915FB881C8EB548CB731DC048D6A89)Полное имя                       : E:VideoR.G. nICE Films (Rips by Demonessa)МультфильмыЛедниковый период (Трилогия)Ледниковый период 2 - Глобальное потепление Rip by Demonessa.mkvФормат                           : MatroskaРазмер файла                     : 1,45 ГбайтПродолжительность                : 1 ч. 30 м.Общий поток                      : 2293 Кбит/секДата кодирования                 : UTC 2011-10-13 20:49:33Программа кодирования            : mkvmerge v4.9.1 ('Ich will') built on Jul 11 2011 23:53:15Библиотека кодирования           : libebml v1.2.1 + libmatroska v1.1.1

ВидеоИдентификатор                    : 1Формат                           : AVCФормат/Информация                : Advanced Video CodecПрофиль формата                  : [email protected]Параметр CABAC формата           : ДаПараметр ReFrames формата        : 14 кадрыИдентификатор кодека             : V_MPEG4/ISO/AVCПродолжительность                : 1 ч. 30 м.Битрейт                          : 1914 Кбит/секШирина                           : 1024 пикс.Высота                           : 560 пикс.Соотношение сторон               : 16:9Частота кадров                   : 23,976 кадр/секЦветовое пространство            : YUVПодвыборка цветности             : 4:2:0Битовая глубина                  : 8 битТип развёртки                    : ПрогрессивнаяБит/(Пиксели*Кадры)              : 0.139Размер потока                    : 1,18 Гбайт (81%)Заголовок                        : Rip by DemonessaБиблиотека кодирования           : x264 core 116 r2074 2641b9eНастройки программы              : cabac=1 / ref=14 / deblock=1:-2:-1 / analyse=0x3:0x113 / me=umh / subme=9 / psy=1 / psy_rd=1.00:0.00 / mixed_ref=1 / me_range=32 / chroma_me=1 / trellis=2 / 8x8dct=1 / cqm=0 / deadzone=21,11 / fast_pskip=1 / chroma_qp_offset=-2 / threads=4 / sliced_threads=0 / nr=0 / decimate=1 / interlaced=0 / bluray_compat=0 / constrained_intra=0 / bframes=8 / b_pyramid=2 / b_adapt=1 / b_bias=0 / direct=1 / weightb=1 / open_gop=0 / weightp=2 / keyint=250 / keyint_min=23 / scenecut=40 / intra_refresh=0 / rc_lookahead=40 / rc=2pass / mbtree=1 / bitrate=1914 / ratetol=1.0 / qcomp=0.70 / qpmin=10 / qpmax=51 / qpstep=4 / cplxblur=20.0 / qblur=0.5 / ip_ratio=1.40 / aq=1:1.00Язык                             : English

АудиоИдентификатор                    : 2Формат                           : AC-3Формат/Информация                : Audio Coding 3Расширение режима                : CM (complete main)Идентификатор кодека             : A_AC3Продолжительность                : 1 ч. 30 м.Вид битрейта                     : ПостоянныйБитрейт                          : 384 Кбит/секКанал(ы)                         : 6 канала(ов)Расположение каналов             : Front: L C R, Side: L R, LFEЧастота                          : 48,0 КГцБитовая глубина                  : 16 битМетод сжатия                     : С потерямиРазмер потока                    : 249 Мбайт (17%)Заголовок                        : ДубляжЯзык                             : Russian

Ледниковый период 3: Эра динозавров / Ice Age: Dawn of the Dinosaurs«The sub-zero heroes are back, on an incredible adventure... for the ages.»

Год выпуска: 2009Страна: СШАЖанр: мультфильм, комедия, приключения, семейныйПродолжительность: 01:34:03Перевод: Профессиональный (полное дублирование)

Режиссер: Карлос Салдана, Майк Трумейер

В ролях: Рэй Романо, Джон Легуизамо, Саймон Пегг, Куин Латифа, Шонн Уильям Скотт, Джош Пек, Дэнис Лири, Крис Уэдж, Юнис Чо, Карен Дишер

Описание: К событиям «Ледникового периода 3» жизнь главных героев мультфильма потерпела некоторые изменения. Мамонты Манфред и Элли ожидают появление на свет своего детёныша; саблезубый тигр Диего впал в раздумье о том, не стал ли он слишком «мягкотелым» в компании своих друзей; ленивец Сид, бредя желанием создать собственное племя, решился украсть несколько яиц динозавра. Отправившись спасать Сида, друзья попадают в таинственный растительный мир, скрытый под толщами льда, где они сталкиваются с динозаврами и агрессивной окружающей средой, а также знакомятся с охотником на динозавров — лаской по имени Бак.Крысобелка Скрэт (который вновь случайным образом стал виной глобальной проблемы, открыв путь в мир динозавров) по-прежнему гоняется за своим орехом, но на этот раз у него появился конкурент — крысобелка Скрэтти, однако, одновременно с одержимой борьбой за орех, эти двое влюбляются друг в друга.

|

Качество: HDRip-AVC (Rip by Demonessa)Исходник: BDRip 1080pФормат: MKVВидео кодек: H.264Аудио кодек: AC3Видео: H.264, 1024*560, 23,976 кадр/сек, 1830 Кбит/сек, 0.133 Бит/(Пиксели*Кадры)Аудио: AC3, 384 Кбит/сек, 6 каналов, 48,0 КГц

Код:

ОбщееУникальный идентификатор         : 208880174038444170116120385642602899061 (0x9D24DBB2CB8746F2A09E3AAD82F72675)Полное имя                       : E:VideoR.G. nICE Films (Rips by Demonessa)МультфильмыЛедниковый период (Трилогия)Ледниковый период 3 - Эра динозавров Rip by Demonessa.mkvФормат                           : MatroskaРазмер файла                     : 1,45 ГбайтПродолжительность                : 1 ч. 34 м.Общий поток                      : 2214 Кбит/секДата кодирования                 : UTC 2011-10-17 19:22:46Программа кодирования            : mkvmerge v4.9.1 ('Ich will') built on Jul 11 2011 23:53:15Библиотека кодирования           : libebml v1.2.1 + libmatroska v1.1.1

ВидеоИдентификатор                    : 1Формат                           : AVCФормат/Информация                : Advanced Video CodecПрофиль формата                  : [email protected]Параметр CABAC формата           : ДаПараметр ReFrames формата        : 14 кадрыИдентификатор кодека             : V_MPEG4/ISO/AVCПродолжительность                : 1 ч. 34 м.Битрейт                          : 1830 Кбит/секШирина                           : 1024 пикс.Высота                           : 560 пикс.Соотношение сторон               : 16:9Частота кадров                   : 23,976 кадр/секЦветовое пространство            : YUVПодвыборка цветности             : 4:2:0Битовая глубина                  : 8 битТип развёртки                    : ПрогрессивнаяБит/(Пиксели*Кадры)              : 0.133Размер потока                    : 1,17 Гбайт (81%)Заголовок                        : Rip by DemonessaБиблиотека кодирования           : x264 core 116 r2074 2641b9eНастройки программы              : cabac=1 / ref=14 / deblock=1:-2:-1 / analyse=0x3:0x113 / me=umh / subme=9 / psy=1 / psy_rd=1.00:0.00 / mixed_ref=1 / me_range=32 / chroma_me=1 / trellis=2 / 8x8dct=1 / cqm=0 / deadzone=21,11 / fast_pskip=1 / chroma_qp_offset=-2 / threads=4 / sliced_threads=0 / nr=0 / decimate=1 / interlaced=0 / bluray_compat=0 / constrained_intra=0 / bframes=8 / b_pyramid=2 / b_adapt=1 / b_bias=0 / direct=1 / weightb=1 / open_gop=0 / weightp=2 / keyint=250 / keyint_min=23 / scenecut=40 / intra_refresh=0 / rc_lookahead=40 / rc=2pass / mbtree=1 / bitrate=1830 / ratetol=1.0 / qcomp=0.70 / qpmin=10 / qpmax=51 / qpstep=4 / cplxblur=20.0 / qblur=0.5 / ip_ratio=1.40 / aq=1:1.00Язык                             : English

АудиоИдентификатор                    : 2Формат                           : AC-3Формат/Информация                : Audio Coding 3Расширение режима                : CM (complete main)Идентификатор кодека             : A_AC3Продолжительность                : 1 ч. 34 м.Вид битрейта                     : ПостоянныйБитрейт                          : 384 Кбит/секКанал(ы)                         : 6 канала(ов)Расположение каналов             : Front: L C R, Side: L R, LFEЧастота                          : 48,0 КГцБитовая глубина                  : 16 битМетод сжатия                     : С потерямиРазмер потока                    : 258 Мбайт (17%)Заголовок                        : ДубляжЯзык                             : Russian

Ледниковый период 4: Континентальный дрейф / Ice Age: Continental Drift

Год выпуска: 2012Страна: СШАЖанр: мультфильм, комедия, приключения, семейныйПродолжительность: 01:27:45Перевод: Профессиональный (полное дублирование)

Режиссер: Стив Мартино, Майк Тёрм

В ролях: Рэй Романо, Джон Легуизамо, Куин Латифа, Дэнис Лири, Джош Пек, Питер Динклэйдж, Кеке Палмер, Дженнифер Лопез, Ник Фрост, Азиз Ансари

Описание: После приключений под землей прошло семь лет. Случился дрейф континентов. Главные герои мультфильма, отделённые от стада, вынуждены использовать айсберг в качестве плота. Они пересекают океан и попадают в неизвестные им ранее земли с экзотическими животными и пиратами, враждебно настроенными к ним. Скрэту удаётся получить свой жёлудь, но он перемещается в новые для него земли.

|

Качество: HDRip-AVC (Rip by Demonessa)Исходник: BDRip 1080pФормат: MKVВидео кодек: H.264Аудио кодек: AC3Видео: H.264, 1024*432, 23,976 кадр/сек, 1986 Кбит/сек, 0.187 Бит/(Пиксели*Кадры)Аудио: AC3, 384 Кбит/сек, 6 каналов, 48,0 КГц

Код:

ОбщееУникальный идентификатор         : 244376670769297288923071555340021939519 (0xB7D93C1B7CC8E77F876963330A563D3F)Полное имя                       : E:VideoR.G. nICE Films (Rips by Demonessa)МультфильмыЛедниковый период (Антология)Ледниковый период 4 - Континентальный дрейф.mkvФормат                           : MatroskaРазмер файла                     : 1,45 ГбайтПродолжительность                : 1 ч. 27 м.Общий поток                      : 2368 Кбит/секДата кодирования                 : UTC 2012-10-29 13:52:39Программа кодирования            : mkvmerge v5.6.0 ('Kenya Kane') built on May 27 2012 16:44:04Библиотека кодирования           : libebml v1.2.3 + libmatroska v1.3.0

ВидеоИдентификатор                    : 1Формат                           : AVCФормат/Информация                : Advanced Video CodecПрофиль формата                  : [email protected]Параметр CABAC формата           : ДаПараметр ReFrames формата        : 10 кадрыПараметры GOP формата            : M=8, N=37Идентификатор кодека             : V_MPEG4/ISO/AVCПродолжительность                : 1 ч. 27 м.Битрейт                          : 1986 Кбит/секШирина                           : 1024 пикс.Высота                           : 432 пикс.Соотношение сторон               : 2,35:1Частота кадров                   : 23,976 кадр/секЦветовое пространство            : YUVПодвыборка цветности             : 4:2:0Битовая глубина                  : 8 битТип развёртки                    : ПрогрессивнаяБит/(Пиксели*Кадры)              : 0.187Размер потока                    : 1,19 Гбайт (82%)Заголовок                        : Rip by DemonessaБиблиотека кодирования           : x264 core 125 r2200 999b753Настройки программы              : cabac=1 / ref=10 / deblock=1:-2:-1 / analyse=0x3:0x113 / me=umh / subme=9 / psy=1 / psy_rd=1.00:0.00 / mixed_ref=1 / me_range=32 / chroma_me=1 / trellis=2 / 8x8dct=1 / cqm=0 / deadzone=21,11 / fast_pskip=1 / chroma_qp_offset=-2 / threads=4 / lookahead_threads=1 / sliced_threads=0 / nr=0 / decimate=1 / interlaced=0 / bluray_compat=0 / constrained_intra=0 / bframes=7 / b_pyramid=2 / b_adapt=1 / b_bias=0 / direct=1 / weightb=1 / open_gop=0 / weightp=2 / keyint=240 / keyint_min=23 / scenecut=40 / intra_refresh=0 / rc_lookahead=40 / rc=2pass / mbtree=1 / bitrate=1986 / ratetol=1.0 / qcomp=0.70 / qpmin=10 / qpmax=51 / qpstep=4 / cplxblur=20.0 / qblur=0.5 / ip_ratio=1.40 / aq=1:1.00Язык                             : English

АудиоИдентификатор                    : 2Формат                           : AC-3Формат/Информация                : Audio Coding 3Расширение режима                : CM (complete main)Идентификатор кодека             : A_AC3Продолжительность                : 1 ч. 27 м.Вид битрейта                     : ПостоянныйБитрейт                          : 384 Кбит/секКанал(ы)                         : 6 канала(ов)Расположение каналов             : Front: L C R, Side: L R, LFEЧастота                          : 48,0 КГцБитовая глубина                  : 16 битМетод сжатия                     : С потерямиРазмер потока                    : 241 Мбайт (16%)Заголовок                        : ДубляжЯзык                             : Russian

Скачать Ледниковый период: Антология через торрент http://s002.youpic.su/pictures/1326402000/d5906eaaeca71181fe72e3cccce134e2.png Скачать фильм Ледниковый период: Антология через торрент бесплантно в хорошем качестве Описание: Веселые и опасные приключения героев. 20 тыс. лет назад. Чтобы избежать приближающегося из-за наступления ледникового периода ... 2012-10-29 13:14 9.7 10 44

Loading...

Loading...

Последний раз редактировалось: Demonessa (2012-10-29 13:14), всего редактировалось 3 раз(а)

Рекламный пират

24-03-2012 15:29 Ледниковый период: Антология Скачать торрент  

СПС! :good2:

04-07-2012 14:12 Ледниковый период: Антология Скачать торрент  

дайте скорости пожалуйста

06-07-2012 10:05 Ледниковый период: Антология Скачать торрент  

спасибо, у меня дети балдеют

29-10-2012 13:17 Ледниковый период: Антология Скачать торрент  

Раздача обновленаДобавлена 4я часть

30-10-2012 03:08 Ледниковый период: Антология Скачать торрент  

Спасибо большое!!!

26-02-2014 13:55 Ледниковый период: Антология Скачать торрент  

Дорогой пользователь! Огромная просьба, поблагодарите релизера, оцените раздачу и оставьте свои комментарий, если Вы скачали Ледниковый период: Антология через торрент бесплатно! Внесите свою лепту в развитие PiratBit!

Комментировать посты могут только пользователи прошедшие не сложную регистрацию

Ледниковый период: Антология через торрент Скачать бесплатно Ледниковый период: Антология Ледниковый период: Антология скачать торрент Ледниковый период: Антология смотреть онлайн Cкачать фильм Ледниковый период: Антология бесплатно Ледниковый период: Антология скачать торрент в хорошем качестве Ледниковый период: Антология смотреть онлайн бесплатно в хорошем качестве

Вы не можете начинать темыВы не можете отвечать на сообщенияВы не можете редактировать свои сообщенияВы не можете удалять свои сообщенияВы не можете голосовать в опросахВы не можете прикреплять файлы к сообщениямВы можете скачивать файлы


Смотрите также