Крутящий момент скачать торрент в хорошем качестве


Обсуждение Фильмов - Крутящий момент

Фильмы: Крутящий момент / Torque (2004) Подробнее

Эта история о жизни молодого байкера по имени Кери Форд, который возвращается к себе домой, в родной город. Он мечтает вернуться к любимой девушке и начать жить как все нормальные люди. Однако, пожить нормальной жизнью не удалось. Как только молодой человек возвращается домой, его обвиняют в убийстве, о котором он ничего не знает. Теперь Кери преследует полиция и родственники того, кого он якобы убил. Молодой человек не знает куда ему деться, он хочет начать своё собственное расследование, чтобы доказать, что убийца не он. © Fast-Torrent.ru

MUXAJIbI4

Возраст:214 не указан

Сообщений: 5

Фильм хороший,чем то похож на Форсаж. Советую посмотреть всем!!!

MUXAJIbI4

Возраст:214 не указан

Сообщений: 5

Только с переводом ошибочка - он в 2 голоса

magna

Возраст:7 не указан

Сообщений: 76 тупенький,но глянуть можно chief.erohin

Возраст:40 Женский

Сообщений: 340

На слабенькую троечку. На один раз.

Madam

Возраст:25 Женский

Сообщений: 525 нормально +5 pikalev11

Возраст:6 Мужской

Сообщений: 56 На DVD-болванку не пишите, на бытовом плеере фильм виснет !!!! А сам фильм неплохой ,под пиво потянет !!! vispa70

Возраст:47 Мужской

Сообщений: 300

Смотреть можно.

RockyBalboa

Возраст:24 Мужской

Сообщений: 19

Ты сильнее чем кажется!

Фильм крутой! Качайте, смотрите, наслаждайтесь! Для любителей мототехники! xas36

Возраст:7 не указан

Сообщений: 1749 возможно для любителей мототехники и потянет, а мне не понравился

На один раз.

жека34

Возраст:35 Мужской

Сообщений: 58

только для дырчеров, а нам на один раз =3

bibigi66

Возраст:7 Мужской

Сообщений: 217 Fazanne

Возраст:4 Мужской

Сообщений: 20

спасибо. Посмотрим

Stefany32 90

Возраст:24 Женский

Сообщений: 1109 25 Апрель 2011 20:54

на разок +3

Nupalm

Karma:+0 / -0

[+] [-]

Возраст:Не указан не указан

Сообщений: 1

Крутой фильм для тех кто шарит, а кто не шарит, курите что по легче

Stason

Возраст:31 Мужской

Сообщений: 26 Фильм ОГОНЬ , сматрел много раз очень понравился , из уважения к ДВУМ или ТРЁМ колёсной технике +5 carisha 19

Возраст:29 Женский

Сообщений: 245

ALICE

TORQUE не торкнул. Явно снимали насмотревшись "Форсаж". Смотреть в случае непреодолимой тяге к мотоциклам и к крашеным блондинкам.

каждому -своё

я не фанат мото и другой техники,но мне понравился фильмпоинтереснее"форсажа"-по мне так Mops in black

Возраст:34 Мужской

Сообщений: 1812 мне понравился! на 4 Балла! спецэффекты ничего,сюжет натягивает чтобы посмотреть dgeraldin 12

Возраст:35 Женский

Сообщений: 320

Классный!!!

izahretsi

Возраст:37 Женский

Сообщений: 1151

Хороший , интересный фильм !!!!

The Bird Of The Hermes Is My Name...

Фильм порадовал. marshall.13 11

Возраст:27 Мужской

Сообщений: 15

отстой

ANDRON 39 829

Возраст:7 Мужской

Сообщений: 6182

Помогите расширить коллекцию Анти-российского кино во благо

ниче так фильм после форсажа вышел...но успех не велик...4

vajer 44

Возраст:31 Женский

Сообщений: 842

Уважайте чужое мнение.

Помню, что смотерела. Помню, что спецэффекты там крутые, а о чем фильм, понятия не имею. Фигня, должно быть...

miko-85 30

Возраст:32 Мужской

Сообщений: 112 отличный фильм. форсаж на мотоциклах ни чем не уступает другим форсажам 5 dront 49

Возраст:27 Мужской

Сообщений: 11

первые минуты с трудом осилил, жуткое угкуча пафоса, все выпендриваются как могут. худший фильм что я видел. только позорят мотоциклистов

CasioS1th

Возраст:22 Мужской

Сообщений: 105

ну не плохой фильм на раз посмотреть можно

DonLeon

Возраст:215 не указан

Сообщений: 22

да фильм классный, понравилось как уделяют внимание мельчайшим эффектам =))

Вы не можете оставлять больше 10 комментариев в сутки!

www.fast-torrent.ru

Скачать фильм Крутящий момент (2003) через торрент

15 августа 2016 11:02 Крутящий момент / Torque (2004) BDRip-AVC | D .torrent   [Информация о файле (нажмите для просмотра)] Перевод: ДубляжКодек: .MKVКачество: BDRip-AVCВидео: 1020x428, 23.976 fps, [email protected], ~2450 kbps 1,72 Gb 18 3 15 августа 2016 11:02 Крутящий момент / Torque (2004) HDRip от Шкипер | D .torrent   [Информация о файле (нажмите для просмотра)] Перевод: Профессиональный (полное дублирование)Кодек: XviDКачество: HDRipВидео: 640x272 (2.35:1), 23.976 fps, XviD build 73 ~1111 kbps avg, 0.27 bit/pixelЗвук: 48 kHz, MPEG Layer 3, 2 ch, ~128.00 kbps avgСубтитры: ОтсутствуетВидео: Идентификатор : 0 Формат : MPEG-4 Visual Профиль формата : Advanced [email protected] Параметр BVOP формата : 1 Параметр QPel формата : Нет Параметр GMC формата : Без точки перехода Параметр матрицы формата : Default (MPEG) Идентификатор кодека : XVID Идентификатор кодека/Подсказка : XviD Продолжительность : 1 ч. 23 м. Битрейт : 1112 Кбит/сек Ширина : 640 пикселей Высота : 272 пикселя Соотношение сторон : 2,40:1 Частота кадров : 23,976 кадра/сек Цветовое пространство : YUV Субдискретизация насыщенности : 4:2:0 Битовая глубина : 8 бит Тип развёртки : Прогрессивная Метод сжатия : С потерями Бит/(Пиксели*Кадры) : 0.266 Размер потока : 665 Мбайт (89%) Библиотека кодирования : XviD 73Аудио: Идентификатор : 1 Формат : MPEG Audio Версия формата : Version 1 Профиль формата : Layer 3 Режим : Joint stereo Идентификатор кодека : 55 Идентификатор кодека/Подсказка : MP3 Продолжительность : 1 ч. 23 м. Вид битрейта : Постоянный Битрейт : 128 Кбит/сек Каналы : 2 канала Частота : 48,0 КГц Метод сжатия : С потерями Размер потока : 76,6 Мбайт (10%) Выравнивание : Соединение по промежуткам Продолжительность промежутка : 42 мс. (1,00 видеокадр) Время предзагрузки промежутка : 504 мс. Библиотека кодирования : LAME3.99r Настройки программы : -m j -V 4 -q 2 -lowpass 17 -b 128Скриншоты 747,62 Mb 3 1 15 августа 2016 11:02 Крутящий момент / Torque (2004) BDRip 720p от MediaClub | D, P, P2 .torrent   [Информация о файле (нажмите для просмотра)] Перевод: Дублированный, профессиональный многоголосый, профессиональный двухголосыйКодек: MPEG-4 AVCКачество: BDRip 720pВидео: 9000 Кбит/с, 1280x536, 23.976 кадр/сАудио #1: Русский (AC3, 6 ch, 384 Кбит/с) / ДублированныйАудио #2: Русский (AC3, 6 ch, 384 Кбит/с) / Профессиональный многоголосыйАудио #3: Русский (AC3, 2 ch, 192 Кбит/с) / Профессиональный двухголосый (TYCOON)Аудио #4: Украинский (AC3, 2 ch, 192 Кбит/с) / Профессиональный многоголосый (ТК "К1")Аудио #5: Английский (DTS, 6 ch, 1509 Кбит/с)Субтитры: Русские, английские 6,84 Gb 3 3 15 августа 2016 11:02 Крутящий момент / Torque (2004) BDRip 1080p | D, P .torrent   [Информация о файле (нажмите для просмотра)] Перевод: Дублированный + профессиональный многоголосыйКачество: BDRip 1080pВидео: MPEG-4 AVC, 1920x804 (2.40:1), 16148 kbps, 23,976 fps, 0,436 bppАудио №1: русский / AC3 / 5.1 / 48 kHz / 384 kbps / 16 bit|DUB| Аудио №2: русский / AC3 / 5.1 / 48 kHz / 384 kbps / 16 bit|MVO #1| Аудио №3: русский / AC3 / 2.0 / 48 kHz / 192 kbps / 16 bit|MVO #2| Аудио №4: украинский / AC3 / 2.0 / 48 kHz / 192 kbps / 16 bit|MVO - ТК "К1"| Аудио №5: английский / DTS / 5.1 / 48 kHz / 1510 kbps / 24 bitСубтитры: русские, английские (полные, SDH) 11,27 Gb 3 3 15 августа 2016 11:02 Крутящий момент / Torque (2004) BDRip 720p .torrent   [Информация о файле (нажмите для просмотра)] Перевод: Профессиональный (полное дублирование) + ОригинальныйСубтитры: английские, русские.Качество: BDRipКонтейнер: MKVВидео: AVC, 1280x532 (2.40:1), 6615 kbps, 23,976 fps, 0,405 bppАудио №1: русский / AC3 / 5.1 / 48 kHz / 384 kbpsАудио №2: английский / AC3 / 5.1 / 48 kHz / 448 kbps 4,37 Gb 5 3 15 августа 2016 11:02 Крутящий момент / Torque (2004) BDRip от HQCLUB .torrent   [Информация о файле (нажмите для просмотра)] Перевод: Профессиональный (полное дублирование) + Оригинальная звуковая дорожка +Профессиональный (многоголосый, закадровый) Вариант 1Субтитры: Русские, Английские (полные, SDH) (внешние srt*) (спасибо yaroslaigor)Формат: AVIКачество: BDRip (источник / Blu-ray / 1080p)Видео: 720x304 (2.37:1), 23,976 fps, XviD build 65 ~ 1698 kbps avg, 0.32 bit/pixelАудио #1: 48 kHz, AC3 Dolby Digital, 3/2 (L,C,R,l,r) + LFE ch, ~384.00 kbps avgАудио #2: 48 kHz, AC3 Dolby Digital, 3/2 (L,C,R,l,r) + LFE ch, ~384.00 kbps avgАудио #3: 48 kHz, AC3 Dolby Digital, 3/2 (L,C,R,l,r) + LFE ch, ~384.00 kbps avg(отдельно, http)Аудио #4: 48 kHz, AC3 Dolby Digital, 2/0 (L,R), ~192.00 kbps avg(отдельно, http)Аудио #5: 48 kHz, AC3 Dolby Digital, 2/0 (L,R), ~192.00 kbps avg(отдельно, http) 1,46 Gb 24 3 15 августа 2016 11:02 Крутящий момент / Torque (2004) BDRip от Rulya74 | D .torrent   [Информация о файле (нажмите для просмотра)] Перевод: Дубляж + Профессиональный (многоголосый закадровый) УкраинскийКодек: XVIDКачество: BDRipВидео: 720x304 (2.35:1), 23.976 fps, XviD MPEG-4 ~1893 kbps avg, 0.361 bit/pixelСубтитры: Русские, Английские / внешние 1,72 Gb 2 5 15 августа 2016 11:02 Крутящий момент / Torque (2004) DVDRip-AVC .torrent   [Информация о файле (нажмите для просмотра)] Перевод: ДублированныйВидео: MPEG-4 AVC, 3000 Кбит/с, 1024x424Аудио: AC3, 6 channels, 384 kbit/s 1,91 Gb 1 2 15 августа 2016 11:02 Крутящий момент / Torque (2004) DVDRip .torrent   [Информация о файле (нажмите для просмотра)] Перевод: Профессиональный (полное дублирование), Профессиональный (многоголосый закадровый), Профессиональный (двухголосый закадровый) Tycoon studio, Оригинальный (Английский) -- отдельноКодек: XviDКачество: DVDRipВидео: 720x304 (2.37:1), 23.976 fps, XviD build 50 ~1495 kbps avg, 0.29 bit/pixelЗвук: 48 kHz, AC3 Dolby Digital, 3/2 (L,C,R,l,r) + LFE ch, ~384.00 kbps avg Dub 48 kHz, AC3 Dolby Digital, 3/2 (L,C,R,l,r) + LFE ch, ~384.00 kbps avg MVO 48 kHz, AC3 Dolby Digital, 2/0 (L,R) ch, ~192.00 kbps avg DVO 48 kHz, AC3 Dolby Digital, 3/2 (L,C,R,l,r) + LFE ch, ~384.00 kbps avg Original -- отдельноСубтитры: есть, русские -- отдельно 1,68 Gb 1 3

gig-torrent.net

Крутящий момент 2004 - скачать бесплатно через торрент в хорошем качестве. Без регистрации

Название: Крутящий момент / Torque (2004) BDRip-AVC | D
Качество видео: BDRip-AVC
Перевод: Дубляж
Видео: .MKV 1020x428, 23.976 fps, [email protected], ~2450 kbps
Скачать

Загрузка начнется в течение 5 сек.

1.72 GB

Название: Крутящий момент / Torque (2004) HDRip от Шкипер | D
Качество видео: HDRip
Перевод: Профессиональный (полное дублирование)
Видео: XviD 640x272 (2.35:1), 23.976 fps, XviD build 73 ~1111 kbps avg, 0.27 bit/pixel
Аудио: 48 kHz, MPEG Layer 3, 2 ch, ~128.00 kbps avg
Скачать

Загрузка начнется в течение 5 сек.

747.62 MB

Название: Крутящий момент / Torque (2004) BDRip 720p от MediaClub | D, P, P2
Качество видео: BDRip 720p
Перевод: Дублированный, профессиональный многоголосый, профессиональный двухголосый
Видео: MPEG-4 AVC 9000 Кбит/с, 1280x536, 23.976 кадр/с
Аудио: Русский (AC3, 6 ch, 384 Кбит/с) / ДублированныйРусский (AC3, 6 ch, 384 Кбит/с) / Профессиональный многоголосыйРусский (AC3, 2 ch, 192 Кбит/с) / Профессиональный двухголосый (TYCOON)Украинский (AC3, 2 ch, 192 Кбит/с) / Профессиональный многоголосый (ТК "К1")Английский (DTS, 6 ch, 1509 Кбит/с)
Скачать

Загрузка начнется в течение 5 сек.

6.84 GB

Название: Крутящий момент / Torque (2004) BDRip 1080p | D, P
Качество видео: BDRip 1080p
Перевод: Дублированный + профессиональный многоголосый
Видео: MPEG-4 AVC, 1920x804 (2.40:1), 16148 kbps, 23,976 fps, 0,436 bpp
Аудио: русский / AC3 / 5.1 / 48 kHz / 384 kbps / 16 bit |DUB|русский / AC3 / 5.1 / 48 kHz / 384 kbps / 16 bit |MVO #1|русский / AC3 / 2.0 / 48 kHz / 192 kbps / 16 bit |MVO #2|украинский / AC3 / 2.0 / 48 kHz / 192 kbps / 16 bit |MVO - ТК "К1"|английский / DTS / 5.1 / 48 kHz / 1510 kbps / 24 bit
Скачать

Загрузка начнется в течение 5 сек.

11.27 GB

Название: Крутящий момент / Torque (2003) BDRip 720p
Качество видео: BDRip
Перевод: Профессиональный (полное дублирование) + Оригинальный
Видео: AVC, 1280x532 (2.40:1), 6615 kbps, 23,976 fps, 0,405 bpp
Аудио: русский / AC3 / 5.1 / 48 kHz / 384 kbpsанглийский / AC3 / 5.1 / 48 kHz / 448 kbps
Скачать

Загрузка начнется в течение 5 сек.

4.37 GB

Название: Крутящий момент / Torque (2004) BDRip от HQCLUB
Качество видео: BDRip (источник: / Blu-ray / 1080p)
Перевод: Профессиональный (полное дублирование) + Оригинальная звуковая дорожка + Профессиональный (многоголосый, закадровый) Вариант 1 (отдельно, http) + Профессиональный (многоголосый, закадровый) Вариант 2
Формат видео: AVI
Видео: 720x304 (2.37:1), 23,976 fps, XviD build 65 ~ 1698 kbps avg, 0.32 bit/pixel
Аудио: 48 kHz, AC3 Dolby Digital, 3/2 (L,C,R,l,r) + LFE ch, ~384.00 kbps avg48 kHz, AC3 Dolby Digital, 3/2 (L,C,R,l,r) + LFE ch, ~384.00 kbps avg48 kHz, AC3 Dolby Digital, 3/2 (L,C,R,l,r) + LFE ch, ~384.00 kbps avg (отдельно, http)48 kHz, AC3 Dolby Digital, 2/0 (L,R), ~192.00 kbps avg (отдельно, http)48 kHz, AC3 Dolby Digital, 2/0 (L,R), ~192.00 kbps avg (отдельно, http)
Скачать

Загрузка начнется в течение 5 сек.

1.46 GB

Название: Крутящий момент / Torque (2004) BDRip от Rulya74 | D
Качество видео: BDRip
Перевод: Дубляж + Профессиональный (многоголосый закадровый) Украинский
Видео: XVID 720x304 (2.35:1), 23.976 fps, XviD MPEG-4 ~1893 kbps avg, 0.361 bit/pixel
Скачать

Загрузка начнется в течение 5 сек.

1.72 GB

Название: Крутящий момент / Torque (2004) BDRemux 1080p от HYPERHD | D, P, P2
Качество видео: BDRemux 1080p
Видео: MPEG-4 AVC Video / 23827 kbps / 1920x1080 / 23,976 fps / 16:9
Аудио: Russian / AC3 / 5.1 / 48 kHz / 384 kbps / 16-bit | Dub R5Russian / AC3 / 5.1 / 48 kHz / 384 kbps / 16-bit | MVO R5Russian / AC3 / 2.0 / 48 kHz / 192 kbps / 16-bit | DVO TycoonUkrainian / AC3 / 2.0 / 48 kHz / 192 kbps / 16-bit | MVO ТК "К1&quotEnglish / DTS-HD MA / 5.1 / 48 kHz / 4091 kbps / 24-bit | OriginalEnglish / AC3 / 2.0 / 48 kHz / 192 kbps / 16-bit | Commentary by director Joseph KahnEnglish / AC3 / 2.0 / 48 kHz / 192 kbps / 16-bit | Commentary by crew
Скачать

Загрузка начнется в течение 5 сек.

17.34 GB

www.kinovit.net

Скачать фильм Крутящий момент через торрент в хорошем качестве бесплатно BDRemux

Размер: 17.34 GB | Добавлен: 3 года 5 мес. назад | Торрент скачан:35 раз
Реклама Дарим 3000 рублей за регистрацию, не упусти свой шанс получить шикарный бонус!!!

05-05-2014 23:08 Крутящий момент Скачать торрент  

Страна: США, АвстралияЖанр: боевик, триллерГод выпуска: 2004Продолжительность: 01:24:04Озвучка: - Профессиональный (дублированный) | R5- Профессиональный (многоголосый закадровый) | R5- Профессиональный (двухголосый закадровый) | Tycoon- Профессиональный (многоголосый закадровый) | ТК "К1" / Укр. /Студия: Warner Bros., Village Roadshow Pictures, Original FilmРежиссёр: Джозеф Кан

Описание: Вернувшись в родной город к любимой девушке, байкер Кери Форд оказывается в западне: против него фабрикуют уголовное дело об убийстве, которого он никогда не совершал. Форд становится мишенью агрессивных выпадов со стороны брата жертвы, ослеплённого идеей отмщения, и объектом преследования агентов ФБР.

Кери Форд во что бы то ни стало намерен восстановить своё доброе имя и выследить преступников…

В ролях: Джон Ашкер, Макс Бисли, Дейн Кук, Айс Кьюб, Джон До, Гичи Гамба, Лэнс Гилберт, Мартин Хендерсон, Джей Эрнандес, Уилл Юн Ли

Качество: BDRemux 1080p Формат: MKVВидео кодек: AVCАудио кодек: DTS-HD-AC3Видео: MPEG-4 AVC Video / 23827 kbps / 1920x1080 / 23,976 fps / 16:9Аудио 1: Russian / AC3 / 5.1 / 48 kHz / 384 kbps / 16-bit | Dub R5Аудио 2: Russian / AC3 / 5.1 / 48 kHz / 384 kbps / 16-bit | MVO R5Аудио 3: Russian / AC3 / 2.0 / 48 kHz / 192 kbps / 16-bit | DVO TycoonАудио 4: Ukrainian / AC3 / 2.0 / 48 kHz / 192 kbps / 16-bit | MVO ТК "К1"Аудио 5: English / DTS-HD MA / 5.1 / 48 kHz / 4091 kbps / 24-bit | OriginalАудио 6: English / AC3 / 2.0 / 48 kHz / 192 kbps / 16-bit | Commentary by director Joseph KahnАудио 7: English / AC3 / 2.0 / 48 kHz / 192 kbps / 16-bit | Commentary by crewСубтитры: Russian, English, German, French, SpanishЧаптеры: естьСемпл

Z:Torque 2004 BDRemux 1080p HYPERHD.mkvGeneralUnique ID : 245751591695756933405233005433383593980 (0xB8E208F15A99C4F2BC0F091A41E4A7FC)Complete name : Z:Torque 2004 BDRemux 1080p HYPERHD.mkvFormat : MatroskaFormat version : Version 4 / Version 2File size : 17.3 GiBDuration : 1h 24mnOverall bit rate mode : VariableOverall bit rate : 29.5 MbpsMovie name : Torque 2004 BDRemux 1080p HYPERHDEncoded date : UTC 2014-05-04 13:56:30Writing application : mkvmerge v6.9.1 ('Blue Panther') 64bit built on Apr 18 2014 18:23:38Writing library : libebml v1.3.0 + libmatroska v1.4.1Attachment : YesVideo #1ID : 1Format : AVCFormat/Info : Advanced Video CodecFormat profile : [email protected] settings, CABAC : YesFormat settings, ReFrames : 2 framesFormat settings, GOP : M=1, N=10Codec ID : V_MPEG4/ISO/AVCDuration : 1h 24mnBit rate mode : VariableWidth : 1 920 pixelsHeight : 1 080 pixelsDisplay aspect ratio : 16:9Frame rate mode : ConstantFrame rate : 23.976 fpsColor space : YUVChroma subsampling : 4:2:0Bit depth : 8 bitsScan type : ProgressiveTitle : Torque 2004 BDRemux 1080p HYPERHDLanguage : EnglishDefault : YesForced : NoAudio #2ID : 2Format : AC-3Format/Info : Audio Coding 3Mode extension : CM (complete main)Format settings, Endianness : BigCodec ID : A_AC3Duration : 1h 24mnBit rate mode : ConstantBit rate : 384 KbpsChannel count : 6 channelsChannel positions : Front: L C R, Side: L R, LFESampling rate : 48.0 KHzBit depth : 16 bitsCompression mode : LossyStream size : 231 MiB (1%)Title : Dub R5Language : RussianDefault : YesForced : NoAudio #3ID : 3Format : AC-3Format/Info : Audio Coding 3Mode extension : CM (complete main)Format settings, Endianness : BigCodec ID : A_AC3Duration : 1h 24mnBit rate mode : ConstantBit rate : 384 KbpsChannel count : 6 channelsChannel positions : Front: L C R, Side: L R, LFESampling rate : 48.0 KHzBit depth : 16 bitsCompression mode : LossyStream size : 231 MiB (1%)Title : MVO R5Language : RussianDefault : NoForced : NoAudio #4ID : 4Format : AC-3Format/Info : Audio Coding 3Mode extension : CM (complete main)Format settings, Endianness : BigCodec ID : A_AC3Duration : 1h 24mnBit rate mode : ConstantBit rate : 192 KbpsChannel count : 2 channelsChannel positions : Front: L RSampling rate : 48.0 KHzBit depth : 16 bitsCompression mode : LossyStream size : 115 MiB (1%)Title : DVO TycoonLanguage : RussianDefault : NoForced : NoAudio #5ID : 5Format : AC-3Format/Info : Audio Coding 3Format profile : Dolby DigitalMode extension : CM (complete main)Format settings, Endianness : BigCodec ID : A_AC3Duration : 1h 24mnBit rate mode : ConstantBit rate : 192 KbpsChannel count : 2 channelsChannel positions : Front: L RSampling rate : 48.0 KHzBit depth : 16 bitsCompression mode : LossyStream size : 115 MiB (1%)Title : MVO ТК "K1"Language : UkrainianDefault : NoForced : NoAudio #6ID : 6Format : DTSFormat/Info : Digital Theater SystemsFormat profile : MA / CoreMode : 16Format settings, Endianness : BigCodec ID : A_DTSDuration : 1h 24mnBit rate mode : VariableBit rate : Unknown / 1 509 KbpsChannel count : 6 channelsChannel positions : Front: L C R, Side: L R, LFESampling rate : 48.0 KHzBit depth : 24 bitsCompression mode : Lossless / LossyTitle : OriginalLanguage : EnglishDefault : NoForced : NoAudio #7ID : 7Format : AC-3Format/Info : Audio Coding 3Format profile : Dolby DigitalMode extension : CM (complete main)Format settings, Endianness : BigCodec ID : A_AC3Duration : 1h 24mnBit rate mode : ConstantBit rate : 192 KbpsChannel count : 2 channelsChannel positions : Front: L RSampling rate : 48.0 KHzBit depth : 16 bitsCompression mode : LossyStream size : 115 MiB (1%)Title : Commentary by director Joseph KahnLanguage : EnglishDefault : NoForced : NoAudio #8ID : 8Format : AC-3Format/Info : Audio Coding 3Format profile : Dolby DigitalMode extension : CM (complete main)Format settings, Endianness : BigCodec ID : A_AC3Duration : 1h 24mnBit rate mode : ConstantBit rate : 192 KbpsChannel count : 2 channelsChannel positions : Front: L RSampling rate : 48.0 KHzBit depth : 16 bitsCompression mode : LossyStream size : 115 MiB (1%)Title : Commentary by crewLanguage : EnglishDefault : NoForced : NoText #9ID : 9Format : PGSMuxing mode : zlibCodec ID : S_HDMV/PGSCodec ID/Info : The same subtitle format used on BDs/HD-DVDsTitle : FullLanguage : RussianDefault : NoForced : NoText #10ID : 10Format : PGSMuxing mode : zlibCodec ID : S_HDMV/PGSCodec ID/Info : The same subtitle format used on BDs/HD-DVDsTitle : SDHLanguage : EnglishDefault : NoForced : NoText #11ID : 11Format : PGSMuxing mode : zlibCodec ID : S_HDMV/PGSCodec ID/Info : The same subtitle format used on BDs/HD-DVDsTitle : SDHLanguage : GermanDefault : NoForced : NoText #12ID : 12Format : PGSMuxing mode : zlibCodec ID : S_HDMV/PGSCodec ID/Info : The same subtitle format used on BDs/HD-DVDsTitle : FullLanguage : FrenchDefault : NoForced : NoText #13ID : 13Format : PGSMuxing mode : zlibCodec ID : S_HDMV/PGSCodec ID/Info : The same subtitle format used on BDs/HD-DVDsTitle : FullLanguage : SpanishDefault : NoForced : NoText #14ID : 14Format : PGSMuxing mode : zlibCodec ID : S_HDMV/PGSCodec ID/Info : The same subtitle format used on BDs/HD-DVDsTitle : SDHLanguage : SpanishDefault : NoForced : NoMenu00:00:00.000 : en:HYPERHD 0100:01:54.990 : en:HYPERHD 0200:05:24.991 : en:HYPERHD 0300:07:23.902 : en:HYPERHD 0400:11:16.342 : en:HYPERHD 0500:14:47.929 : en:HYPERHD 0600:17:36.889 : en:HYPERHD 0700:21:06.265 : en:HYPERHD 0800:25:56.263 : en:HYPERHD 0900:28:54.149 : en:HYPERHD 1000:31:57.040 : en:HYPERHD 1100:34:29.401 : en:HYPERHD 1200:37:17.819 : en:HYPERHD 1300:41:46.754 : en:HYPERHD 1400:43:36.989 : en:HYPERHD 1500:46:13.604 : en:HYPERHD 1600:50:03.125 : en:HYPERHD 1700:53:02.012 : en:HYPERHD 1800:57:10.552 : en:HYPERHD 1901:01:33.773 : en:HYPERHD 2001:06:29.068 : en:HYPERHD 2101:10:30.143 : en:HYPERHD 2201:13:06.966 : en:HYPERHD 2301:15:17.888 : en:HYPERHD 2401:17:30.437 : en:HYPERHD 2501:20:08.429 : en:HYPERHD 26

Скачать Крутящий момент через торрент http://i3.imageban.ru/out/2014/03/05/bf6e755e2cb35eee0d43293ae7090e0c.png Скачать фильм Крутящий момент через торрент бесплантно в хорошем качестве Описание: Вернувшись в родной город к любимой девушке, байкер Кери Форд оказывается в западне: против него фабрикуют уголовное дело об ... 2014-05-05 23:08 10 10 3

Loading...

Loading...

Рекламный пират

Дорогой пользователь! Огромная просьба, поблагодарите релизера, оцените раздачу и оставьте свои комментарий, если Вы скачали Крутящий момент через торрент бесплатно! Внесите свою лепту в развитие PiratBit!

Комментировать посты могут только пользователи прошедшие не сложную регистрацию

Крутящий момент через торрент Скачать бесплатно Крутящий момент Крутящий момент скачать торрент Крутящий момент смотреть онлайн Cкачать фильм Крутящий момент бесплатно Крутящий момент скачать торрент в хорошем качестве Крутящий момент смотреть онлайн бесплатно в хорошем качестве

Вы не можете начинать темыВы не можете отвечать на сообщенияВы не можете редактировать свои сообщенияВы не можете удалять свои сообщенияВы не можете голосовать в опросахВы не можете прикреплять файлы к сообщениямВы можете скачивать файлы

piratbit.ru


Смотрите также