Кровный отец 2016 скачать торрент в хорошем качестве hd 1080


Кровный отец (2016) скачать торрент в хорошем качестве бесплатно

Описание фильма "Кровный отец"

Главный герой фильма "Кровный отец" Джон Линк почти 20 лет просидел за решеткой - за столь длительный срок мир успел серьезно измениться. Но Джону неважно то, что происходило снаружи. Он волнуется лишь о своей дочери Урсуле. Мужчине кажется, что дочь уже давно забыла о нем и, наверно, даже лица его не помнит - когда Джона посадили, дочь была совсем маленькой, ничего не понимающей девочкой. После такого большого срока герою было страшно снова встретиться с Урсулой, но Джон понимал, что нельзя просто игнорировать своего ребенка, и что он должен дать ей о себе знать.

Мужчине не удалось принять участие в воспитании своего ребенка, но за это он не перестал быть отцом, ведь причиной упущения были серьезные обстоятельства. В результате Линк решает впервые спустя двадцать лет, встретиться с Урсулой. Как оказалось, дочери было очень приятно видеть отца, и она его вовсе не забыла. Джон уже задумывался о совместных планах с ней, как узнал, что у нее возникли серьезные проблемы, которые могут закончиться даже ее смертью. Линк понимал, с какими серьезными людьми будет иметь дело, но отцовские инстинкты были сильнее. На беззащитную девушку начала охотиться банда наркоторговцев. Они отлично знали, что Урсула не в состоянии дать отпор, поэтому были уверенны, что с ней проблем не возникнет. Вот только эти люди не учли возвращение ее отца, который точно сможет защитить своего родного ребенка. Главному герою предстоит столкнуться не с парочкой опасных людей, а с целым наркокартелем. Спасти Урсулу удастся, только если все враги будут уничтожены. Но Джон, несмотря на серьезность ситуации, сам готов погибнуть, чем позволить кому-то навредить дочери. Сможет ли он противостоять армии опасных преступников? Чтобы узнать это, рекомендуем посмотреть криминальный боевик известного французского режиссера Жана-Франсуа Рише - Кровный отец.

Скачать Кровный отец через торрент

Сиды Качество Перевод Размер Видео Аудио
Скачать Загрузка... BDRemux 22,75 Гб MPEG-4 AVC Video 20432 kbps 1080p / 23,976 fps / 16:9 / High Profile 4.1 английский / DTS-HD Master Audio / 5.1 / 48 kHz / 3450 kbps / 24-bit (Core: 5.1 / 48 kHz / 1509 kbps / 24 bit)
Скачать Загрузка... BDRemux 21,27 Гб 1920x1080, 20.4 Mbit/s, 23.976 fps 48 kHz, DTS-HD MA, 5.1, 3450 kbps | Оригинал |
Скачать Загрузка... BDRip1080 Дублированный | iTunes 9,99 Гб MPEG-4 AVC, 1920x800, 9436 Kbit/s, 23.976 fps 48 kHz, DTS, 5.1, 1510 kbps | Оригинал |
Скачать Загрузка... BDRip1080 Дублированный | iTunes 5,76 Гб MPEG-4 AVC, 1280x534, 4584 Kbit/s, 23.976 fps 48 kHz, DTS, 5.1, 1510 kbps | Оригинал |
Скачать Загрузка... BDRip720 Любительский (многоголосый) [студия "Paradox" & "Omskbird records"], авторский одноголосый (закадровый) [М. Яроцкий / А.Гаврилов / Ю.Немахов / Д.Есарев], 4,40 Гб AVC, 1280x536 (2.40:1), 23.976 fps, 3 957 Kbps (0.241 bit/pixel) AC-3, 48.0 KHz, 6 ch, 448 Kbps, CBR (English) - оригинальная звуковая дорожка
Скачать Загрузка... WEB-DL Любительский (многоголосый, закадровый) | Студия "Paradox" & Omskbird records 780,15 Мб 720x304 (2.37:1), 23.976 fps, XviD build 73 ~1041 kbps avg, 0.20 bit/pixel 48 kHz, MPEG Layer 3, 2 ch, ~128.00 kbps avg
Скачать Загрузка... WEB-DL Любительский (многоголосый) ["Paradox" & Omskbird records] 2,34 Гб AVC, 1156x484 (2,40:1), 2642 kbps, 23,976 fps, 0.197 bit/pixel AC3 / 5.1 / 48 kHz / 448 kbps / 16 bit |
Скачать Загрузка... TVRip Не требуется 559,05 Мб ~ 1550 Кбит/с, 704x400 MP3, 1 ch, 192 Кбит/с

У нас вы можете легко скачать Кровный отец через торрент бесплатно в хорошем качестве, оставляйте комментарии и делитесь впечатлениями!

kino.kak.to

Скачать фильм Кровный отец через торрент в хорошем качестве бесплатно 1080p

Раздают: 1 [ 0 KB/s ]
Размер: 6.17 GB | Добавлен: 1 год 1 мес. назад | Торрент скачан:418 раз
Реклама Дарим 3000 рублей за регистрацию, не упусти свой шанс получить шикарный бонус!!!

29-08-2016 09:01 Кровный отец Скачать торрент  

Кровный отец / Blood Father Год выпуска: 2016Страна: ФранцияЖанр: боевик, триллер

Продолжительность: 01:27:46Перевод: любительский (многоголосый, закадровый) СПД

Режиссер: Жан-Франсуа РишеВ ролях: Мэл Гибсон (Link), Эрин Мориарти (Lydia), Диего Луна (Jonah), Майкл Паркс (Preacher), Уильям Х. Мэйси (Kirby), Мигель Сандовал (Arturo Rios), Дейл Дикки (Cherise), Ричард Кебрал (Joker), Дэниэл Монкада (Choop), Райан Дорси (Shamrock), Рауль Трухильо (The Cleaner), Brandi Cochran (Lydia's Mother)Описание: Бывший заключенный, раньше не участвовавший в воспитании дочери, узнав о том, что его дочь преследуют наркоторговцы и жаждут ее смерти, решил помочь ей с проблемами.Рейтинг: MPAA: R - Лицам до 17 лет обязательно присутствие взрослогоКачество: WEB-DL 1080pФормат: MPEG-4Видео: AVC, 1912x792 (2.40:1), 9678 kbps, 23,976 fps, 0,267 bppАудио: русский / AC3 / 2.0 / 48 kHz / 384 kbps / 16 bit GeneralComplete name 2016.Blood.Father.WEB-DL.mp4Format : MPEG-4Format profile : Base Media / Version 2Codec ID : mp42 (mp42/mp41)File size : 6.17 GiBDuration : 1 h 27 minOverall bit rate : 10.1 Mb/sEncoded date : UTC 2016-08-28 17:36:10Tagged date : UTC 2016-08-28 17:36:55©TIM : 00:00:00:00©TSC : 24000©TSZ : 1001

VideoID : 1Format : AVCFormat/Info : Advanced Video CodecFormat profile : [email protected] settings, CABAC : YesFormat settings, ReFrames : 3 framesCodec ID : avc1Codec ID/Info : Advanced Video CodingDuration : 1 h 27 minBit rate : 9 679 kb/sWidth : 1 912 pixelsHeight : 792 pixelsDisplay aspect ratio : 2.40:1Frame rate mode : ConstantFrame rate : 23.976 (24000/1001) FPSStandard : NTSCColor space : YUVChroma subsampling : 4:2:0Bit depth : 8 bitsScan type : ProgressiveBits/(Pixel*Frame) : 0.267Stream size : 5.93 GiB (96%)Language : EnglishEncoded date : UTC 2016-08-28 17:36:10Tagged date : UTC 2016-08-28 17:36:10Color range : LimitedColor primaries : BT.709Transfer characteristics : BT.709Matrix coefficients : BT.709

AudioID : 2Format : AC-3Format/Info : Audio Coding 3Mode extension : CM (complete main)Format settings, Endianness : BigCodec ID : ac-3Duration : 1 h 27 minSource duration : 1 h 27 minBit rate mode : ConstantBit rate : 384 kb/sChannel(s) : 2 channelsChannel positions : Front: L RSampling rate : 48.0 kHzFrame rate : 31.250 FPS (1536 spf)Bit depth : 16 bitsCompression mode : LossyStream size : 241 MiB (4%)Source stream size : 241 MiB (4%)Language : EnglishEncoded date : UTC 2016-08-28 17:36:10Tagged date : UTC 2016-08-28 17:36:10

Скриншоты: звуковая реклама заглушена, текстовая реклама заретуширована Скачать Кровный отец через торрент http://i6.imageban.ru/out/2016/08/29/0ff0f9559c23e7c022e46a1b44be0a4c.jpg Скачать фильм Кровный отец через торрент бесплантно в хорошем качестве Описание: Бывший заключенный, раньше не участвовавший в воспитании дочери, узнав о том, что его дочь преследуют наркоторговцы и жаждут ее ... 2016-08-29 09:01 10 10 5

Loading...

Loading...

% Раздел Тема Автор DL S | L
T Фильмы 2016 [DVDrip, WEB-DLRip, HDrip] (DUB, MVO) [ 1.46 GB ] Кровный отец / Blood Father [2016 BDRip-AVC] MVO potroks Скачать
T Фильмы 2016 [DVDrip, WEB-DLRip, HDrip] (DUB, MVO) [ 1.46 GB ] Кровный отец / Blood Father [2016 BDRip] MVO ["Paradox" & Omskbird records] Twi7ter Скачать
T Фильмы 2016 [DVDrip, WEB-DLRip, HDrip] (DUB, MVO) [ 1.37 GB ] Кровный отец / Blood Father [2016 HDRip] MVO ["Paradox" & Omskbird records] bober100 Скачать
T Релизы по Парсеру [Фильмы, Игры, Сериалы и другое...] [ 2.68 GB ] Кровный отец / Blood Father [2016 WEB-DLRip 720p] / MVO smaster Скачать

Последний раз редактировалось: smaster (2016-08-29 10:32), всего редактировалось 2 раз(а)

Рекламный пират

29-08-2016 09:23 Кровный отец Скачать торрент  

smaster, это как? перевод MVO и английская дорога?

Цитата:

Перевод: Профессиональный (многоголосый, закадровый)

любительский

Дорогой пользователь! Огромная просьба, поблагодарите релизера, оцените раздачу и оставьте свои комментарий, если Вы скачали Кровный отец через торрент бесплатно! Внесите свою лепту в развитие PiratBit!

Комментировать посты могут только пользователи прошедшие не сложную регистрацию

Кровный отец через торрент Скачать бесплатно Кровный отец Кровный отец скачать торрент Кровный отец смотреть онлайн Cкачать фильм Кровный отец бесплатно Кровный отец скачать торрент в хорошем качестве Кровный отец смотреть онлайн бесплатно в хорошем качестве

Вы не можете начинать темыВы не можете отвечать на сообщенияВы не можете редактировать свои сообщенияВы не можете удалять свои сообщенияВы не можете голосовать в опросахВы не можете прикреплять файлы к сообщениямВы можете скачивать файлы

piratbit.ru

Скачать торрент Кровный отец / Blood Father (2016) BDRip 1080p от ExKinoRay

Информация о фильмеНазвание: Кровный отецОригинальное название: Blood FatherГод выхода: 2016Жанр: Боевик, триллерРежиссер: Жан-Франсуа РишеВ ролях: Мэл Гибсон, Эрин Мориарти, Диего Луна, Майкл Паркс, Уильям Х. Мэйси, Мигель Сандовал, Дейл Дикки, Ричард Кебрал, Дэниэл Монкада, Райан Дорси

О фильме:Бывший заключенный, раньше не участвовавший в воспитании дочери, узнав о том, что его дочь преследуют наркоторговцы и жаждут ее смерти, решил помочь ей с проблемами.

Страна: ФранцияСтудия: Why Not ProductionsПродолжительность: 01:28:12Перевод: Любительский многоголосый (закадровый) | Студия "Paradox" & Omskbird records.

ФайлКодек: MPEG-4Качество: BDRip 1080pВидео: 1920x1080, 13.2 Mbit/s, 23.976 fpsЗвук: Аудио #01: 48 kHz, AC3, 5.1, 448 Kbps | Любительский многоголосый (закадровый) | Студия "Paradox" & Omskbird records.|Аудио #02: 48 kHz, DTS, 5.1, 1510 kbps | Оригинал |

MI

General Unique ID : 204225399833358355082015404861625836318 (0x99A4619C81B45C3583F3A8B4FCEDA31E) Complete name : H:VideoBlood.Father.2016.BDRip.1080p.ExKinoRay.mkv Format : Matroska Format version : Version 4 / Version 2 File size : 9.34 GiB Duration : 1 h 28 min Overall bit rate : 15.2 Mb/s Movie name : ***селезень*** Encoded date : UTC 2016-09-30 20:06:06 Writing application : mkvmerge v8.3.0 ('Over the Horizon') 64bit Writing library : libebml v1.3.1 + libmatroska v1.4.2

Video ID : 1 Format : AVC Format/Info : Advanced Video Codec Format profile : [email protected] Format settings, CABAC : Yes Format settings, ReFrames : 4 frames Codec ID : V_MPEG4/ISO/AVC Duration : 1 h 28 min Bit rate : 13.2 Mb/s Width : 1 920 pixels Height : 804 pixels Display aspect ratio : 2.40:1 Frame rate mode : Constant Frame rate : 23.976 (24000/1001) FPS Color space : YUV Chroma subsampling : 4:2:0 Bit depth : 8 bits Scan type : Progressive Bits/(Pixel*Frame) : 0.357 Stream size : 8.13 GiB (87%) Title : ***селезень*** Writing library : x264 core 148 r2705 3f5ed56 Encoding settings : cabac=1 / ref=5 / deblock=1:-3:-3 / analyse=0x3:0x133 / me=umh / subme=11 / psy=1 / psy_rd=1.00:0.00 / mixed_ref=1 / me_range=64 / chroma_me=1 / trellis=2 / 8x8dct=1 / cqm=0 / deadzone=21,11 / fast_pskip=0 / chroma_qp_offset=-2 / threads=12 / lookahead_threads=2 / sliced_threads=0 / nr=0 / decimate=0 / interlaced=0 / bluray_compat=0 / constrained_intra=0 / bframes=8 / b_pyramid=1 / b_adapt=2 / b_bias=0 / direct=3 / weightb=1 / open_gop=0 / weightp=2 / keyint=240 / keyint_min=2 / scenecut=40 / intra_refresh=0 / rc=2pass / mbtree=0 / bitrate=13200 / ratetol=1.0 / qcomp=0.70 / qpmin=0 / qpmax=69 / qpstep=4 / cplxblur=20.0 / qblur=0.5 / ip_ratio=1.20 / pb_ratio=1.20 / aq=3:0.80 Language : English Default : Yes Forced : No

Audio #1 ID : 2 Format : AC-3 Format/Info : Audio Coding 3 Mode extension : CM (complete main) Format settings, Endianness : Big Codec ID : A_AC3 Duration : 1 h 28 min Bit rate mode : Constant Bit rate : 448 kb/s Channel(s) : 6 channels Channel positions : Front: L C R, Side: L R, LFE Sampling rate : 48.0 kHz Frame rate : 31.250 FPS (1536 spf) Compression mode : Lossy Stream size : 283 MiB (3%) Title : MVO ["Paradox" & Omskbird records] Language : Russian Default : Yes Forced : No

Audio #2 ID : 3 Format : DTS Format/Info : Digital Theater Systems Mode : 16 Format settings, Endianness : Big Codec ID : A_DTS Duration : 1 h 28 min Bit rate mode : Constant Bit rate : 1 509 kb/s Channel(s) : 6 channels Channel positions : Front: L C R, Side: L R, LFE Sampling rate : 48.0 kHz Frame rate : 93.750 FPS (512 spf) Bit depth : 24 bits Compression mode : Lossy Stream size : 952 MiB (10%) Title : Original Language : English Default : No Forced : No

Menu 00:00:00.000 : en:Chapter 01 00:08:23.211 : en:Chapter 02 00:15:56.163 : en:Chapter 03 00:24:36.516 : en:Chapter 04 00:30:10.767 : en:Chapter 05 00:37:15.191 : en:Chapter 06 00:49:58.787 : en:Chapter 07 00:56:37.435 : en:Chapter 08 01:03:54.956 : en:Chapter 09 01:11:52.683 : en:Chapter 10 01:20:01.546 : en:Chapter 11 01:26:27.265 : en:Chapter 12

Релиз от: Автор релиза:

krutor.org

Скачать фильм Кровный отец через торрент в хорошем качестве бесплатно 1080p

GeneralUnique ID : 194060514638367053491074395213645121239 (0x91FEB213ECA840D08C44A3D71D3A86D7)Complete name : G:\Торенты\Фильмы\Blood.Father.2016.MVO.BDRip.1080p.ExKinoRay.mkvFormat : MatroskaFormat version : Version 4 / Version 2File size : 10.4 GiBDuration : 1 h 28 minOverall bit rate : 16.9 Mb/sMovie name : ***селезень***Encoded date : UTC 2016-09-30 21:24:46Writing application : mkvmerge v8.3.0 ('Over the Horizon') 64bitWriting library : libebml v1.3.1 + libmatroska v1.4.2

VideoID : 1Format : AVCFormat/Info : Advanced Video CodecFormat profile : [email protected] settings, CABAC : YesFormat settings, ReFrames : 4 framesCodec ID : V_MPEG4/ISO/AVCDuration : 1 h 28 minBit rate : 13.2 Mb/sWidth : 1 920 pixelsHeight : 804 pixelsDisplay aspect ratio : 2.40:1Frame rate mode : ConstantFrame rate : 23.976 (24000/1001) FPSColor space : YUVChroma subsampling : 4:2:0Bit depth : 8 bitsScan type : ProgressiveBits/(Pixel*Frame) : 0.357Stream size : 7.93 GiB (76%)Title : ***селезень***Writing library : x264 core 148 r2705 3f5ed56Encoding settings : cabac=1 / ref=5 / deblock=1:-3:-3 / analyse=0x3:0x133 / me=umh / subme=11 / psy=1 / psy_rd=1.00:0.00 / mixed_ref=1 / me_range=64 / chroma_me=1 / trellis=2 / 8x8dct=1 / cqm=0 / deadzone=21,11 / fast_pskip=0 / chroma_qp_offset=-2 / threads=12 / lookahead_threads=2 / sliced_threads=0 / nr=0 / decimate=0 / interlaced=0 / bluray_compat=0 / constrained_intra=0 / bframes=8 / b_pyramid=1 / b_adapt=2 / b_bias=0 / direct=3 / weightb=1 / open_gop=0 / weightp=2 / keyint=240 / keyint_min=2 / scenecut=40 / intra_refresh=0 / rc=2pass / mbtree=0 / bitrate=13200 / ratetol=1.0 / qcomp=0.70 / qpmin=0 / qpmax=69 / qpstep=4 / cplxblur=20.0 / qblur=0.5 / ip_ratio=1.20 / pb_ratio=1.20 / aq=3:0.80Language : EnglishDefault : YesForced : No

Audio #1ID : 2Format : DTSFormat/Info : Digital Theater SystemsMode : 16Format settings, Endianness : BigCodec ID : A_DTSDuration : 1 h 28 minBit rate mode : ConstantBit rate : 1 509 kb/sChannel(s) : 6 channelsChannel positions : Front: L C R, Side: L R, LFESampling rate : 48.0 kHzFrame rate : 93.750 FPS (512 spf)Bit depth : 24 bitsCompression mode : LossyStream size : 952 MiB (9%)Title : MVO-DTS ["Paradox" & Omskbird records]Language : RussianDefault : YesForced : No

Audio #2ID : 3Format : AC-3Format/Info : Audio Coding 3Mode extension : CM (complete main)Format settings, Endianness : BigCodec ID : A_AC3Duration : 1 h 28 minBit rate mode : ConstantBit rate : 640 kb/sChannel(s) : 6 channelsChannel positions : Front: L C R, Side: L R, LFESampling rate : 48.0 kHzFrame rate : 31.250 FPS (1536 spf)Compression mode : LossyStream size : 404 MiB (4%)Title : MVO-AC3 ["Paradox" & Omskbird records]Language : RussianDefault : NoForced : No

Audio #3ID : 4Format : DTSFormat/Info : Digital Theater SystemsMode : 16Format settings, Endianness : BigCodec ID : A_DTSDuration : 1 h 28 minBit rate mode : ConstantBit rate : 1 509 kb/sChannel(s) : 6 channelsChannel positions : Front: L C R, Side: L R, LFESampling rate : 48.0 kHzFrame rate : 93.750 FPS (512 spf)Bit depth : 24 bitsCompression mode : LossyStream size : 952 MiB (9%)Title : OriginalLanguage : EnglishDefault : NoForced : No

Menu00:00:00.000 : en:Chapter 0100:08:23.211 : en:Chapter 0200:15:56.163 : en:Chapter 0300:24:36.516 : en:Chapter 0400:30:10.767 : en:Chapter 0500:37:15.191 : en:Chapter 0600:49:58.787 : en:Chapter 0700:56:37.435 : en:Chapter 0801:03:54.956 : en:Chapter 0901:11:52.683 : en:Chapter 1001:20:01.546 : en:Chapter 1101:26:27.265 : en:Chapter 12

piratbit.ru


Смотрите также