Кровь и кость скачать через торрент в хорошем качестве


Скачать фильм Кровь и кость (2009) через торрент

gig-torrent.net

15 августа 2016 06:00 Кровь и кость / Blood and Bone (2009) DVDRip | L2 .torrent   [Информация о файле (нажмите для просмотра)] Перевод: любительский двухголосный, закадровыйКодек: XviDКачество: DVDRipВидео: 608x320 (1.900), 23.976 fps ~ 910 KbpsЗвук: MP3, 48 KHz 2 ch ~ 128 Kb/sСубтитры: отсутствуют 700 Mb 15 3
15 августа 2016 06:00 Кровь и кость / Blood and Bone (2009) BDRip 1080p by msltel | A, L2 .torrent   [Информация о файле (нажмите для просмотра)] Качество: BDRip 1080pВидео: MPEG-4 AVC, 14.8 Mбит/с, 1920x1080Аудио: Русский (DTS, 6 ch, 1509 Кбит/с), (AC3, 6 ch, 448 Кбит/с), английский (DTS, 6 ch, 1509 Кбит/с)Перевод: Авторский (Андрей Дольский), любительский двухголосыйСубтитры: АнглийскиеВидео: Идентификатор : 1 Формат : AVC Формат/Информация : Advanced Video Codec Профиль формата : [email protected] Параметр CABAC формата : Да Параметр ReFrames формата : 4 кадра Идентификатор кодека : V_MPEG4/ISO/AVC Продолжительность : 1 ч. 33 м. Битрейт : 14,8 Мбит/сек Ширина : 1920 пикселей Высота : 1080 пикселей Соотношение сторон : 16:9 Режим частоты кадров : Постоянный Частота кадров : 23,976 кадра/сек Цветовое пространство : YUV Субдискретизация насыщенности : 4:2:0 Битовая глубина : 8 бит Тип развёртки : Прогрессивная Бит/(Пиксели*Кадры) : 0.298 Размер потока : 9,67 Гбайт (79%) Заголовок : BDRip -- STarankov Библиотека кодирования : x264 core 138 r2358 9e941d1 Настройки программы : cabac=1 / ref=4 / deblock=1:-1:-1 / analyse=0x3:0x113 / me=umh / subme=10 / psy=1 / psy_rd=1.00:0.15 / mixed_ref=1 / me_range=32 / chroma_me=1 / trellis=2 / 8x8dct=1 / cqm=0 / deadzone=21,11 / fast_pskip=0 / chroma_qp_offset=-3 / threads=6 / lookahead_threads=1 / sliced_threads=0 / nr=0 / decimate=1 / interlaced=0 / bluray_compat=0 / constrained_intra=0 / bframes=8 / b_pyramid=2 / b_adapt=2 / b_bias=0 / direct=1 / weightb=1 / open_gop=0 / weightp=2 / keyint=230 / keyint_min=23 / scenecut=40 / intra_refresh=0 / rc_lookahead=40 / rc=crf / mbtree=0 / crf=19.2 / qcomp=0.60 / qpmin=0 / qpmax=69 / qpstep=4 / vbv_maxrate=40000 / vbv_bufsize=50000 / crf_max=0.0 / nal_hrd=none / ip_ratio=1.40 / pb_ratio=1.30 / aq=1:1.00 Язык : English Default : Да Forced : НетАудио #1: Идентификатор : 2 Формат : DTS Формат/Информация : Digital Theater Systems Режим : 16 Параметр Endianness формата : Big Идентификатор кодека : A_DTS Продолжительность : 1 ч. 33 м. Вид битрейта : Постоянный Битрейт : 1509 Кбит/сек Каналы : 6 каналов Расположение каналов : Front: L C R, Side: L R, LFE Частота : 48,0 КГц Битовая глубина : 16 бит Метод сжатия : С потерями Размер потока : 1009 Мбайт (8%) Заголовок : AVO (Андрей Дольский) Язык : Russian Default : Да Forced : НетАудио #2: Идентификатор : 3 Формат : AC-3 Формат/Информация : Audio Coding 3 Расширение режима : CM (complete main) Параметр Endianness формата : Big Идентификатор кодека : A_AC3 Продолжительность : 1 ч. 33 м. Вид битрейта : Постоянный Битрейт : 448 Кбит/сек Каналы : 6 каналов Расположение каналов : Front: L C R, Side: L R, LFE Частота : 48,0 КГц Битовая глубина : 16 бит Метод сжатия : С потерями Размер потока : 299 Мбайт (2%) Заголовок : DVO (любительский) Язык : Russian Default : Нет Forced : НетАудио #3: Идентификатор : 4 Формат : DTS Формат/Информация : Digital Theater Systems Режим : 16 Параметр Endianness формата : Big Идентификатор кодека : A_DTS Продолжительность : 1 ч. 33 м. Вид битрейта : Постоянный Битрейт : 1509 Кбит/сек Каналы : 6 каналов Расположение каналов : Front: L C R, Side: L R, LFE Частота : 48,0 КГц Битовая глубина : 16 бит Метод сжатия : С потерями Размер потока : 1009 Мбайт (8%) Заголовок : Original Язык : English Default : Нет Forced : Нет 12,17 Gb 2 4
15 августа 2016 06:00 Кровь и кость / Blood and Bone (2009) BDRip 720p by msltel | A, L2 .torrent   [Информация о файле (нажмите для просмотра)] Качество: BDRip 720pВидео: MPEG-4 AVC, 4252 Кбит/с, 1280x720Аудио: Русский, английский (AC3, 6 ch, 448 Кбит/с)Перевод: Авторский (Андрей Дольский), любительский двухголосыйСубтитры: АнглийскиеВидео: Идентификатор : 1 Формат : AVC Формат/Информация : Advanced Video Codec Профиль формата : [email protected] Параметр CABAC формата : Да Параметр ReFrames формата : 9 кадров Идентификатор кодека : V_MPEG4/ISO/AVC Продолжительность : 1 ч. 33 м. Битрейт : 4252 Кбит/сек Ширина : 1280 пикселей Высота : 720 пикселей Соотношение сторон : 16:9 Режим частоты кадров : Постоянный Частота кадров : 23,976 кадра/сек Цветовое пространство : YUV Субдискретизация насыщенности : 4:2:0 Битовая глубина : 8 бит Тип развёртки : Прогрессивная Бит/(Пиксели*Кадры) : 0.192 Размер потока : 2,78 Гбайт (74%) Заголовок : BDRip -- STarankov Библиотека кодирования : x264 core 138 r2358 9e941d1 Настройки программы : cabac=1 / ref=9 / deblock=1:-1:-1 / analyse=0x3:0x113 / me=umh / subme=10 / psy=1 / psy_rd=1.00:0.15 / mixed_ref=1 / me_range=32 / chroma_me=1 / trellis=2 / 8x8dct=1 / cqm=0 / deadzone=21,11 / fast_pskip=0 / chroma_qp_offset=-3 / threads=6 / lookahead_threads=1 / sliced_threads=0 / nr=0 / decimate=1 / interlaced=0 / bluray_compat=0 / constrained_intra=0 / bframes=8 / b_pyramid=2 / b_adapt=2 / b_bias=0 / direct=1 / weightb=1 / open_gop=0 / weightp=2 / keyint=230 / keyint_min=23 / scenecut=40 / intra_refresh=0 / rc_lookahead=40 / rc=crf / mbtree=0 / crf=19.0 / qcomp=0.60 / qpmin=0 / qpmax=69 / qpstep=4 / vbv_maxrate=40000 / vbv_bufsize=50000 / crf_max=0.0 / nal_hrd=none / ip_ratio=1.40 / pb_ratio=1.30 / aq=1:1.00 Язык : English Default : Да Forced : НетАудио #1: Идентификатор : 2 Формат : AC-3 Формат/Информация : Audio Coding 3 Расширение режима : CM (complete main) Параметр Endianness формата : Big Идентификатор кодека : A_AC3 Продолжительность : 1 ч. 33 м. Вид битрейта : Постоянный Битрейт : 448 Кбит/сек Каналы : 6 каналов Расположение каналов : Front: L C R, Side: L R, LFE Частота : 48,0 КГц Битовая глубина : 16 бит Метод сжатия : С потерями Размер потока : 299 Мбайт (8%) Заголовок : AVO (Андрей Дольский) Язык : Russian Default : Да Forced : НетАудио #2: Идентификатор : 3 Формат : AC-3 Формат/Информация : Audio Coding 3 Расширение режима : CM (complete main) Параметр Endianness формата : Big Идентификатор кодека : A_AC3 Продолжительность : 1 ч. 33 м. Вид битрейта : Постоянный Битрейт : 448 Кбит/сек Каналы : 6 каналов Расположение каналов : Front: L C R, Side: L R, LFE Частота : 48,0 КГц Битовая глубина : 16 бит Метод сжатия : С потерями Размер потока : 299 Мбайт (8%) Заголовок : DVO (любительский) Язык : Russian Default : Нет Forced : НетАудио #3: Идентификатор : 4 Формат : AC-3 Формат/Информация : Audio Coding 3 Расширение режима : CM (complete main) Параметр Endianness формата : Big Идентификатор кодека : A_AC3 Продолжительность : 1 ч. 33 м. Вид битрейта : Постоянный Битрейт : 448 Кбит/сек Каналы : 6 каналов Расположение каналов : Front: L C R, Side: L R, LFE Частота : 48,0 КГц Битовая глубина : 16 бит Метод сжатия : С потерями Размер потока : 299 Мбайт (8%) Заголовок : Original Язык : English Default : Нет Forced : Нет 3,73 Gb 3 4
15 августа 2016 06:00 Кровь и кость / Blood and Bone (2009) BDRip by msltel | A, L2 .torrent   [Информация о файле (нажмите для просмотра)] Качество: BDRipВидео: XviD, 1909 Кбит/с, 720x400Аудио: Русский, английский (AC3, 6 ch, 448 Кбит/с)Перевод: Авторский (Андрей Дольский), любительский двухголосыйСубтитры: АнглийскиеВидео: Идентификатор : 0 Формат : MPEG-4 Visual Профиль формата : Advanced [email protected] Параметр BVOP формата : 1 Параметр QPel формата : Нет Параметр GMC формата : Без точки перехода Параметр матрицы формата : Default (H.263) Режим смешивания : Сжатый битовый поток Идентификатор кодека : XVID Идентификатор кодека/Подсказка : XviD Продолжительность : 1 ч. 33 м. Битрейт : 1909 Кбит/сек Ширина : 720 пикселей Высота : 400 пикселей Соотношение сторон : 16:9 Частота кадров : 23,976 кадра/сек Цветовое пространство : YUV Субдискретизация насыщенности : 4:2:0 Битовая глубина : 8 бит Тип развёртки : Прогрессивная Метод сжатия : С потерями Бит/(Пиксели*Кадры) : 0.276 Размер потока : 1,25 Гбайт (68%) Библиотека кодирования : XviD 1.2.1 (UTC 2008-12-04)Аудио #1: Идентификатор : 1 Формат : AC-3 Формат/Информация : Audio Coding 3 Расширение режима : CM (complete main) Параметр Endianness формата : Big Идентификатор кодека : 2000 Продолжительность : 1 ч. 33 м. Вид битрейта : Постоянный Битрейт : 448 Кбит/сек Каналы : 6 каналов Расположение каналов : Front: L C R, Side: L R, LFE Частота : 48,0 КГц Битовая глубина : 16 бит Метод сжатия : С потерями Размер потока : 299 Мбайт (16%) Выравнивание : Разделение по промежуткам Продолжительность промежутка : 42 мс. (1,00 видеокадр) Время предзагрузки промежутка : 500 мс.Аудио #2: Идентификатор : 2 Формат : AC-3 Формат/Информация : Audio Coding 3 Расширение режима : CM (complete main) Параметр Endianness формата : Big Идентификатор кодека : 2000 Продолжительность : 1 ч. 33 м. Вид битрейта : Постоянный Битрейт : 448 Кбит/сек Каналы : 6 каналов Расположение каналов : Front: L C R, Side: L R, LFE Частота : 48,0 КГц Битовая глубина : 16 бит Метод сжатия : С потерями Размер потока : 299 Мбайт (16%) Выравнивание : Разделение по промежуткам Продолжительность промежутка : 42 мс. (1,00 видеокадр) Время предзагрузки промежутка : 500 мс.Аудио: Формат : AC-3 Формат/Информация : Audio Coding 3 Расширение режима : CM (complete main) Параметр Endianness формата : Big Продолжительность : 1 ч. 33 м. Вид битрейта : Постоянный Битрейт : 448 Кбит/сек Каналы : 6 каналов Расположение каналов : Front: L C R, Side: L R, LFE Частота : 48,0 КГц Битовая глубина : 16 бит Метод сжатия : С потерями Размер потока : 299 Мбайт (100%)Скриншоты 2,13 Gb 3 2
15 августа 2016 06:00 Кровь и кость / Blood and Bone (2009) BDRip 1080p .torrent   [Информация о файле (нажмите для просмотра)] Перевод: Любительский (Двухголосый закадровый)Кодек: x264Формат: MKVКачество: BDRip 1080pВидео: AVC ([email protected]) 1920x1080 (16:9), 23.976 fps, 7930 kbps, 0,160 Bits/PixelАудио 1: DD (AC-3) 5.1 ch, 448 kbps (Rus)Аудио 2: DD (AC-3) 5.1 ch, 448 kbps (Eng)Субтитры: Английские 5,76 Gb 5 1
15 августа 2016 06:00 Кровь и кость / Blood and Bone (2009) DVD5 от New-Team .torrent   [Информация о файле (нажмите для просмотра)] Перевод: Любительский (двухголосый)Кодек: MPEG2Качество: DVD5 (custom)Видео: NTSC 16:9 (720x480) VBR ~ 5310.60 kbps avgЗвук: Русский AC-3, DD 5.1 (48,0 КГц; 448 Кбит/сек) 3,46 Gb 1 5
15 августа 2016 06:00 Кровь и кость / Blood and Bone (2009) BDRip 720p .torrent   [Информация о файле (нажмите для просмотра)] Перевод: Профессиональный (многоголосный)Кодек: MKVКачество: BDRip 720pВидео: 1280x720, 23.976 fps, ~5055 Kbit/s 4,66 Gb 2 1
15 августа 2016 06:00 Кровь и кость / Blood and Bone (2009) BDRip .torrent   [Информация о файле (нажмите для просмотра)] Формат: AVI (XviD)Качество: BDRipВидео: 1777 kb/s, 704x384, 23.976 fpsАудио: AC3, 48000Hz, 448 kb/s, 6 chnls (3/2 .1) 1,46 Gb 6 4

Скачать фильм Кровь и кость через торрент в хорошем качестве бесплатно 720p)

piratbit.ru

Размер: 4.67 GB | Добавлен: 6 лет 7 мес. назад | Торрент скачан:70 раз
Реклама Дарим 3000 рублей за регистрацию, не упусти свой шанс получить шикарный бонус!!!

Кровь и кость / Blood and BoneГод выпуска: 2009Страна: США, Michael Mailer Films, Remarkable FilmsЖанр: Боевик, драмаПродолжительность: 01:33:26Перевод: Любительский (двухголосый)Режиссер: Бен Рэмси / Ben Ramsey

Бюджет: $3 700 000

IMBD:6.8/10 (2,400)Kinopoisk:6.747/10 (365)

В ролях: Майкл Джей Уайт, Джулиан Сэндс, Имонн Уолкер Данте Баско, Нона Гей, Michelle Belegrin, Боб Сапп, Дик Энтони Уильямс, Kevin 'Kimbo Slice' Ferguson, Рон Йуан

Описание: Кровь и кость - это история таинственного бродяги по имени Isaiah Bone, который начинает участвовать в уличных драках, в глухих переулках Лос-Анджелеса, чтобы выполнить обещание данное умершему другу

Качество: BDRip (720p)Формат: MKVВидео кодек: H.26xАудио кодек: AC3Видео: 1280х720, 23.976 fps, 5048 kbps avg, 0.258 bit/pixelАудио: Аудио#1: RUS AC3 48000Hz 448 kb/s tot , 6 chnls (3/2 .1) Аудио#2: ENG DTS 48000Hz 1510 kb/s tot , 6 chnls (3/2 .1) Скачать Кровь и кость через торрент http://i2.fastpic.ru/big/2010/0214/35/f1b29cb091e4e3a416f9e50e74f2f335.png Скачать фильм Кровь и кость через торрент бесплантно в хорошем качестве Описание: Кровь и кость - это история таинственного бродяги по имени Isaiah Bone, который начинает участвовать в уличных драках, в глухих ... 2011-03-13 19:38 9 10 1

Loading...

Loading...

Рекламный пират

Дорогой пользователь! Огромная просьба, поблагодарите релизера, оцените раздачу и оставьте свои комментарий, если Вы скачали Кровь и кость через торрент бесплатно! Внесите свою лепту в развитие PiratBit!

Комментировать посты могут только пользователи прошедшие не сложную регистрацию

Кровь и кость через торрент Скачать бесплатно Кровь и кость Кровь и кость скачать торрент Кровь и кость смотреть онлайн Cкачать фильм Кровь и кость бесплатно Кровь и кость скачать торрент в хорошем качестве Кровь и кость смотреть онлайн бесплатно в хорошем качестве

Вы не можете начинать темыВы не можете отвечать на сообщенияВы не можете редактировать свои сообщенияВы не можете удалять свои сообщенияВы не можете голосовать в опросахВы не можете прикреплять файлы к сообщениямВы можете скачивать файлы

Кровь и кость торрент скачать

Кровь и кость / Blood and Bone (2009) DVDRip | L2700 MBКровь и кость / Blood and Bone (2009) BDRip1.46 GBКровь и кость / Blood and Bone (Бен Рэмси / Ben Ramsey) [2009, США, Боевик, драма, BDRip] AVO (Дольский)1.46 GBКровь и кости / Chi to hone / Blood and bones (Ёити Саи / Yoichi Sai) [2004, Япония, Драма, DVDRip-AVC] MVO + Original + Sub Rus2.43 GBКровью и потом / Плоть и кости / Flesh and Bone / Сезон: 1 / Серии: 1-8 из 8 (Алик Сахаров, Адам Дэвидсон, Джошуа Марстон) [2015, США, Драма, HDTVRip] MVO (NewStudio) + Original5.42 GBКровь и кость / Blood and Bone (2009) BDRip 1080p by msltel | A, L212.17 GBКровь и кость / Blood and Bone / 2009 / ЛД / DVDRip / 1.47 ГБ1.47 GBКровь и кости / Chi to hone / Blood and Bones (Ёити Саи / Yoichi Sai) [2004, Япония, драма, DVDRip] MVO1.46 GBКровь и кость / Blood and Bone (2009) BDRip 720p by msltel | A, L23.73 GBКровь и кость / Blood and Bone (Бен Рэмси / Ben Ramsey) [2009, США, боевик, драма, триллер, HDRip-AVC]1.46 GBКровь и кости / Chi to hone / Blood and bones (Йоичи Сай / Yoichi Sai) [2004, Япония, Драма, DVD5 (сжатый)] MVO + original + sub, [PAL 16:9]4.36 GBКровь и кости / Chi to hone (Blood And Bones) / 2004 / ПМ, СТ / DVDRip / 2.64 ГБ2.64 GBКровь и кости / Chi to hone / Blood and Bones (Ёити Сай / Yoichi Sai) [2004, Япония, Драма, DVDRip] MVO1.99 GBКровь и кость / Blood and Bone (Бен Рэмси / Ben Ramsey) [2009, США, боевик, драма, BDRip-AVC] DVO + AVO (А. Дольский) + Original (English) + Subs (Eng)3.38 GBКровь и кость / Blood and Bone / 2009 / ЛД, АП (Дольский) / Blu-Ray Remux (1080p) / 16.7 ГБ16.7 GBКровь и кость / Blood and Bone (Бен Рэмси / Ben Ramsey) [2009, США, боевик, драма, BDRemux 1080p] DVO + AVO (Дольский) + Original (Eng) + Subs (Eng)16.7 GB[iPhone] Кровь и кость / Blood and Bone (Бен Рэмси) [2009, Боевик, драма, триллер, HDRip]695.5 MBКровью и потом / Плоть и кости / Flesh and Bone / Сезон: 1 / Серии: 1-8 из 8 (Алик Сахаров, Адам Дэвидсон, Джошуа Марстон) [2015, США, Драма, HDTVRip 720p] MVO (NewStudio) + Original13.64 GBКровь и кость / Blood and Bone (2009) BDRip by msltel | A, L22.13 GBКровь и кость / Blood and Bone (2009) BDRip 1080p5.76 GBКровь и кость / Blood and Bone (Бен Рэмси / Ben Ramsey) [2009, Боевик, драма, BDRip 1080p]9.77 GBКровь и кость / Blood and Bone / 2009 / АП (Дольский), ЛД / BDRip (1080p) / 12.17 ГБ12.17 GBКровь и кость / Blood and Bone (Бен Рэмси / Ben Ramsey) [2009, США, боевик, драма, HDRip] DVO743.8 MBКровь и кости / Chi to hone (Blood And Bones) / 2004 / ПМ, СТ / DVD-9 / 7.89 ГБ7.89 GBКровь и кость / Blood and Bone (Бен Рэмси / Ben Ramsey) [2009, Боевик, драма, BDRip, 720p]4.67 GBКровь и кости / Chi to hone / Blood and bones (Йоичи Сай / Yoichi Sai) [2004, Япония, Драма, DVD9] MVO + original + sub, [PAL 16:9]7.89 GBКровь и кость / Blood and Bone (2009) BDRip 720p4.66 GBКровь и кость / Blood and Bone / 2009 / АП (Дольский), ЛД / BDRip / 2.13 ГБ2.13 GBКровь и кость / Blood and Bone (2009) [1080p] BDRip5.76 GB[VIDEO] Кровь и кость / Blood and Bone (Бен Рэмси / Ben Ramsey) [2009, боевик, драма, HDRip] [3GP, 320x]298.7 MBКровь и кость / Blood and Bone / 2009 / АП (Дольский), ЛД / BDRip (720p) / 3.73 ГБ3.73 GBКровь и кости / Chi to hone / Blood and Bones (Йоити Сай / Yoichi Sai) [2004, Япония, Драма, DVDRip] MVO930.5 MB[FILM] Кровь и кость / Blood and Bone (Бен Рэмси / Ben Ramsey) [2009, Боевик, драма, HDRip]494.8 MBКровь и кости / Chi to hone / Blood and Bones (Йоити Сай / Yoichi Sai) [2004, Япония, Драма, DVDRip] VO1.35 GBКровь и кость / Blood and Bone / 2009 / ЛД / BDRip (1080p) / 9.77 ГБ9.77 GBКровь и кость / Blood and Bone (2009) HDRip744 MBКровь и кость / Blood and Bone (2009) BDRip [H.264/1080p-LQ]4.37 GBКровь и кость / Blood and Bone (2009) HDRip744 MBКровь и кость / Blood and Bone (2009) HDRip от Scarabey | L21.45 GBКровь и кость / Blood and Bone / 2009 / ЛД / BDRip / 1.46 ГБ1.46 GBКровь и кость / Blood and Bone (2009) DVD5 от New-Team3.46 GBКровь и кость / Blood and Bone (2009) [720p] BDRip4.79 GBКровь и кость / Blood and Bone (2009) DVDRip1.36 GBКровь и кости / Chi to hone (Blood And Bones) / 2004 / ПМ / DVDRip / 1.46 ГБ1.46 GB tparser.org – торрент поисковик по популярным торрент трекерам. Находить и скачивать новинки кино в HDRip и BDRip качестве через tparser намного проще! Добро пожаловать на крупный торрент архив фильмов и игр tparser.org. Вам больше не придется искать торренты на основных торрент трекерах в поисках нужной раздачи – мы предлагаем найти и скачать фильмы в хорошем качестве прямо на нашем сайте. Наш сервис поиска торрентов в реальном времени собирает информацию с крупных торрент трекеров и сортирует полученные результаты в удобную таблицу. Скачивайте торренты без ограничений и без всяких регистраций на трекерах. Начните скачивать торрент Кровь и кость прямо сейчас!

tparser.org

Скачать фильм Кровь и кость через торрент в хорошем качестве бесплатно 1080p

Код:ОбщееУникальный идентификатор : 233269416869710619233819454623907301655 (0xAF7E0E35A2AECC29AADF761E3C6FC917)Полное имя : G:\HD\Кровь и кость.2009.Blu-Ray.Remux.(1080p).mkvФормат : MatroskaВерсия формата : Version 4 / Version 2Размер файла : 16,7 ГбайтПродолжительность : 1 ч. 33 м.Режим общего битрейта : ПеременныйОбщий поток : 25,6 Мбит/секДата кодирования : UTC 2014-06-13 17:22:37Программа кодирования : mkvmerge v7.0.0 ('Where We Going') 64bit built on Jun 9 2014 15:16:27Библиотека кодирования : libebml v1.3.0 + libmatroska v1.4.1DURATION : 01:33:26.219000000NUMBER_OF_FRAMES : 525583NUMBER_OF_BYTES : 1470817176_STATISTICS_WRITING_APP : mkvmerge v7.0.0 ('Where We Going') 64bit built on Jun 9 2014 15:16:27_STATISTICS_WRITING_DATE_UTC : 2014-06-13 17:22:37_STATISTICS_TAGS : BPS DURATION NUMBER_OF_FRAMES NUMBER_OF_BYTESAttachment : Yes

ВидеоИдентификатор : 1Формат : AVCФормат/Информация : Advanced Video CodecПрофиль формата : [email protected]Параметр CABAC формата : ДаПараметр ReFrames формата : 4 кадраИдентификатор кодека : V_MPEG4/ISO/AVCПродолжительность : 1 ч. 33 м.Вид битрейта : ПеременныйМаксимальный битрейт : 38,0 Мбит/секШирина : 1920 пикселейВысота : 1080 пикселейСоотношение сторон : 16:9Режим частоты кадров : ПостоянныйЧастота кадров : 23,976 кадра/секЦветовое пространство : YUVСубдискретизация насыщенности : 4:2:0Битовая глубина : 8 битТип развёртки : ПрогрессивнаяDefault : ДаForced : НетОсновные цвета : BT.709Характеристики трансфера : BT.709Коэффициенты матрицы : BT.709DURATION : 01:33:26.184000000NUMBER_OF_FRAMES : 134414NUMBER_OF_BYTES : 14688857361_STATISTICS_WRITING_APP : mkvmerge v7.0.0 ('Where We Going') 64bit built on Jun 9 2014 15:16:27_STATISTICS_WRITING_DATE_UTC : 2014-06-13 17:22:37_STATISTICS_TAGS : BPS DURATION NUMBER_OF_FRAMES NUMBER_OF_BYTES

Аудио #1Идентификатор : 2Формат : AC-3Формат/Информация : Audio Coding 3Расширение режима : CM (complete main)Параметр Endianness формата : BigИдентификатор кодека : A_AC3Продолжительность : 1 ч. 33 м.Вид битрейта : ПостоянныйБитрейт : 448 Кбит/секКаналы : 6 каналовРасположение каналов : Front: L C R, Side: L R, LFEЧастота : 48,0 КГцБитовая глубина : 16 битМетод сжатия : С потерямиРазмер потока : 299 Мбайт (2%)Заголовок : DVOЯзык : RussianDefault : НетForced : Нет

Аудио #2Идентификатор : 3Формат : DTSФормат/Информация : Digital Theater SystemsПрофиль формата : MA / CoreРежим : 16Параметр Endianness формата : BigИдентификатор кодека : A_DTSПродолжительность : 1 ч. 33 м.Вид битрейта : ПеременныйБитрейт : Неизвестно / 1509 Кбит/секКаналы : 6 каналовРасположение каналов : Front: L C R, Side: L R, LFEЧастота : 48,0 КГцБитовая глубина : 16 битМетод сжатия : Без потерь / LossyЗаголовок : А. ДольскийЯзык : RussianDefault : ДаForced : Нет

Аудио #3Идентификатор : 4Формат : DTSФормат/Информация : Digital Theater SystemsПрофиль формата : MA / CoreРежим : 16Параметр Endianness формата : BigИдентификатор кодека : A_DTSПродолжительность : 1 ч. 33 м.Вид битрейта : ПеременныйБитрейт : Неизвестно / 1509 Кбит/секКаналы : 6 каналовРасположение каналов : Front: L C R, Side: L R, LFEЧастота : 48,0 КГцБитовая глубина : 16 битМетод сжатия : Без потерь / LossyЯзык : EnglishDefault : НетForced : Нет

ТекстИдентификатор : 5Формат : UTF-8Идентификатор кодека : S_TEXT/UTF8Идентификатор кодека/Информация : UTF-8 Plain TextЯзык : EnglishDefault : НетForced : Нет

Меню00:00:00.000 : :Chapter 0100:07:13.349 : :Chapter 0200:16:50.300 : :Chapter 0300:25:56.888 : :Chapter 0400:36:19.677 : :Chapter 0500:47:18.043 : :Chapter 0600:56:42.941 : :Chapter 0701:08:17.676 : :Chapter 0801:18:04.513 : :Chapter 0901:29:52.970 : :Chapter 10

piratbit.ru

Кровь и кость 2009 - скачать бесплатно через торрент в хорошем качестве. Без регистрации

www.kinovit.net

Название: Кровь и кость / Blood and Bone (2009) HDRip от Scarabey | L2
Качество видео: HDRip
Перевод: Любительский (двухголосый, закадровый)
Видео: 688x384 (1.79:1), 23.976 fps, XviD build 73 ~1757 kbps avg, 0.28 bit/pixel
Аудио: 48 kHz, AC3 Dolby Digital, 3/2 (L,C,R,l,r) + LFE ch, ~448.00 kbps avg
Скачать

Загрузка начнется в течение 5 сек.

1.45 GB

Название: Кровь и кость / Blood and Bone (2009) DVDRip | L2
Качество видео: DVDRip
Перевод: любительский двухголосный, закадровый
Видео: XviD 608x320 (1.900), 23.976 fps ~ 910 Kbps
Аудио: MP3, 48 KHz 2 ch ~ 128 Kb/s
Скачать

Загрузка начнется в течение 5 сек.

700.00 MB

Название: Кровь и кость / Blood and Bone (2009) BDRip 1080p
Качество видео: BDRip 1080p
Перевод: Любительский (двухголосый)
Формат видео: AVC
Видео: x264 1920x1080 (16:9), 23.976 fps, 7930 kbps, 0,160 Bits/(Pixel*Frame)
Аудио: AC-3, 6 ch, 448 kbps (Rus)AC-3, 6 ch, 448 kbps (Eng)
Скачать

Загрузка начнется в течение 5 сек.

5.76 GB

Название: Кровь и кость / Blood and Bone (2009) DVD5 от Youtracker
Качество видео: DVD5 (custom)
Перевод: Любительский (двухголосый)
Видео: MPEG2 NTSC 16:9 (720x480) VBR ~ 5310.60 kbps avg
Аудио: Русский AC-3, DD 5.1 (48,0 КГц; 448 Кбит/сек)
Скачать

Загрузка начнется в течение 5 сек.

3.46 GB


Смотрите также