Крокодил данди скачать торрент в хорошем качестве бесплатно


: DVDRip, HDRip, BDRip . , , , torrent .

: : : 1986 : : : , , , , , , , , : , : : 97 . / 01:37 :

, . -, …

:
1 (1986) BDRip

: AVI: BDRip: : 720x304 (1,35:1), 25 fps, XviD ~ 935 kbps avg, 0.171 bit/pixel: 48 kHz, MP3 2.0, 128 kbps

744.68Mb 396 339
2 (1986) BDRip |

: AVI: BDRip: : 1922 /, 720x304, 23.976 /, 0.36 bit/pixel: (3, 2 ch, 192 /) | ( .)

1.45Gb 396 339
3 (1986) BDRip |

: MKV: BDRip: : 2800 /, 1024x436, 23.976 /: #1: (3, 2 ch, 192 /) | ( .) #2: (3, 2 ch, 192 /) | () #3: (3, 2 ch, 192 /) | ()

3.22Gb 396 339
4 (1986) BDRip

: : BDRip: : 6576 /, 1280x544, 25.000 /: : DD 2.0, 192kbps, 48kHz, 2ch

4.22Gb 396 339
5 (1986) BDRip |

: MKV: BDRip: : 5350 /, 1280x544, 23.976 /: #1: (3, 2 ch, 192 /) | ( .) #2: (3, 2 ch, 192 /) | () #3: (3, 2 ch, 192 /) | ()

4.98Gb 396 339
6 (1986) BDRip |

: MKV: BDRip: : 1 920x816, 8 829 /, 23.976 /, AVC, x264, [email protected], 0.235 /[*], 2pass: 1: AC3 2.0 48 kHz 192 kbps - - . 2: AC3 2.0 48 kHz 192 kbps - - 3: AC3 2.0 48 kHz 192 kbps - - 4: AC3 2.0 48 kHz 192

7.95Gb 396 339
7 (1986) BDRip |

: MKV: BDRip: : MPEG-4 AVC, 1920x816 (2.35:1), 13290 kbps, 23,976 fps, 0,354 bpp: 1: / AC3 / 2.0 / 48 kHz / 192 kbps / 16 bit |DUB - .| 2: / AC3 / 2.0 / 48 kHz / 192 kbps / 16 bit |MVO - ""| 3: / AC3 / 2.0 / 48 kHz / 192 kbps / 16 bit |MVO - "

12.29Gb 396 339
8 (1986) BDRip |

: MKV: BDRip: : MPEG-4 AVC, 1920x1080 (16:9), 37507 kbps, 23,976 fps, 0,754 bpp: 1: / AC3 / 2.0 / 48 kHz / 192 kbps / 16 bit |DUB - .| 2: / AC3 / 2.0 / 48 kHz / 192 kbps / 16 bit |MVO - ""| 3: / AC3 / 2.0 / 48 kHz / 192 kbps / 16 bit |MVO - "

29.35Gb 396 339

filmitorrents.org

Скачать фильм Крокодил Данди 2 (1988) через торрент

15 августа 2016 07:14 Крокодил Данди 2 / Crocodile Dundee II (1988) BDRip 1080p от MediaClub .torrent   [Информация о файле (нажмите для просмотра)] Перевод: Дублированный + профессиональный многоголосый + авторский + оригиналКодек: MPEG-4 AVCКачество: BDRip 1080pВидео: 10500 Кбит/с, 1920x816, 23.976 кадр/сАудио #1: Русский (AC3, 6 ch, 384 Кбит/с) | ДублированныйАудио #2: Русский (AC3, 2 ch, 192 Кбит/с) | Профессиональный многоголосый (СТС)Аудио #3: Русский (AC3, 2 ch, 192 Кбит/с) | Профессиональный многоголосый (НТВ)Аудио #4: Русский (AC3, 2 ch, 192 Кбит/с) | Профессиональный многоголосый (ТВЦ)Аудио #5: Русский (AC3, 2 ch, 192 Кбит/с) | Авторский (В.Дохалов)Аудио #6: Русский (AC3, 2 ch, 192 Кбит/с) | Авторский (Ю.Живов)Аудио #7: Русский (AC3, 2 ch, 192 Кбит/с) | Авторский (С.Кузнецов)Аудио #8: Украинский (AC3, 6 ch, 384 Кбит/с) | Профессиональный многоголосый (Новий канал)Аудио #9: Английский (AC3, 6 ch, 640 Кбит/с)Субтитры: Русские, английские 12,13 Gb 9 2 15 августа 2016 07:14 Крокодил Данди 2 / «Crocodile» Dundee II (1988) HDRip от Scarabey | D .torrent   [Информация о файле (нажмите для просмотра)] Перевод: Профессиональный (полное дублирование) - Советский дубляжВидео: 720x304 (2.37:1), 23.976 fps, XviD build 73 ~1461 kbps avg, 0.28 bit/pixelАудио: 48 kHz, AC3 Dolby Digital, 3/2 (L,C,R,l,r) + LFE ch, ~384.00 kbps avg 1,45 Gb 25 3 15 августа 2016 07:14 Крокодил Данди 2 / «Crocodile» Dundee II (1988) BDRip от HQCLUB .torrent   [Информация о файле (нажмите для просмотра)] Перевод: Профессиональный (полное дублирование) СССР + Профессиональный (многоголосый, закадровый) СТС + Оригинал (английский)Субтитры: русские, английские (обычные, SDH, SDH-Colored)Формат: AVIКачество: BDRip (источник:Видео: 720x304 (2.37:1), 23.976 fps, XviD build 65 ~1832 kbps avg, 0.35 bit/pixelАудио #1: 48 kHz, AC3 Dolby Digital, 3/2 (L,C,R,l,r) + LFE ch, ~384 kbps avg (DUB) СССРАудио #2: 48 kHz, AC3 Dolby Digital, 2/0 (L,R) ch, ~192 kbps avg (MVO) СТСАудио #3: 48 kHz, AC3 Dolby Digital, 3/2 (L,C,R,l,r) + LFE ch, ~384 kbps avg (ENG)Аудио #4: 48 kHz, AC3 Dolby Digital, 3/2 (L,C,R,l,r) + LFE ch, ~384 kbps avg (UKR.MVO)(отдельно)Аудио #5: 48 kHz, AC3 Dolby Digital, 2/0 (L,R) ch, ~192 kbps avg (MVO.NTV)(отдельно)Аудио #6: 48 kHz, AC3 Dolby Digital, 2/0 (L,R) ch, ~192 kbps avg (MVO.TVC)(отдельно)Аудио #7: 48 kHz, AC3 Dolby Digital, 3/2 (L,C,R,l,r) + LFE ch, ~384 kbps avg (AVO.JIVOV)(отдельно)Аудио #8: 48 kHz, AC3 Dolby Digital, 2/0 (L,R) ch, ~192 kbps avg (AVO.DOHALOV)(отдельно)Аудио #9: 48 kHz, AC3 Dolby Digital, 2/0 (L,R) ch, ~192 kbps avg (AVO.KUZNECOV)(отдельно)Аудио #10: 48 kHz, AC3 Dolby Digital, 3/2 (L,C,R,l,r) + LFE ch, ~384 kbps avg (VO.R7)(отдельно) 2,18 Gb 10 2 15 августа 2016 07:14 Крокодил Данди 2 / Crocodile Dundee II (1988) BDRip от MediaClub .torrent   [Информация о файле (нажмите для просмотра)] Перевод: Дублированный + оригиналКодек: XviDКачество: BDRipВидео: 1854 Кбит/с, 720x304, 23.976 кадр/с, 0.35 bit/pixelАудио #1: Русский (AC3, 6 ch, 384 Кбит/с) | ДублированныйАудио #2: Английский (AC3, 6 ch, 384 Кбит/с) 2,06 Gb 1 1 15 августа 2016 07:14 Крокодил Данди 2 / Crocodile Dundee II (1988) BDRip 720p от MediaClub .torrent   [Информация о файле (нажмите для просмотра)] Перевод: Дублированный + авторский + оригиналКодек: MPEG-4 AVCКачество: BDRip 720pВидео: 7900 Кбит/с, 1280x546, 23.976 кадр/сАудио #1: Русский (AC3, 6 ch, 384 Кбит/с) | ДублированныйАудио #2: Русский (AC3, 2 ch, 192 Кбит/с) | Авторский (В.Дохалов)Аудио #3: Русский (AC3, 2 ch, 192 Кбит/с) | Авторский (Ю.Живов)Аудио #4: Русский (AC3, 2 ch, 192 Кбит/с) | Авторский (С.Кузнецов)Аудио #5: Английский (AC3, 6 ch, 448 Кбит/с)Субтитры: Русские, английские 7,26 Gb 2 1 15 августа 2016 07:14 Крокодил Данди 2 / «Crocodile» Dundee II (1988) BDRemux 1080p | D, A .torrent   [Информация о файле (нажмите для просмотра)] Перевод: Дублированный + авторский + оригиналКачество: BDRemux 1080pВидео: MPEG-4 AVC, 36595 Кбит/с, 1920x1080, 23.976 кадр/сАудио №1: русский / AC3 / 5.1 / 48 kHz / 384 kbps / 16 bit|DUB| Аудио №2: русский / AC3 / 2.0 / 48 kHz / 192 kbps / 16 bit|В.Дохалов| Аудио №3: русский / AC3 / 2.0 / 48 kHz / 192 kbps / 16 bit|Ю.Живов| Аудио №4: русский / AC3 / 2.0 / 48 kHz / 192 kbps / 16 bit|С.Кузнецов| Аудио №5: английский / DTS-HD / 5.1 / 48 kHz / 1575 kbps / 24 bit (Core: 5.1 / 48 kHz / 1510 kbps / 24 bit)Субтитры: Русские, английские 31,13 Gb 3 3 15 августа 2016 07:14 Крокодил Данди 2 / Crocodile Dundee II (1988) BDRip-AVC от MediaClub .torrent   [Информация о файле (нажмите для просмотра)] Перевод: Дублированный + авторский + оригиналКодек: MPEG-4 AVCКачество: BDRip-AVCВидео: 3500 Кбит/с, 1024x436, 23.976 кадр/сАудио #1: Русский (AC3, 6 ch, 384 Кбит/с) | ДублированныйАудио #2: Русский (AC3, 2 ch, 192 Кбит/с) | Авторский (В.Дохалов)Аудио #3: Русский (AC3, 2 ch, 192 Кбит/с) | Авторский (Ю.Живов)Аудио #4: Русский (AC3, 2 ch, 192 Кбит/с) | Авторский (С.Кузнецов)Аудио #5: Английский (AC3, 6 ch, 448 Кбит/с)Субтитры: Русские, английские 3,83 Gb 4 2 15 августа 2016 07:14 Крокодил Данди 2 / Crocodile Dundee 2 (1988) HDTVRip-AVC от New-Team .torrent   [Информация о файле (нажмите для просмотра)] Перевод: Профессиональный (полное дублирование)Контейнер: MKVВидео: 1024x436 (1,35:1), 25 fps, h364 ~ 1504 kbps avg, 0.135 bit/pixelАудио: 48 kHz, Dolby Digital AC3 5.1, 448 kbpsСубтитры: SoftSub (srt)Видео: Идентификатор : 1 Формат : AVC Формат/Информация : Advanced Video Codec Профиль формата : [email protected] Параметр CABAC формата : Да Параметр ReFrames формата : 8 кадров Идентификатор кодека : V_MPEG4/ISO/AVC Продолжительность : 1 ч. 46 м. Битрейт : 1504 Кбит/сек Ширина : 1024 пикселя Высота : 436 пикселей Соотношение сторон : 2,35:1 Режим частоты кадров : Постоянный Частота кадров : 25,000 кадров/сек Цветовое пространство : YUV Субдискретизация насыщенности : 4:2:0 Битовая глубина : 8 бит Тип развёртки : Прогрессивная Бит/(Пиксели*Кадры) : 0.135 Размер потока : 1,09 Гбайт (75%) Заголовок : Источник HDTV Библиотека кодирования : x264 core 138 r2356 a1d3d17 Настройки программы : cabac=1 / ref=8 / deblock=1:-3:-2 / analyse=0x3:0x113 / me=umh / subme=10 / psy=1 / psy_rd=1.00:0.05 / mixed_ref=1 / me_range=32 / chroma_me=1 / trellis=2 / 8x8dct=1 / cqm=0 / deadzone=21,11 / fast_pskip=1 / chroma_qp_offset=-3 / threads=3 / lookahead_threads=1 / sliced_threads=0 / nr=0 / decimate=0 / interlaced=0 / bluray_compat=0 / constrained_intra=0 / bframes=8 / b_pyramid=2 / b_adapt=2 / b_bias=0 / direct=3 / weightb=1 / open_gop=0 / weightp=2 / keyint=250 / keyint_min=25 / scenecut=40 / intra_refresh=0 / rc_lookahead=40 / rc=2pass / mbtree=1 / bitrate=1504 / ratetol=1.0 / qcomp=0.60 / qpmin=0 / qpmax=69 / qpstep=4 / cplxblur=20.0 / qblur=0.5 / ip_ratio=1.40 / aq=1:1.00 Язык : English Default : Да Forced : НетАудио: Идентификатор : 2 Формат : AC-3 Формат/Информация : Audio Coding 3 Расширение режима : CM (complete main) Параметр Endianness формата : Big Идентификатор кодека : A_AC3 Продолжительность : 1 ч. 46 м. Вид битрейта : Постоянный Битрейт : 448 Кбит/сек Каналы : 6 каналов Расположение каналов : Front: L C R, Side: L R, LFE Частота : 48,0 КГц Битовая глубина : 16 бит Метод сжатия : С потерями Размер потока : 342 Мбайт (23%) Заголовок : Источник HDTV Dolby Digital 5,1 448kb Язык : Russian Default : Да Forced : Нет 1,45 Gb 6 1 15 августа 2016 07:14 Крокодил Данди 2 / Crocodile Dundee 2 (1988) HDTVRip от New-Team .torrent   [Информация о файле (нажмите для просмотра)] Перевод: Профессиональный (полное дублирование)Контейнер: AVIВидео: 720x304 (1,35:1), 25 fps, XviD ~ 925 kbps avg, 0.169 bit/pixelАудио: 48 kHz, Dolby Digital AC3 5.1, 448 kbps DUBАудио: 48 kHz, Dolby Digital AC3 2.0, 192 kbps ДохаловАудио: 48 kHz, Dolby Digital AC3 2.0, 192 kbps ЖивовАудио: 48 kHz, Dolby Digital AC3 2.0, 192 kbps КузнецовВидео: Идентификатор : 0 Формат : MPEG-4 Visual Профиль формата : Advanced [email protected] Параметр BVOP формата : 1 Параметр QPel формата : Нет Параметр GMC формата : Без точки перехода Параметр матрицы формата : Выборочная Идентификатор кодека : XVID Идентификатор кодека/Подсказка : XviD Продолжительность : 1 ч. 46 м. Битрейт : 925 Кбит/сек Ширина : 720 пикселей Высота : 304 пикселя Соотношение сторон : 2,35:1 Частота кадров : 25,000 кадров/сек Цветовое пространство : YUV Субдискретизация насыщенности : 4:2:0 Битовая глубина : 8 бит Тип развёртки : Прогрессивная Метод сжатия : С потерями Бит/(Пиксели*Кадры) : 0.169 Размер потока : 704 Мбайт (47%) Библиотека кодирования : XviD 73Аудио #1: Идентификатор : 1 Формат : AC-3 Формат/Информация : Audio Coding 3 Расширение режима : CM (complete main) Параметр Endianness формата : Big Идентификатор кодека : 2000 Продолжительность : 1 ч. 46 м. Вид битрейта : Постоянный Битрейт : 448 Кбит/сек Каналы : 6 каналов Расположение каналов : Front: L C R, Side: L R, LFE Частота : 48,0 КГц Битовая глубина : 16 бит Метод сжатия : С потерями Размер потока : 341 Мбайт (23%) Выравнивание : Разделение по промежуткам Продолжительность промежутка : 40 мс. (1,00 видеокадр) Время предзагрузки промежутка : 500 мс.Аудио #2: Идентификатор : 2 Формат : AC-3 Формат/Информация : Audio Coding 3 Расширение режима : CM (complete main) Параметр Endianness формата : Big Идентификатор кодека : 2000 Продолжительность : 1 ч. 46 м. Вид битрейта : Постоянный Битрейт : 192 Кбит/сек Каналы : 2 канала Расположение каналов : Front: L R Частота : 48,0 КГц Битовая глубина : 16 бит Метод сжатия : С потерями Размер потока : 146 Мбайт (10%) Выравнивание : Разделение по промежуткам Продолжительность промежутка : 40 мс. (1,00 видеокадр) Время предзагрузки промежутка : 500 мс.Аудио #3: Идентификатор : 3 Формат : AC-3 Формат/Информация : Audio Coding 3 Профиль формата : Dolby Digital Расширение режима : CM (complete main) Параметр Endianness формата : Big Идентификатор кодека : 2000 Продолжительность : 1 ч. 46 м. Вид битрейта : Постоянный Битрейт : 192 Кбит/сек Каналы : 2 канала Расположение каналов : Front: L R Частота : 48,0 КГц Битовая глубина : 16 бит Метод сжатия : С потерями Размер потока : 146 Мбайт (10%) Выравнивание : Разделение по промежуткам Продолжительность промежутка : 40 мс. (1,00 видеокадр) Время предзагрузки промежутка : 500 мс.Аудио #4: Идентификатор : 4 Формат : AC-3 Формат/Информация : Audio Coding 3 Расширение режима : CM (complete main) Параметр Endianness формата : Big Идентификатор кодека : 2000 Продолжительность : 1 ч. 46 м. Вид битрейта : Постоянный Битрейт : 192 Кбит/сек Каналы : 2 канала Расположение каналов : Front: L R Частота : 48,0 КГц Битовая глубина : 16 бит Метод сжатия : С потерями Размер потока : 146 Мбайт (10%) Выравнивание : Разделение по промежуткам Продолжительность промежутка : 40 мс. (1,00 видеокадр) Время предзагрузки промежутка : 500 мс 1,47 Gb 6 2 15 августа 2016 07:14 Крокодил Данди 2 / Crocodile Dundee 2 (1988) HDTVRip от New-Team .torrent   [Информация о файле (нажмите для просмотра)] Перевод: Профессиональный (полное дублирование)Контейнер: AVIВидео: 720x304 (1,35:1), 25 fps, XviD ~ 841 kbps avg, 0.154 bit/pixelАудио: 48 kHz, Dolby Digital AC3 2.0, 128 kbpsВидео: Идентификатор : 0 Формат : MPEG-4 Visual Профиль формата : Advanced [email protected] Параметр BVOP формата : 1 Параметр QPel формата : Нет Параметр GMC формата : Без точки перехода Параметр матрицы формата : Выборочная Идентификатор кодека : XVID Идентификатор кодека/Подсказка : XviD Продолжительность : 1 ч. 46 м. Битрейт : 841 Кбит/сек Ширина : 720 пикселей Высота : 304 пикселя Соотношение сторон : 2,35:1 Частота кадров : 25,000 кадров/сек Цветовое пространство : YUV Субдискретизация насыщенности : 4:2:0 Битовая глубина : 8 бит Тип развёртки : Прогрессивная Метод сжатия : С потерями Бит/(Пиксели*Кадры) : 0.154 Размер потока : 642 Мбайт (86%) Библиотека кодирования : XviD 73Аудио: Идентификатор : 1 Формат : MPEG Audio Версия формата : Version 1 Профиль формата : Layer 3 Идентификатор кодека : 55 Идентификатор кодека/Подсказка : MP3 Продолжительность : 1 ч. 46 м. Вид битрейта : Постоянный Битрейт : 128 Кбит/сек Каналы : 2 канала Частота : 48,0 КГц Метод сжатия : С потерями Размер потока : 97,6 Мбайт (13%) Выравнивание : Соединение по промежуткам Продолжительность промежутка : 40 мс. (1,00 видеокадр) Время предзагрузки промежутка : 504 мс. Библиотека кодирования : LAME3.99r Настройки программы : -m s -V 4 -q 2 -lowpass 17 -b 128 746,78 Mb 7 1 15 августа 2016 07:14 Крокодил Данди 2 / Crocodile Dundee II (1988) HDTVRip-AVC .torrent   [Информация о файле (нажмите для просмотра)] Перевод: Профессиональный (полное дублирование) + Профессиональный (многоголосый, закадровый)Качество: HDTVRip(HDTV 1080i)Контейнер: MKVВидео: AVC, 1024x436 (2.35:1), 2174 kbps, 25 fps, 0.195 bppАудио №1: русский / AC3 / 5.1 / 48 kHz / 448 kbpsАудио №2: русский / AC3 / 2.0 / 48 kHz / 192 kbps 2,1 Gb 3 3 15 августа 2016 07:14 Крокодил Данди 2 / Crocodile Dundee II (1988) DVDRip-AVC .torrent   [Информация о файле (нажмите для просмотра)] Перевод: Профессиональный (полное дублирование)Качество: DVDRipФормат: MKVВидео: 1555 kb/s, 704x288, 23.976 fpsАудио: AAC, 192 kb/s (2 ch), 48.0 KHz 1,36 Gb 1 2

gig-torrent.net

Скачать фильм Крокодил Данди (1986) через торрент

15 августа 2016 06:11 Крокодил Данди / Crocodile Dundee (1986) BDRip | P .torrent   [Информация о файле (нажмите для просмотра)] Перевод: Профессиональный многоголосый закадровый (ТВЦ)(VHS)Кодек: AVIКачество: BDRipВидео: XviD build 65, 720x304 (2.35:1), 23.976 fps, 1910 kbps avgЗвук: Russian AC3 Dolby Digital, 48 kHz, 2/0 (L,R) ch, 192.00 kbps avg (VHS) 1,45 Gb 4 2 15 августа 2016 06:11 Крокодил Данди / Crocodile Dundee (1986) HDRip от Scarabey | D .torrent   [Информация о файле (нажмите для просмотра)] Перевод: Профессиональный (полное дублирование) - Советский дубляжВидео: 720x304 (2.37:1), 23.976 fps, XviD build 73 ~1921 kbps avg, 0.37 bit/pixelАудио: 48 kHz, AC3 Dolby Digital, 2/0 (L,R) ch, ~192.00 kbps avg 1,45 Gb 26 3 15 августа 2016 06:11 Крокодил Данди / Crocodile Dundee (1986) HDRip от Scarabey | D .torrent   [Информация о файле (нажмите для просмотра)] Перевод: Профессиональный (полное дублирование) - Советский дубляжВидео: 688x288 (2.39:1), 23.976 fps, XviD build 73 ~928 kbps avg, 0.20 bit/pixelАудио: 48 kHz, MPEG Layer 3, 2 ch, ~128.00 kbps avg 745,08 Mb 5 5 15 августа 2016 06:11 Крокодил Данди / Crocodile Dundee (1986) BDRip от HQCLUB .torrent   [Информация о файле (нажмите для просмотра)] Перевод: Профессиональный (многоголосый, закадровый) СТССубтитры: русские, английские (обычные, SDH, SDH-Colored)Формат: AVIКачество: BDRip (источник:Видео: 720x304 (2.37:1), 23.976 fps, XviD build 65 ~1927 kbps avg, 0.37 bit/pixelАудио #1: 48 kHz, AC3 Dolby Digital, 2/0 (L,R) ch, ~192 kbps avg (MVO) СТСАудио #2: 48 kHz, AC3 Dolby Digital, 2/0 (L,R) ch, ~192 kbps avg (DUB.SSSR)(отдельно)Аудио #3: 48 kHz, AC3 Dolby Digital, 2/0 (L,R) ch, ~192 kbps avg (UKR.MVO)(отдельно)Аудио #4: 48 kHz, AC3 Dolby Digital, 2/0 (L,R) ch, ~192 kbps avg (MVO.ORT)(отдельно)Аудио #5: 48 kHz, AC3 Dolby Digital, 2/0 (L,R) ch, ~192 kbps avg (MVO.DDV)(отдельно)Аудио #6: 48 kHz, AC3 Dolby Digital, 2/0 (L,R) ch, ~192 kbps avg (DVO.NTV.PLUS)(отдельно)Аудио #7: 48 kHz, AC3 Dolby Digital, 2/0 (L,R) ch, ~192 kbps avg (AVO.JIVOV)(отдельно)Аудио #8: 48 kHz, AC3 Dolby Digital, 2/0 (L,R) ch, ~192 kbps avg (AVO.DOHALOV)(отдельно)Аудио #9: 48 kHz, AC3 Dolby Digital, 2/0 (L,R) ch, ~192 kbps avg (AVO.KUZNECOV)(отдельно)Аудио #10: 48 kHz, AC3 Dolby Digital, 2/0 (L,R) ch, ~192 kbps avg (VO.R7)(отдельно)Аудио #11: 48 kHz, AC3 Dolby Digital, 2/0 (L,R) ch, ~192 kbps avg (ENG)(отдельно) 1,45 Gb 7 2 15 августа 2016 06:11 Крокодил Данди / Crocodile Dundee (1986) BDRip-AVC | iPad | D .torrent   [Информация о файле (нажмите для просмотра)] Перевод: Русский дублированныйКодек: H.264Качество: BDRip [576p]Видео: 1024x436 (2.35:1) at 23.976 fps, AVC at 3000 kbpsЗвук: 1: АAС 2.0 100 kbps - Русский дублированныйСубтитры: отсутствуют 2,15 Gb 1 5 15 августа 2016 06:11 Крокодил Данди / Crocodile Dundee (1986) BDRip 100p от NNNB .torrent   [Информация о файле (нажмите для просмотра)] Перевод: Дублированный, профессиональный многоголосый, авторский, любительский одноголосыйКачество: BDRip 1080p (исходник Blu-ray)Видео: 1 920x816, 8 829 Кбит/сек, 23.976 кадр/сек, AVC, x264, [email protected], 0.235 Бит/[Пиксели*Кадры], 2passАудио 1: AC3 2.0 48 kHz 192 kbps -Дубляж - киностудия им.ГорькогоАудио 2: AC3 2.0 48 kHz 192 kbps -профессиональный многоголосый - НТВАудио 3: AC3 2.0 48 kHz 192 kbps -профессиональный многоголосый - ОРТАудио 4: AC3 2.0 48 kHz 192 kbps -профессиональный многоголосый - СТСАудио 5: AC3 2.0 48 kHz 640 kbps -Авторский - Ю.ЖивовАудио 6: AC3 2.0 48 kHz 192 kbps -Авторский - В.ДохаловАудио 7: AC3 2.0 48 kHz 192 kbps -Авторский - С.КузнецовАудио 8: AC3 2.0 48 kHz 192 kbps -любительский одноголосый - НеизвестныйАудио 9: AC3 2.0 48 kHz 192 kbps -Ukrainian - ТК "Новий"Аудио 10: AC3 2.0 48 kHz 640 kbps - EnglishСубтитры: Russian 7,95 Gb 3 1 15 августа 2016 06:11 Крокодил Данди / Crocodile Dundee (1986) BDRip-AVC от Leo.pard | D .torrent   [Информация о файле (нажмите для просмотра)] Перевод: Профессиональный (дублированный) киностудия им.ГорькогоФормат: MKVВидео: x264, 848x360 (2.35:1), 992 Kbps, 23.976 fpsАудио: AAC, 72 Kbps, 48 KHz, 2 channelsСубтитры: Русские, английские (Full, SDH) 744,9 Mb 4 3 15 августа 2016 06:11 Крокодил Данди / Crocodile Dundee (1986) BDRip от MediaClub .torrent   [Информация о файле (нажмите для просмотра)] Перевод: ДублированнныйКодек: XviDКачество: BDRipВидео: 1922 Кбит/с, 720x304, 23.976 кадр/с, 0.36 bit/pixelАудио: Русский (АС3, 2 ch, 192 Кбит/с) | Дублированный (Киностудия им.Горького) 1,45 Gb 4 1 15 августа 2016 06:11 Крокодил Данди / Crocodile Dundee (1986) BDRip 1080p | D, P, A .torrent   [Информация о файле (нажмите для просмотра)] Перевод: Дублированный + профессиональный многоголосый + авторскийКачество: BDRip 1080pВидео: MPEG-4 AVC, 1920x816 (2.35:1), 13290 kbps, 23,976 fps, 0,354 bppАудио №1: русский / AC3 / 2.0 / 48 kHz / 192 kbps / 16 bit|DUB - киностудия им.Горького| Аудио №2: русский / AC3 / 2.0 / 48 kHz / 192 kbps / 16 bit|MVO - ТК "НТВ"| Аудио №3: украинский / AC3 / 2.0 / 48 kHz / 192 kbps / 16 bit|MVO - ТК "Новий"| Аудио №4: русский / AC3 / 2.0 / 48 kHz / 192 kbps / 16 bit|MVO - ТК "ОРТ"| Аудио №5: русский / AC3 / 2.0 / 48 kHz / 192 kbps / 16 bit|MVO - ТК "СТС"| Аудио №6: русский / DTS-HD / 2.0 / 48 kHz / 1557 kbps / 24 bit (Core: 2.0 / 48 kHz / 1510 kbps / 24 bit)|AVO - Ю.Живов| Аудио №7: русский / AC3 / 2.0 / 48 kHz / 192 kbps / 16 bit| В.Дохалов| Аудио №8: русский / AC3 / 2.0 / 48 kHz / 192 kbps / 16 bit| С.Кузнецов| Аудио №9: английский / DTS-HD / 2.0 / 48 kHz / 1557 kbps / 24 bit (Core: 2.0 / 48 kHz / 1510 kbps / 24 bit)Субтитры: русские, английские (полные, SDH) 12,29 Gb 3 3 15 августа 2016 06:11 Крокодил Данди / Crocodile Dundee (1986) BDRip-AVC от MediaClub .torrent   [Информация о файле (нажмите для просмотра)] Перевод: Дублированнный + профессиональный многоголосый + авторский + профессиональный одноголосый + оригиналКодек: MPEG-4 AVCКачество: BDRip-AVCВидео: 2800 Кбит/с, 1024x436, 23.976 кадр/сАудио #1: Русский (АС3, 2 ch, 192 Кбит/с) | Дублированный (Киностудия им.Горького)Аудио #2: Русский (АС3, 2 ch, 192 Кбит/с) | Профессиональный многоголосый (НТВ)Аудио #3: Русский (АС3, 2 ch, 192 Кбит/с) | Профессиональный многоголосый (ОРТ)Аудио #4: Русский (АС3, 2 ch, 192 Кбит/с) | Профессиональный многоголосый (СТС)Аудио #5: Русский (АС3, 2 ch, 192 Кбит/с) | Авторский (Ю.Живов)Аудио #6: Русский (АС3, 2 ch, 192 Кбит/с) | Авторский (В.Дохалов)Аудио #7: Русский (АС3, 2 ch, 192 Кбит/с) | Авторский (С.Кузнецов)Аудио #8: Русский (АС3, 2 ch, 192 Кбит/с) | Профессиональный одноголосыйАудио #9: Украинский (АС3, 2 ch, 192 Кбит/с) | Профессиональный многоголосыйАудио #10: Английский (АС3, 2 ch, 192 Кбит/с)Субтитры: Русские, украинские, английские 3,22 Gb 4 3 15 августа 2016 06:11 Крокодил Данди / Crocodile Dundee (1986) BDRemux 1080p | D, P, A .torrent   [Информация о файле (нажмите для просмотра)] Перевод: Дублированный + профессиональный многоголосый + авторскийКачество: BDRemux 1080pВидео: MPEG-4 AVC, 1920x1080 (16:9), 37507 kbps, 23,976 fps, 0,754 bppАудио №1: русский / AC3 / 2.0 / 48 kHz / 192 kbps / 16 bit|DUB - киностудия им.Горького| Аудио №2: русский / AC3 / 2.0 / 48 kHz / 192 kbps / 16 bit|MVO - ТК "НТВ"| Аудио №3: украинский / AC3 / 2.0 / 48 kHz / 192 kbps / 16 bit|MVO - ТК "Новий"| Аудио №4: русский / AC3 / 2.0 / 48 kHz / 192 kbps / 16 bit|MVO - ТК "ОРТ"| Аудио №5: русский / AC3 / 2.0 / 48 kHz / 192 kbps / 16 bit|MVO - ТК "СТС"| Аудио №6: русский / DTS-HD / 2.0 / 48 kHz / 1557 kbps / 24 bit (Core: 2.0 / 48 kHz / 1510 kbps / 24 bit)|AVO - Ю.Живов| Аудио №7: русский / AC3 / 2.0 / 48 kHz / 192 kbps / 16 bit| В.Дохалов| Аудио №8: русский / AC3 / 2.0 / 48 kHz / 192 kbps / 16 bit| С.Кузнецов| Аудио №9: русский / AC3 / 2.0 / 48 kHz / 192 kbps / 16 bit| Неизвестный| Аудио №10: английский / DTS-HD / 2.0 / 48 kHz / 1557 kbps / 24 bit (Core: 2.0 / 48 kHz / 1510 kbps / 24 bit)Субтитры: русские, английские (полные, SDH) 29,35 Gb 3 2 15 августа 2016 06:11 Крокодил Данди / Crocodile Dundee (1986) BDRip 720p от MediaClub .torrent   [Информация о файле (нажмите для просмотра)] Перевод: Дублированнный + профессиональный многоголосый + авторский + профессиональный одноголосый + оригиналКодек: MPEG-4 AVCКачество: BDRip 720pВидео: 5350 Кбит/с, 1280x544, 23.976 кадр/сАудио #1: Русский (АС3, 2 ch, 192 Кбит/с) | Дублированный (Киностудия им.Горького)Аудио #2: Русский (АС3, 2 ch, 192 Кбит/с) | Профессиональный многоголосый (НТВ)Аудио #3: Русский (АС3, 2 ch, 192 Кбит/с) | Профессиональный многоголосый (ОРТ)Аудио #4: Русский (АС3, 2 ch, 192 Кбит/с) | Профессиональный многоголосый (СТС)Аудио #5: Русский (АС3, 2 ch, 192 Кбит/с) | Авторский (Ю.Живов)Аудио #6: Русский (АС3, 2 ch, 192 Кбит/с) | Авторский (В.Дохалов)Аудио #7: Русский (АС3, 2 ch, 192 Кбит/с) | Авторский (С.Кузнецов)Аудио #8: Русский (АС3, 2 ch, 192 Кбит/с) | Профессиональный одноголосыйАудио #9: Украинский (АС3, 2 ch, 192 Кбит/с) | Профессиональный многоголосыйАудио #10: Английский (АС3, 2 ch, 224 Кбит/с)Субтитры: Русские, украинские, английские 4,98 Gb 5 2 15 августа 2016 06:11 Крокодил Данди / Crocodile Dundee (1986) HDTVRip-AVC от New-Team .torrent   [Информация о файле (нажмите для просмотра)] Перевод: Профессиональный (полное дублирование)Контейнер: MKVВидео: 1024x436 (1,35:1), 25 fps, h364 ~ 1761 kbps avg, 0.158 bit/pixelАудио: 48 kHz, Dolby Digital AC3 2.0, 192 kbps DUBАудио: 48 kHz, Dolby Digital AC3 2.0, 192 kbps АнглийскийСубтитры: SoftSub (srt)Видео: Идентификатор : 1 Формат : AVC Формат/Информация : Advanced Video Codec Профиль формата : [email protected] Параметр CABAC формата : Да Параметр ReFrames формата : 8 кадров Идентификатор кодека : V_MPEG4/ISO/AVC Продолжительность : 1 ч. 37 м. Битрейт : 1761 Кбит/сек Ширина : 1024 пикселя Высота : 436 пикселей Соотношение сторон : 2,35:1 Режим частоты кадров : Постоянный Частота кадров : 25,000 кадров/сек Цветовое пространство : YUV Субдискретизация насыщенности : 4:2:0 Битовая глубина : 8 бит Тип развёртки : Прогрессивная Бит/(Пиксели*Кадры) : 0.158 Размер потока : 1,17 Гбайт (80%) Заголовок : Источник HDTV Библиотека кодирования : x264 core 138 r2356 a1d3d17 Настройки программы : cabac=1 / ref=8 / deblock=1:-3:-2 / analyse=0x3:0x113 / me=umh / subme=10 / psy=1 / psy_rd=1.00:0.05 / mixed_ref=1 / me_range=32 / chroma_me=1 / trellis=2 / 8x8dct=1 / cqm=0 / deadzone=21,11 / fast_pskip=1 / chroma_qp_offset=-3 / threads=3 / lookahead_threads=1 / sliced_threads=0 / nr=0 / decimate=0 / interlaced=0 / bluray_compat=0 / constrained_intra=0 / bframes=8 / b_pyramid=2 / b_adapt=2 / b_bias=0 / direct=3 / weightb=1 / open_gop=0 / weightp=2 / keyint=250 / keyint_min=25 / scenecut=40 / intra_refresh=0 / rc_lookahead=40 / rc=2pass / mbtree=1 / bitrate=1761 / ratetol=1.0 / qcomp=0.60 / qpmin=0 / qpmax=69 / qpstep=4 / cplxblur=20.0 / qblur=0.5 / ip_ratio=1.40 / aq=1:1.00 Язык : English Default : Да Forced : НетАудио #1: Идентификатор : 2 Формат : AC-3 Формат/Информация : Audio Coding 3 Расширение режима : CM (complete main) Параметр Endianness формата : Big Идентификатор кодека : A_AC3 Продолжительность : 1 ч. 37 м. Вид битрейта : Постоянный Битрейт : 192 Кбит/сек Каналы : 2 канала Расположение каналов : Front: L R Частота : 48,0 КГц Битовая глубина : 16 бит Метод сжатия : С потерями Размер потока : 133 Мбайт (9%) Заголовок : Источник HDTV Dolby Digital 2,0 192 kbps Язык : Russian Default : Да Forced : НетАудио #2: Идентификатор : 3 Формат : AC-3 Формат/Информация : Audio Coding 3 Профиль формата : Dolby Digital Расширение режима : CM (complete main) Параметр Endianness формата : Big Идентификатор кодека : A_AC3 Продолжительность : 1 ч. 37 м. Вид битрейта : Постоянный Битрейт : 192 Кбит/сек Каналы : 2 канала Расположение каналов : Front: L R Частота : 48,0 КГц Битовая глубина : 16 бит Метод сжатия : С потерями Размер потока : 133 Мбайт (9%) Заголовок : Источник HDTV Dolby Digital 2,0 192 kbps Язык : English Default : Нет Forced : Нет 1,46 Gb 5 1 15 августа 2016 06:10 Крокодил Данди / Crocodile Dundee (1986) HDTVRip от New-Team .torrent   [Информация о файле (нажмите для просмотра)] Перевод: Профессиональный (полное дублирование)Контейнер: AVIВидео: 720x304 (1,35:1), 25 fps, XviD ~ 935 kbps avg, 0.171 bit/pixelАудио: 48 kHz, MP3 2.0, 128 kbpsВидео: Идентификатор : 0 Формат : MPEG-4 Visual Профиль формата : Advanced [email protected] Параметр BVOP формата : 1 Параметр QPel формата : Нет Параметр GMC формата : Без точки перехода Параметр матрицы формата : Выборочная Идентификатор кодека : XVID Идентификатор кодека/Подсказка : XviD Продолжительность : 1 ч. 37 м. Битрейт : 935 Кбит/сек Ширина : 720 пикселей Высота : 304 пикселя Соотношение сторон : 2,35:1 Частота кадров : 25,000 кадров/сек Цветовое пространство : YUV Субдискретизация насыщенности : 4:2:0 Битовая глубина : 8 бит Тип развёртки : Прогрессивная Метод сжатия : С потерями Бит/(Пиксели*Кадры) : 0.171 Размер потока : 649 Мбайт (87%) Библиотека кодирования : XviD 73Аудио: Идентификатор : 1 Формат : MPEG Audio Версия формата : Version 1 Профиль формата : Layer 3 Идентификатор кодека : 55 Идентификатор кодека/Подсказка : MP3 Продолжительность : 1 ч. 37 м. Вид битрейта : Постоянный Битрейт : 128 Кбит/сек Каналы : 2 канала Частота : 48,0 КГц Метод сжатия : С потерями Размер потока : 88,9 Мбайт (12%) Выравнивание : Соединение по промежуткам Продолжительность промежутка : 40 мс. (1,00 видеокадр) Время предзагрузки промежутка : 504 мс. Библиотека кодирования : LAME3.99r Настройки программы : -m s -V 4 -q 2 -lowpass 17 -b 128 744,68 Mb 5 2 15 августа 2016 06:10 Крокодил Данди / Crocodile Dundee (1986) HDTVRip от New-Team .torrent   [Информация о файле (нажмите для просмотра)] Перевод: Профессиональный (полное дублирование)Контейнер: AVIВидео: 720x304 (1,35:1), 25 fps, XviD ~ 1177 kbps avg, 0.215 bit/pixelАудио: 48 kHz, Dolby Digital AC3 2.0, 192 kbps DUBАудио: 48 kHz, Dolby Digital AC3 2.0, 192 kbps ДохаловАудио: 48 kHz, Dolby Digital AC3 2.0, 192 kbps ЖивовАудио: 48 kHz, Dolby Digital AC3 2.0, 192 kbps КузнецовАудио: 48 kHz, Dolby Digital AC3 2.0, 192 kbps АнглийскийВидео: Идентификатор : 0 Формат : MPEG-4 Visual Профиль формата : Advanced [email protected] Параметр BVOP формата : 1 Параметр QPel формата : Нет Параметр GMC формата : Без точки перехода Параметр матрицы формата : Выборочная Идентификатор кодека : XVID Идентификатор кодека/Подсказка : XviD Продолжительность : 1 ч. 37 м. Битрейт : 1177 Кбит/сек Ширина : 720 пикселей Высота : 304 пикселя Соотношение сторон : 2,35:1 Частота кадров : 25,000 кадров/сек Цветовое пространство : YUV Субдискретизация насыщенности : 4:2:0 Битовая глубина : 8 бит Тип развёртки : Прогрессивная Метод сжатия : С потерями Бит/(Пиксели*Кадры) : 0.215 Размер потока : 817 Мбайт (54%) Библиотека кодирования : XviD 73Аудио #1: Идентификатор : 1 Формат : AC-3 Формат/Информация : Audio Coding 3 Расширение режима : CM (complete main) Параметр Endianness формата : Big Идентификатор кодека : 2000 Продолжительность : 1 ч. 37 м. Вид битрейта : Постоянный Битрейт : 192 Кбит/сек Каналы : 2 канала Расположение каналов : Front: L R Частота : 48,0 КГц Битовая глубина : 16 бит Метод сжатия : С потерями Размер потока : 133 Мбайт (9%) Выравнивание : Разделение по промежуткам Продолжительность промежутка : 40 мс. (1,00 видеокадр) Время предзагрузки промежутка : 500 мс.Аудио #2: Идентификатор : 2 Формат : AC-3 Формат/Информация : Audio Coding 3 Расширение режима : CM (complete main) Параметр Endianness формата : Big Идентификатор кодека : 2000 Продолжительность : 1 ч. 37 м. Вид битрейта : Постоянный Битрейт : 192 Кбит/сек Каналы : 2 канала Расположение каналов : Front: L R Частота : 48,0 КГц Битовая глубина : 16 бит Метод сжатия : С потерями Размер потока : 133 Мбайт (9%) Выравнивание : Разделение по промежуткам Продолжительность промежутка : 40 мс. (1,00 видеокадр) Время предзагрузки промежутка : 500 мс.Аудио #3: Идентификатор : 3 Формат : AC-3 Формат/Информация : Audio Coding 3 Профиль формата : Dolby Digital Расширение режима : CM (complete main) Параметр Endianness формата : Big Идентификатор кодека : 2000 Продолжительность : 1 ч. 37 м. Вид битрейта : Постоянный Битрейт : 192 Кбит/сек Каналы : 2 канала Расположение каналов : Front: L R Частота : 48,0 КГц Битовая глубина : 16 бит Метод сжатия : С потерями Размер потока : 133 Мбайт (9%) Выравнивание : Разделение по промежуткам Продолжительность промежутка : 40 мс. (1,00 видеокадр) Время предзагрузки промежутка : 500 мс.Аудио #4: Идентификатор : 4 Формат : AC-3 Формат/Информация : Audio Coding 3 Расширение режима : CM (complete main) Параметр Endianness формата : Big Идентификатор кодека : 2000 Продолжительность : 1 ч. 37 м. Вид битрейта : Постоянный Битрейт : 192 Кбит/сек Каналы : 2 канала Расположение каналов : Front: L R Частота : 48,0 КГц Битовая глубина : 16 бит Метод сжатия : С потерями Размер потока : 133 Мбайт (9%) Выравнивание : Разделение по промежуткам Продолжительность промежутка : 40 мс. (1,00 видеокадр) Время предзагрузки промежутка : 500 мс.Аудио #5: Идентификатор : 5 Формат : AC-3 Формат/Информация : Audio Coding 3 Профиль формата : Dolby Digital Расширение режима : CM (complete main) Параметр Endianness формата : Big Идентификатор кодека : 2000 Продолжительность : 1 ч. 37 м. Вид битрейта : Постоянный Битрейт : 192 Кбит/сек Каналы : 2 канала Расположение каналов : Front: L R Частота : 48,0 КГц Битовая глубина : 16 бит Метод сжатия : С потерями Размер потока : 133 Мбайт (9%) Выравнивание : Разделение по промежуткам Продолжительность промежутка : 40 мс. (1,00 видеокадр) Время предзагрузки промежутка : 500 мс 1,47 Gb 9 3 15 августа 2016 06:10 Крокодил Данди / Crocodile Dundee (1986) HDTVRip-AVC .torrent   [Информация о файле (нажмите для просмотра)] Перевод: Профессиональный (полное дублирование) + Профессиональный (многоголосый, закадровый)+ Профессиональный (многоголосый, закадровый)[ОРТ] + Профессиональный (многоголосый, закадровый)[СТС]Качество: HDTVRip(HDTV 1080i)Контейнер: MKVВидео: AVC, 1024x436 (2.35:1), 2323 kbps, 25 fps, 0.208 bppАудио №1: русский / AC3 / 2.0 / 48 kHz / 192 kbpsАудио №2: русский / AC3 / 2.0 / 48 kHz / 192 kbpsАудио №3: русский / AC3 / 2.0 / 48 kHz / 192 kbpsАудио №4: русский / AC3 / 2.0 / 48 kHz / 192 kbps 2,1 Gb 3 1 15 августа 2016 06:10 Крокодил Данди / Crocodile Dundee (1986) HDTV 720p .torrent   [Информация о файле (нажмите для просмотра)] Перевод: Профессиональный, (многоголосый, закадровый)Кодек: MPEG-4 AVCКачество: HDTV 720pВидео: 6576 Кбит/с, 1280x544, 25.000 кадр/сЗвук: Русский: DD 2.0, 192kbps, 48kHz, 2ch: Профессиональный, (многоголосый, закадровый) 4,22 Gb 3 2 15 августа 2016 06:10 Крокодил Данди / Crocodile Dundee (1986) DVDRip .torrent   [Информация о файле (нажмите для просмотра)] Перевод: Дубляж + Многоголосный закадровыйКодек: XviDКачество: DVDRipВидео: 720x304 (2.37:1), 23.976 fps, XviD build 50 ~1769 kbps avg, 0.34 bit/pixelАудиопоток 1: Audio #1: 48 kHz, AC3 Dolby Digital, 2/0 (L,R) ch, ~192.00 kbps avgАудиопоток 2: Audio #2: 48 kHz, AC3 Dolby Digital, 2/0 (L,R) ch, ~192.00 kbps avg 1,48 Gb 4 4

gig-torrent.net

Крокодил Данди торрент скачать | Скачать торренты в BDRip и HDRip качестве

Крокодил Данди в Лос-Анджелесе / Crocodile Dundee in Los Angeles (2001) HDTVRip от MediaClub | D745.12 MBКрокодил Данди в Лос-Анджелесе / Crocodile Dundee in Los Angeles (2001) DVDRip-AVC от torrentfilm | D, P, A2.18 GBКрокодил Данди 2 / «Crocodile» Dundee II (1988) HDRip от Scarabey | D1.45 GBКрокодил Данди / Crocodile Dundee (Трилогия) (1986 / 1988 / 2001) [1080i] HDTV22.7 GBКрокодил Данди: Трилогия / Crocodile Dundee: Trilogy (1986 / 1988 / 2001) [H.264] DVDRip5.56 GBКрокодил Данди / Crocodile Dundee (Питер Фэймен / Peter Faiman) [1986, Австралия, комедия, приключения, BDRip 720p] Dub + 5x MVO (DDV, НТВ, ОРТ, СТС, ТВЦ) + 5x AVO + VO + Ukr + Original Eng + Sub Rus, Eng11.68 GBКрокодил Данди / Crocodile Dundee (Питер Фэймен / Peter Faiman) [1986, Австралия, комедия, приключения, HDTV 1080i] Dub + 3x MVO + 3x AVO (Дохалов, Кузнецов, Живов) + Original Eng + Sub Rus, Eng7.48 GBКрокодил Данди 2 / "Crocodile" Dundee II (Джон Корнелл / John Cornell) [1988, Австралия, США, боевик, комедия, приключения, BDRip] MVO (СТС) + MVO (ТВЦ) + Original Eng2.06 GBКрокодил Данди / Crocodile Dundee / 1986 / ДБ, 3 x ПМ, ПО, АП (Гаврилов, Живов, Дохалов, Кузнецов), СТ / BDRip (1080p) / 9.86 ГБ9.86 GBКрокодил Данди 2 / Crocodile Dundee 2 (1988) HDTVRip от New-Team746.78 MBКрокодил Данди. Коллекция (3 фильма) / Crocodile Dundee. Collection / 1986-2001 / ДБ / DVDRip / 4.89 ГБ4.89 GBКрокодил Данди 2 / Crocodile Dundee II (Джон Корнелл / John Cornell) [1988, Австралия, США, комедия, приключения, HDTV 1080i] Dub + MVO + 3х AVO (Дохалов, Кузнецов, Живов) + Original Eng + Sub Rus, Eng8.9 GBКрокодил Данди в Лос-Анджелесе / Crocodile Dundee in Los Angeles (Саймон Уинсер / Simon Wincer) [2001, Австралия, США, Комедия, приключения, DVDRip] MVO (ТК Россия)1.41 GBКрокодил Данди в Лос-Анджелесе / Crocodile Dundee in Los Angeles (Саймон Уинсер / Simon Wincer) [2001, США, комедия, приключения, DVDRip - AVC] Dub + Original + subs1.6 GBКрокодил Данди в Лос - Анджелесе / Crocodile Dundee in Los-Angeles (Саймон Уинсер / Simon Wincer) [2001, США, Австралия, комедия, приключения, HDTV 1080i] Dub + AVO (Живов) + Eng + Sub6.36 GBКрокодил Данди / Crocodile Dundee (1986) BDRip1.45 GBКрокодил Данди / Crocodile Dundee / 1986 / ДБ / BDRip / 1.45 ГБ1.45 GBКрокодил Данди в Лос-Анджелесе / Crocodile Dundee in Los Angeles (2001) HDTVRip-AVC2.14 GBКрокодил Данди / Crocodile Dundee (Питер Фэймен / Peter Faiman) [1986, Австралия, комедия, приключения, DVDRip] 2 x MVO (ОРТ + СТС)1.46 GBКрокодил Данди - Tрилогия / Crocodile Dundee (trilogy) Питер Фэймэн (Peter Faiman) [1986-2001, США, боевик, комедия, приключения, DVDRip]4.11 GBКрокодил Данди 2 / Crocodile Dundee II / 1988 / ДБ, АП (Дохалов, Живов, Кузнецов) / BDRip (1080p) / 9.49 ГБ9.49 GBКрокодил Данди 1, 2, 3: в Лос - Анджелесе / Crocodile Dundee 1, 2, 3: in Los-Angeles (Питер Фэймэн / Peter Faiman, Джон Корнелл / John Cornell, Саймон Уинсер / Simon Wincer) [1986, Австралия, 1988, 2001 гг., комедия, приключения, DVDRip] AVO (Живов)2.18 GB[VIDEO] Крокодил Данди: Трилогия / Crocodile Dundee: Trilogy (Питер Фэймен / Peter Faiman, Джон Корнелл / John Cornell, Саймон Уинсер / Simon Wincer) [1986 - 2001, комедия, приключения, HDTVRip] [MP4, 960x] Dub, MVO, VO Живов4.18 GBКрокодил Данди в Лос-Анджелесе / Crocodile Dundee in Los-Angeles (Саймон Уинсер / Simon Wincer) [2001, США, Австралия, Комедия, Приключения, DVDRip]1.37 GBКрокодил Данди в Лос-Анджелесе / Crocodile Dundee in Los Angeles (2001) HDTVRip от MediaClub | A745.12 MBКрокодил Данди 1, 2, 3 / Crocodile Dundee 1, 2, 3 (Питер Фэймэн / Peter Faiman, Джон Корнелл / John Cornell, Саймон Уинсер / Simon Wincer) [1986, Австралия, 1988, 2001 гг., боевик, комедия, приключения, DVDRip-AVC] Dub2.18 GBКрокодил Данди / Crocodile Dundee (1986) HDTVRip-AVC2.1 GBКрокодил Данди (3 фильма из 3) / Crocodile Dundee / 1986-2001 / ДБ, АП (Живов) / WEB-DLRip (720p) / 9.93 ГБ9.93 GB(Score) Crocodile Dundee / Крокодил Данди (Peter Best) - 1986, FLAC (tracks+.cue), lossless244.8 MBДанди по прозвищу "Крокодил" / Крокодил Данди / Crocodile Dundee (Питер Фэймен / Peter Faiman) [1986, Австралия, комедия, приключения, Telesync] [Советская прокатная копия] Dub (к/с им. Горького)3.76 GBКрокодил Данди 2 / Crocodile Dundee II (Джон Корнелл / John Cornell) [1988, Австралия, США, комедия, приключения, DVDRip - AVC] Dub + AVO (Дохалов + Живов + Кузнецов) + Original + subs1.3 GBКрокодил Данди 2 / Crocodile Dundee II (Джон Корнелл / John Cornell) [1988, Австралия, США, Комедия, Приключения, BDRip] Dub (Советский) + AVO (Дохалов) + AVO (Живов) + AVO (Кузнецов)1.89 GBКрокодил Данди / Crocodile Dundee (Питер Фэймен / Peter Faiman) [1986, США, комедия, приключения, DVDRip - AVC] Dub + AVO (Дохалов + Живов + Кузнецов) + Original + subs1.29 GBКрокодил Данди 2 / Crocodile Dundee II (Джон Корнелл / John Cornell) [1988, Австралия, США, боевик, комедия, приключения, BDRip 720p] Dub + 2x MVO + 4x AVO + VO + Ukr + Original Eng + Sub (Rus, Eng, Eng SDH)14.68 GBКрокодил Данди 2 / Crocodile Dundee II (1988) BDRip-AVC от MediaClub3.83 GBКрокодил Данди 2 / «Crocodile» Dundee II (1988) BDRip от HQCLUB2.18 GBКрокодил Данди / Crocodile Dundee (Питер Фэймен / Peter Faiman) [1986, Австралия, Комедия, приключения, BDRip] DVO + MVO1.58 GBКрокодил Данди / Crocodile Dundee / 1986 / ДБ / HEVC / BDRip (1080p) / 3.31 ГБ3.31 GBКрокодил Данди / Crocodile Dundee / 1986 / ДБ, 3 x ПМ, АП (Живов, Дохалов, Кузнецов), ЛО, СТ / Blu-Ray (1080p) / 32.58 ГБ32.58 GBКрокодил Данди 2 / Crocodile Dundee II / 1988 / ДБ, АП (Дохалов, Живов, Кузнецов), СТ / Blu-Ray (1080p) / 37.7 ГБ37.7 GBКрокодил Данди 2 / Crocodile Dundee II / 1988 / ДБ / DVDRip / 1.47 ГБ1.47 GBКрокодил Данди 1,2 части / Crocodile Dundee 1,2 ((Питер Фэймэн (Peter Faiman) / (Джон Корнелл (John Cornell)) [1986, США, комедия,приключения, DVDRip]4.18 GBКрокодил Данди / Crocodile Dundee (Питер Фэймэн / Peter Faiman) [1986, Австралия, комедия, приключения, BDRip] MVO (НТВ)1.45 GBКрокодил Данди / Crocodile Dundee (Питер Фэймен / Peter Faiman) [1986, комедия, приключения, HDTVRip 720p]4.82 GBКрокодил Данди / Crocodile Dundee / 1986 / ДБ / HDTVRip / 745 МБ745 MBКрокодил Данди в Лос-Анджелесе / Crocodile Dundee in Los-Angeles / 2001 / ДБ / WEB-DL (1080p) / 10.91 ГБ10.91 GBКрокодил Данди 2 / Crocodile Dundee II / 1988 / ДБ / HEVC / BDRip (1080p) / 4.55 ГБ4.55 GBКрокодил Данди / Crocodile Dundee / 1986 / ДБ, ПМ, АП (Живов, Дохалов, Кузнецов), ПО, СТ / BDRip (720p) / 4.98 ГБ4.98 GBКрокодил Данди в Лос-Анджелесе / Crocodile Dundee in Los Angeles / 2001 / ДБ / HDTVRip / 745 МБ745 MBКрокодил Данди / Crocodile Dundee / 1986 / ДБ, 3 x ПМ, АП (Живов, Дохалов, Кузнецов), СТ / HDTV (1080i) / 7.48 ГБ7.48 GB tparser.org – торрент поисковик по популярным торрент трекерам. Находить и скачивать новинки кино в HDRip и BDRip качестве через tparser намного проще! Добро пожаловать на крупный торрент архив фильмов и игр tparser.org. Вам больше не придется искать торренты на основных торрент трекерах в поисках нужной раздачи – мы предлагаем найти и скачать фильмы в хорошем качестве прямо на нашем сайте. Наш сервис поиска торрентов в реальном времени собирает информацию с крупных торрент трекеров и сортирует полученные результаты в удобную таблицу. Скачивайте торренты без ограничений и без всяких регистраций на трекерах. Начните скачивать торрент Крокодил Данди прямо сейчас!

tparser.org


Смотрите также