Крамер против крамера скачать торрент в хорошем качестве


Крамер против Крамера 1979 - скачать бесплатно через торрент в хорошем качестве. Без регистрации

Название: Крамер против Крамера / Kramer vs. Kramer (1979) HDRip от Scarabey | D
Качество видео: HDRip
Перевод: Профессиональный (полное дублирование)
Видео: 688x368 (1.87:1), 23.976 fps, XviD build 73 ~1774 kbps avg, 0.29 bit/pixel
Аудио: 48 kHz, AC3 Dolby Digital, 2/0 (L,R) ch, ~192.00 kbps avg
Скачать

Загрузка начнется в течение 5 сек.

1.45 GB

Название: Крамер против Крамера / Kramer vs. Kramer (1979) BDRip 1080p от HDClub | P, D, A | Михалёв
Качество видео: BDRip (1080p)
Формат видео: MKV
Видео: H.264 1920x1040 at 25 fps, MPEG-4 AVC, ~18857 kbps avg
Аудио: Russian: 48 kHz, AC3, 3/2 (L,C,R,l,r) + LFE ch, ~640 kbps avg |Многоголосый закадровый, Blu-ray EUR|Russian: 48 kHz, AC3, 2/0 (L,R) ch, ~192 kbps avg |Многоголосый закадровый, СТС / Шестой Канал|Russian: 48 kHz, AC3, 2/0 (L,R) ch, ~192 kbps avg |Дубляж, Ленфильм|Russian: 48 kHz, AC3, 2/0 (L,R) ch, ~192 kbps avg |Одноголосый закадровый, А. Михалёв|Ukrainian: 48 kHz, DTS, 3/2 (L,C,R,l,r) + LFE ch, ~755 kbps avg |Многоголосый закадровый, Новый канал|English: 48 kHz, DTS, 3/2 (L,C,R,l,r) + LFE ch, ~1509 kbps avg
Скачать

Загрузка начнется в течение 5 сек.

16.36 GB

Название: Крамер против Крамера / Kramer vs. Kramer (1979) BDRip от MediaClub | КПК
Качество видео: BDRip
Перевод: Дублированный (в местах отсутствия дубляжа - Профессиональный многоголосый)
Видео: MPEG-4 AVC 500 Кбит/с, 480x256, 23.976 кадр/с
Аудио: Русский (AAC, 2 ch, 128 Кбит/с)
Скачать

Загрузка начнется в течение 5 сек.

471.05 MB

Название: Крамер против Крамера / Kramer vs. Kramer (1979) BDRip 1080p от NNNB | P, D, A
Качество видео: BDRip 1080p (исходник Blu-ray Disc Remux)
Перевод: Профессиональный (Многоголосый закадровый), Дублированный, Авторский (А. Михалев)
Видео: 1920x1040, 9196 Кбит/сек, 23,976 кадр/сек, AVC, x264, [email protected], 1.85:1, 0.192 Бит/[Пиксели*Кадры]
Аудио: AC-3, 640 Кбит/сек, 6 канала(ов), 48,0 КГц - Многоголосый закадровый / РусскийAC-3, 192 Кбит/сек, 2 канала(ов), 48,0 КГц - Дублированный, Ленфильм / РусскийAC-3, 192 Кбит/сек, 2 канала(ов), 48,0 КГц - Одноголосый закадровый, А. Михалев / РусскийAC-3, 640 Кбит/сек, 6 канала(ов), 48,0 КГц - Оригинал / Английский
Скачать

Загрузка начнется в течение 5 сек.

7.94 GB

Название: Крамер против Крамера / Kramer vs. Kramer (1979) BDRip-AVC от Torrent-Xzona
Скачать

Загрузка начнется в течение 5 сек.

1.42 GB

Название: Крамер против Крамера / Kramer vs. Kramer (1979) BDRip от HQCLUB
Качество видео: BDRip (источник: HDClub / Blu-Ray / 1080p)
Перевод: профессиональный (полное дублирование) Ленфильм + профессиональный (многоголосый закадровый) + оригинал (английский)
Формат видео: AVI
Видео: 704x384 (1.83:1), 23.976 fps, XviD build 64 ~1887 kbps avg, 0.29 bit/pixel
Аудио: 48 kHz, AC3, 2/0 (L,R) ch, ~192.00 kbps avg (DUB)48 kHz, AC3, 3/2 (L,C,R,l,r) + LFE ch, ~448 kbps avg (MVO)48 kHz, AC3, 3/2 (L,C,R,l,r) + LFE ch, ~448 kbps avg (ENG)48 kHz, AC3, 3/2 (L,C,R,l,r) + LFE ch, ~448 kbps avg (UKR) (отдельно)
Скачать

Загрузка начнется в течение 5 сек.

2.18 GB

www.kinovit.net

Крамер против Крамера через торрент

ОбщееУникальный идентификатор : 236541627756570722374945790436446188804 (0xB1F442A983126C6EAF1CDA7AD9AE3504)Полное имя : D:\Video\Крамер против Крамера.1979.BDRip.720p.mkvФормат : MatroskaВерсия формата : Version 4 / Version 2Размер файла : 5,38 ГбайтПродолжительность : 1 ч. 44 м.Общий поток : 7355 Кбит/секДата кодирования : UTC 2016-03-02 14:45:01Программа кодирования : mkvmerge v8.2.0 ('World of Adventure') 64bitБиблиотека кодирования : libebml v1.3.1 + libmatroska v1.4.2

ВидеоИдентификатор : 1Формат : AVCФормат/Информация : Advanced Video CodecПрофиль формата : [email protected]Параметр CABAC формата : ДаПараметр ReFrames формата : 9 кадровИдентификатор кодека : V_MPEG4/ISO/AVCПродолжительность : 1 ч. 44 м.Битрейт : 5496 Кбит/секШирина : 1280 пикселейВысота : 694 пикселяСоотношение сторон : 1,85:1Режим частоты кадров : ПостоянныйЧастота кадров : 23,976 (24000/1001) кадра/секЦветовое пространство : YUVСубдискретизация насыщенности : 4:2:0Битовая глубина : 8 битТип развёртки : ПрогрессивнаяБит/(Пиксели*Кадры) : 0.258Размер потока : 4,02 Гбайт (75%)Библиотека кодирования : x264 core 146 r2538 121396cНастройки программы : cabac=1 / ref=9 / deblock=1:-3:-3 / analyse=0x3:0x113 / me=umh / subme=10 / psy=1 / psy_rd=1.00:0.15 / mixed_ref=1 / me_range=32 / chroma_me=1 / trellis=2 / 8x8dct=1 / cqm=0 / deadzone=21,11 / fast_pskip=1 / chroma_qp_offset=-3 / threads=6 / lookahead_threads=1 / sliced_threads=0 / nr=0 / decimate=1 / interlaced=0 / bluray_compat=0 / constrained_intra=0 / bframes=10 / b_pyramid=2 / b_adapt=2 / b_bias=0 / direct=1 / weightb=1 / open_gop=0 / weightp=2 / keyint=230 / keyint_min=23 / scenecut=40 / intra_refresh=0 / rc_lookahead=40 / rc=crf / mbtree=0 / crf=20.0 / qcomp=0.60 / qpmin=0 / qpmax=69 / qpstep=4 / vbv_maxrate=40000 / vbv_bufsize=50000 / crf_max=0.0 / nal_hrd=none / filler=0 / ip_ratio=1.40 / pb_ratio=1.30 / aq=1:1.00Язык : EnglishDefault : ДаForced : Нет

Аудио #1Идентификатор : 2Формат : AC-3Формат/Информация : Audio Coding 3Расширение режима : CM (complete main)Параметр Endianness формата : BigИдентификатор кодека : A_AC3Продолжительность : 1 ч. 44 м.Вид битрейта : ПостоянныйБитрейт : 192 Кбит/секКаналы : 2 каналаРасположение каналов : Front: L RЧастота : 48,0 КГцЧастота кадров : 31,250 кадров/сек (1536 spf)Метод сжатия : С потерямиРазмер потока : 144 Мбайт (3%)Заголовок : DUB (Ленфильм со вставками многоголоски)Язык : RussianDefault : ДаForced : Нет

Аудио #2Идентификатор : 3Формат : AC-3Формат/Информация : Audio Coding 3Расширение режима : CM (complete main)Параметр Endianness формата : BigИдентификатор кодека : A_AC3Продолжительность : 1 ч. 44 м.Вид битрейта : ПостоянныйБитрейт : 640 Кбит/секКаналы : 6 каналовРасположение каналов : Front: L C R, Side: L R, LFEЧастота : 48,0 КГцЧастота кадров : 31,250 кадров/сек (1536 spf)Метод сжатия : С потерямиРазмер потока : 480 Мбайт (9%)Заголовок : MVO (R5)Язык : RussianDefault : НетForced : Нет

Аудио #3Идентификатор : 4Формат : AC-3Формат/Информация : Audio Coding 3Расширение режима : CM (complete main)Параметр Endianness формата : BigИдентификатор кодека : A_AC3Продолжительность : 1 ч. 44 м.Вид битрейта : ПостоянныйБитрейт : 192 Кбит/секКаналы : 2 каналаРасположение каналов : Front: L RЧастота : 48,0 КГцЧастота кадров : 31,250 кадров/сек (1536 spf)Метод сжатия : С потерямиРазмер потока : 144 Мбайт (3%)Заголовок : MVO (CTC)Язык : RussianDefault : НетForced : Нет

Аудио #4Идентификатор : 5Формат : AC-3Формат/Информация : Audio Coding 3Расширение режима : CM (complete main)Параметр Endianness формата : BigИдентификатор кодека : A_AC3Продолжительность : 1 ч. 44 м.Вид битрейта : ПостоянныйБитрейт : 192 Кбит/секКаналы : 2 каналаРасположение каналов : Front: L RЧастота : 48,0 КГцЧастота кадров : 31,250 кадров/сек (1536 spf)Метод сжатия : С потерямиРазмер потока : 144 Мбайт (3%)Заголовок : AVO (Алексей Михалёв (VHS))Язык : RussianDefault : НетForced : Нет

Аудио #5Идентификатор : 6Формат : AC-3Формат/Информация : Audio Coding 3Расширение режима : CM (complete main)Параметр Endianness формата : BigИдентификатор кодека : A_AC3Продолжительность : 1 ч. 44 м.Вид битрейта : ПостоянныйБитрейт : 640 Кбит/секКаналы : 6 каналовРасположение каналов : Front: L C R, Side: L R, LFEЧастота : 48,0 КГцЧастота кадров : 31,250 кадров/сек (1536 spf)Метод сжатия : С потерямиРазмер потока : 480 Мбайт (9%)Заголовок : OriginalЯзык : EnglishDefault : НетForced : Нет

Текст #1Идентификатор : 7Формат : UTF-8Идентификатор кодека : S_TEXT/UTF8Идентификатор кодека/Информация : UTF-8 Plain TextПродолжительность : 1 ч. 42 м.Битрейт : 132 бит/секCount of elements : 1350Размер потока : 99,0 Кбайт (0%)Заголовок : русскийЯзык : RussianDefault : НетForced : Нет

Текст #2Идентификатор : 8Формат : UTF-8Идентификатор кодека : S_TEXT/UTF8Идентификатор кодека/Информация : UTF-8 Plain TextПродолжительность : 1 ч. 40 м.Битрейт : 65 бит/секCount of elements : 1357Размер потока : 48,5 Кбайт (0%)Заголовок : английскийDefault : НетForced : Нет

piratbit.ru

Крамер против Крамера через торрент

ОбщееУникальный идентификатор : 223617152111189863804269728325922441700 (0xA83B18D0991998E78DC301B764E7C9E4)Полное имя : D:\Video\Крамер против Крамера.1979.BDRip.1080p.mkvФормат : MatroskaВерсия формата : Version 4 / Version 2Размер файла : 12,4 ГбайтПродолжительность : 1 ч. 44 м.Общий поток : 17,0 Мбит/секДата кодирования : UTC 2016-03-04 03:30:33Программа кодирования : mkvmerge v8.2.0 ('World of Adventure') 64bitБиблиотека кодирования : libebml v1.3.1 + libmatroska v1.4.2

ВидеоИдентификатор : 1Формат : AVCФормат/Информация : Advanced Video CodecПрофиль формата : [email protected]Параметр CABAC формата : ДаПараметр ReFrames формата : 4 кадраИдентификатор кодека : V_MPEG4/ISO/AVCПродолжительность : 1 ч. 44 м.Битрейт : 15,1 Мбит/секШирина : 1920 пикселейВысота : 1040 пикселейСоотношение сторон : 1,85:1Режим частоты кадров : ПостоянныйЧастота кадров : 23,976 (24000/1001) кадра/секЦветовое пространство : YUVСубдискретизация насыщенности : 4:2:0Битовая глубина : 8 битТип развёртки : ПрогрессивнаяБит/(Пиксели*Кадры) : 0.316Размер потока : 11,1 Гбайт (89%)Библиотека кодирования : x264 core 146 r2538 121396cНастройки программы : cabac=1 / ref=4 / deblock=1:-3:-3 / analyse=0x3:0x113 / me=umh / subme=10 / psy=1 / psy_rd=1.00:0.15 / mixed_ref=1 / me_range=32 / chroma_me=1 / trellis=2 / 8x8dct=1 / cqm=0 / deadzone=21,11 / fast_pskip=1 / chroma_qp_offset=-3 / threads=6 / lookahead_threads=1 / sliced_threads=0 / nr=0 / decimate=1 / interlaced=0 / bluray_compat=0 / constrained_intra=0 / bframes=10 / b_pyramid=2 / b_adapt=2 / b_bias=0 / direct=1 / weightb=1 / open_gop=0 / weightp=2 / keyint=230 / keyint_min=23 / scenecut=40 / intra_refresh=0 / rc_lookahead=40 / rc=crf / mbtree=0 / crf=19.5 / qcomp=0.60 / qpmin=0 / qpmax=69 / qpstep=4 / vbv_maxrate=40000 / vbv_bufsize=50000 / crf_max=0.0 / nal_hrd=none / filler=0 / ip_ratio=1.40 / pb_ratio=1.30 / aq=1:1.00Язык : EnglishDefault : ДаForced : Нет

Аудио #1Идентификатор : 2Формат : AC-3Формат/Информация : Audio Coding 3Расширение режима : CM (complete main)Параметр Endianness формата : BigИдентификатор кодека : A_AC3Продолжительность : 1 ч. 44 м.Вид битрейта : ПостоянныйБитрейт : 192 Кбит/секКаналы : 2 каналаРасположение каналов : Front: L RЧастота : 48,0 КГцЧастота кадров : 31,250 кадров/сек (1536 spf)Метод сжатия : С потерямиРазмер потока : 144 Мбайт (1%)Заголовок : DUB (Ленфильм со вставками многоголоски)Язык : RussianDefault : ДаForced : Нет

Аудио #2Идентификатор : 3Формат : AC-3Формат/Информация : Audio Coding 3Расширение режима : CM (complete main)Параметр Endianness формата : BigИдентификатор кодека : A_AC3Продолжительность : 1 ч. 44 м.Вид битрейта : ПостоянныйБитрейт : 640 Кбит/секКаналы : 6 каналовРасположение каналов : Front: L C R, Side: L R, LFEЧастота : 48,0 КГцЧастота кадров : 31,250 кадров/сек (1536 spf)Метод сжатия : С потерямиРазмер потока : 480 Мбайт (4%)Заголовок : MVO (R5)Язык : RussianDefault : НетForced : Нет

Аудио #3Идентификатор : 4Формат : AC-3Формат/Информация : Audio Coding 3Расширение режима : CM (complete main)Параметр Endianness формата : BigИдентификатор кодека : A_AC3Продолжительность : 1 ч. 44 м.Вид битрейта : ПостоянныйБитрейт : 192 Кбит/секКаналы : 2 каналаРасположение каналов : Front: L RЧастота : 48,0 КГцЧастота кадров : 31,250 кадров/сек (1536 spf)Метод сжатия : С потерямиРазмер потока : 144 Мбайт (1%)Заголовок : MVO (CTC)Язык : RussianDefault : НетForced : Нет

Аудио #4Идентификатор : 5Формат : AC-3Формат/Информация : Audio Coding 3Расширение режима : CM (complete main)Параметр Endianness формата : BigИдентификатор кодека : A_AC3Продолжительность : 1 ч. 44 м.Вид битрейта : ПостоянныйБитрейт : 192 Кбит/секКаналы : 2 каналаРасположение каналов : Front: L RЧастота : 48,0 КГцЧастота кадров : 31,250 кадров/сек (1536 spf)Метод сжатия : С потерямиРазмер потока : 144 Мбайт (1%)Заголовок : AVO (Алексей Михалёв (VHS))Язык : RussianDefault : НетForced : Нет

Аудио #5Идентификатор : 6Формат : AC-3Формат/Информация : Audio Coding 3Расширение режима : CM (complete main)Параметр Endianness формата : BigИдентификатор кодека : A_AC3Продолжительность : 1 ч. 44 м.Вид битрейта : ПостоянныйБитрейт : 640 Кбит/секКаналы : 6 каналовРасположение каналов : Front: L C R, Side: L R, LFEЧастота : 48,0 КГцЧастота кадров : 31,250 кадров/сек (1536 spf)Метод сжатия : С потерямиРазмер потока : 480 Мбайт (4%)Заголовок : OriginalЯзык : EnglishDefault : НетForced : Нет

Текст #1Идентификатор : 7Формат : UTF-8Идентификатор кодека : S_TEXT/UTF8Идентификатор кодека/Информация : UTF-8 Plain TextПродолжительность : 1 ч. 42 м.Битрейт : 132 бит/секCount of elements : 1350Размер потока : 99,0 Кбайт (0%)Заголовок : русскийЯзык : RussianDefault : НетForced : Нет

Текст #2Идентификатор : 8Формат : UTF-8Идентификатор кодека : S_TEXT/UTF8Идентификатор кодека/Информация : UTF-8 Plain TextПродолжительность : 1 ч. 40 м.Битрейт : 65 бит/секCount of elements : 1357Размер потока : 48,5 Кбайт (0%)Заголовок : английскийDefault : НетForced : Нет

piratbit.ru

Скачать фильм Крамер против Крамера (1979) через торрент

28 июля 2016 11:58 Крамер против Крамера / Kramer vs. Kramer (1979) HDRip от Scarabey | D .torrent   [Информация о файле (нажмите для просмотра)] Перевод: Профессиональный (полное дублирование)Видео: 688x368 (1.87:1), 23.976 fps, XviD build 73 ~1774 kbps avg, 0.29 bit/pixelАудио: 48 kHz, AC3 Dolby Digital, 2/0 (L,R) ch, ~192.00 kbps avg 1,45 Gb 33 11 28 июля 2016 11:58 Крамер против Крамера / Kramer vs. Kramer (1979) BDRip 1080p от HDClub | P, D, A | Михалёв .torrent   [Информация о файле (нажмите для просмотра)] Перевод: Профессиональный (Многоголосый закадровый), Дублированный, Авторский (А. Михалев)Формат: MKVКодек: H.264Качество: BDRip (1080p)Видео: 1920x1040 at 25 fps, MPEG-4 AVC, ~18857 kbps avgЗвук: Аудио#1: Russian: 48 kHz, AC3, 3/2 (L,C,R,l,r) + LFE ch, ~640 kbps avg |Многоголосый закадровый, Blu-ray EUR|Аудио#2: Russian: 48 kHz, AC3, 2/0 (L,R) ch, ~192 kbps avg |Многоголосый закадровый, СТС / Шестой Канал|Аудио#3: Russian: 48 kHz, AC3, 2/0 (L,R) ch, ~192 kbps avg |Дубляж, Ленфильм|Аудио#4: Russian: 48 kHz, AC3, 2/0 (L,R) ch, ~192 kbps avg |Одноголосый закадровый, А. Михалёв|Аудио#5: Ukrainian: 48 kHz, DTS, 3/2 (L,C,R,l,r) + LFE ch, ~755 kbps avg |Многоголосый закадровый, Новый канал|Аудио#6: English: 48 kHz, DTS, 3/2 (L,C,R,l,r) + LFE ch, ~1509 kbps avgСубтитры: Russian (Надписи), Russian, English 16,36 Gb 6 4 28 июля 2016 11:58 Крамер против Крамера / Kramer vs. Kramer (1979) BDRip от HQ-ViDEO | P, D .torrent   [Информация о файле (нажмите для просмотра)] Перевод: Русский профессиональный, многоголосый + Русский дублированный (Ленфильм) + Оригинальная, английская дорожкаКодек: XviDКачество: BDRip (SourceBlu-Ray)Видео: 2017 kbps; 0.30 bit/pixel; 720 x 384; 1.88:1; 23.976 fpsЗвук #1: AC3 Dolby Digital; 384.00 kbps, 6 Ch - RUS MVOЗвук #2: AC3 Dolby Digital; 192.00 kbps, 2 Ch - RUS DUBЗвук #3: AC3 Dolby Digital; 384.00 kbps, 6 Ch - EnglishСубтитры: Русские, Английские. (Отдельно) 2,18 Gb 6 3 28 июля 2016 11:58 Крамер против Крамера / Kramer vs. Kramer (1979) BDRip от MediaClub | КПК .torrent   [Информация о файле (нажмите для просмотра)] Перевод: Дублированный (в местах отсутствия дубляжа - Профессиональный многоголосый)Кодек: MPEG-4 AVCКачество: BDRipВидео: 500 Кбит/с, 480x256, 23.976 кадр/сЗвук: Русский (AAC, 2 ch, 128 Кбит/с) 471,05 Mb 3 5 28 июля 2016 11:58 Крамер против Крамера / Kramer vs. Kramer (1979) BDRip 1080p от NNNB | P, D, A .torrent   [Информация о файле (нажмите для просмотра)] Перевод: Профессиональный (Многоголосый закадровый), Дублированный, Авторский (А. Михалев)Качество: BDRip 1080p (исходник Blu-ray Disc Remux)Видео: 1920x1040, 9196 Кбит/сек, 23,976 кадр/сек, AVC, x264, [email protected], 1.85:1, 0.192 Бит/[Пиксели*Кадры]Аудио 1: AC-3, 640 Кбит/сек, 6 канала(ов), 48,0 КГц - Многоголосый закадровый / РусскийАудио 2: AC-3, 192 Кбит/сек, 2 канала(ов), 48,0 КГц - Дублированный, Ленфильм / РусскийАудио 3: AC-3, 192 Кбит/сек, 2 канала(ов), 48,0 КГц - Одноголосый закадровый, А. Михалев / РусскийАудио 4: AC-3, 640 Кбит/сек, 6 канала(ов), 48,0 КГц - Оригинал / АнглийскийСубтитры: Русские | Полные, Английские | Полные 7,94 Gb 4 3 28 июля 2016 11:58 Крамер против Крамера / Kramer vs. Kramer (1979) BDRip от HQCLUB .torrent   [Информация о файле (нажмите для просмотра)] Перевод: профессиональный (полное дублирование)Ленфильм + профессиональный (многоголосый закадровый) + оригинал (английский)Субтитры: русские (полные, форсированные), английскиеФормат: AVIКачество: BDRip (источник:Видео: 704x384 (1.83:1), 23.976 fps, XviD build 64 ~1887 kbps avg, 0.29 bit/pixelАудио #1: 48 kHz, AC3 Dolby Digital, 2/0 (L,R) ch, ~192.00 kbps avg (DUB)Аудио #2: 48 kHz, AC3 Dolby Digital, 3/2 (L,C,R,l,r) + LFE ch, ~448 kbps avg (MVO)Аудио #3: 48 kHz, AC3 Dolby Digital, 3/2 (L,C,R,l,r) + LFE ch, ~448 kbps avg (ENG)Аудио #4: 48 kHz, AC3 Dolby Digital, 2/0 (L,R) ch, ~192 kbps avg (MVO.STS)(отдельно)Аудио #5: 48 kHz, AC3 Dolby Digital, 2/0 (L,R) ch, ~192 kbps avg (DUB.UKR.INTER)(отдельно)Аудио #6: 48 kHz, AC3 Dolby Digital, 3/2 (L,C,R,l,r) + LFE ch, ~448 kbps avg (MVO.UKR.NOVYJ.KANAL)(отдельно)Аудио #7: 48 kHz, AC3 Dolby Digital, 2/0 (L,R) ch, ~192 kbps avg (AVO.MIHALEV)(отдельно) 2,18 Gb 3 4 28 июля 2016 11:58 Крамер против Крамера / Kramer vs. Kramer (1979) BDRip-AVC от Torrent-Xzona .torrent   [Информация о файле (нажмите для просмотра)] Перевод: Дублированный (киностудии Ленфильм 1981г.)Субтитры: Русские, английскиеКодек: x264Качество: BDRip-AVCВидео: MPEG4, 1024 x 576, 23,976 fps, ~1750 Кбит/сЗвук: AC-3, 2 ch, 192 Кбит/с 1,42 Gb 5 2 28 июля 2016 11:58 Крамер против Крамера / Kramer vs. Kramer (1979) BDRip [720p] от HQ-ViDEO .torrent   [Информация о файле (нажмите для просмотра)] Субтитры: Русские, Английские. 4,7 Gb 8 6

gig-torrent.net

Крамер против Крамера через торрент

Format                                   : MatroskaFormat version                           : Version 2File size                                : 7.94 GiBDuration                                 : 1h 44mnOverall bit rate                         : 10.9 MbpsMovie name                               : Крамер против Крамера.(1979).BDRip.1080p.[envy]Encoded date                             : UTC 2014-11-20 08:30:05Writing application                      : mkvmerge v5.8.0 ('No Sleep / Pillow') built on Sep  2 2012 15:37:04Writing library                          : libebml v1.2.3 + libmatroska v1.3.0

VideoID                                       : 1Format                                   : AVCFormat/Info                              : Advanced Video CodecFormat profile                           : [email protected] settings, CABAC                   : YesFormat settings, ReFrames                : 4 framesCodec ID                                 : V_MPEG4/ISO/AVCDuration                                 : 1h 44mnBit rate                                 : 9 196 KbpsWidth                                    : 1 920 pixelsHeight                                   : 1 040 pixelsDisplay aspect ratio                     : 1.85:1Frame rate mode                          : ConstantFrame rate                               : 23.976 fpsColor space                              : YUVChroma subsampling                       : 4:2:0Bit depth                                : 8 bitsScan type                                : ProgressiveBits/(Pixel*Frame)                       : 0.192Stream size                              : 6.57 GiB (83%)Title                                    : Крамер против Крамера.(1979).BDRip.1080p.[envy]Writing library                          : x264 core 142 r2479 dd79a61Encoding settings                        : cabac=1 / ref=4 / deblock=1:-3:-3 / analyse=0x3:0x113 / me=umh / subme=11 / psy=1 / psy_rd=1.00:0.00 / mixed_ref=1 / me_range=32 / chroma_me=1 / trellis=2 / 8x8dct=1 / cqm=0 / deadzone=21,11 / fast_pskip=0 / chroma_qp_offset=-2 / threads=12 / lookahead_threads=1 / sliced_threads=0 / nr=0 / decimate=1 / interlaced=0 / bluray_compat=0 / constrained_intra=0 / bframes=6 / b_pyramid=2 / b_adapt=2 / b_bias=0 / direct=3 / weightb=1 / open_gop=0 / weightp=2 / keyint=240 / keyint_min=23 / scenecut=40 / intra_refresh=0 / rc=2pass / mbtree=0 / bitrate=9196 / ratetol=2.0 / qcomp=0.60 / qpmin=0 / qpmax=69 / qpstep=4 / cplxblur=20.0 / qblur=0.5 / ip_ratio=1.40 / pb_ratio=1.30 / aq=2:0.90Language                                 : EnglishDefault                                  : YesForced                                   : No

Audio #1ID                                       : 2Format                                   : AC-3Format/Info                              : Audio Coding 3Mode extension                           : CM (complete main)Format settings, Endianness              : BigCodec ID                                 : A_AC3Duration                                 : 1h 44mnBit rate mode                            : ConstantBit rate                                 : 640 KbpsChannel(s)                               : 6 channelsChannel positions                        : Front: L C R, Side: L R, LFESampling rate                            : 48.0 KHzBit depth                                : 16 bitsCompression mode                         : LossyStream size                              : 480 MiB (6%)Title                                    : MVOLanguage                                 : RussianDefault                                  : YesForced                                   : No

Audio #2ID                                       : 3Format                                   : AC-3Format/Info                              : Audio Coding 3Mode extension                           : CM (complete main)Format settings, Endianness              : BigCodec ID                                 : A_AC3Duration                                 : 1h 44mnBit rate mode                            : ConstantBit rate                                 : 192 KbpsChannel(s)                               : 2 channelsChannel positions                        : Front: L RSampling rate                            : 48.0 KHzBit depth                                : 16 bitsCompression mode                         : LossyStream size                              : 144 MiB (2%)Title                                    : DubLanguage                                 : RussianDefault                                  : NoForced                                   : No

Audio #3ID                                       : 4Format                                   : AC-3Format/Info                              : Audio Coding 3Mode extension                           : CM (complete main)Format settings, Endianness              : BigCodec ID                                 : A_AC3Duration                                 : 1h 44mnBit rate mode                            : ConstantBit rate                                 : 192 KbpsChannel(s)                               : 2 channelsChannel positions                        : Front: L RSampling rate                            : 48.0 KHzBit depth                                : 16 bitsCompression mode                         : LossyStream size                              : 144 MiB (2%)Title                                    : MihalevLanguage                                 : RussianDefault                                  : NoForced                                   : No

Audio #4ID                                       : 5Format                                   : AC-3Format/Info                              : Audio Coding 3Mode extension                           : CM (complete main)Format settings, Endianness              : BigCodec ID                                 : A_AC3Duration                                 : 1h 44mnBit rate mode                            : ConstantBit rate                                 : 640 KbpsChannel(s)                               : 6 channelsChannel positions                        : Front: L C R, Side: L R, LFESampling rate                            : 48.0 KHzBit depth                                : 16 bitsCompression mode                         : LossyStream size                              : 480 MiB (6%)Title                                    : EngLanguage                                 : EnglishDefault                                  : NoForced                                   : No

Text #1ID                                       : 6Format                                   : UTF-8Codec ID                                 : S_TEXT/UTF8Codec ID/Info                            : UTF-8 Plain TextTitle                                    : focedLanguage                                 : RussianDefault                                  : YesForced                                   : Yes

Text #2ID                                       : 7Format                                   : UTF-8Codec ID                                 : S_TEXT/UTF8Codec ID/Info                            : UTF-8 Plain TextTitle                                    : fullLanguage                                 : RussianDefault                                  : NoForced                                   : No

Text #3ID                                       : 8Format                                   : UTF-8Codec ID                                 : S_TEXT/UTF8Codec ID/Info                            : UTF-8 Plain TextTitle                                    : fullLanguage                                 : EnglishDefault                                  : NoForced                                   : No

Menu00:00:00.000                             : :Chapter 0100:04:48.788                             : :Chapter 0200:11:15.091                             : :Chapter 0300:20:15.839                             : :Chapter 0400:26:48.481                             : :Chapter 0500:35:56.404                             : :Chapter 0600:43:01.161                             : :Chapter 0700:50:20.767                             : :Chapter 0800:55:48.636                             : :Chapter 0901:03:42.902                             : :Chapter 1001:11:33.497                             : :Chapter 1101:19:18.170                             : :Chapter 1201:24:44.579                             : :Chapter 1301:32:23.829                             : :Chapter 1401:38:19.685                             : :Chapter 1501:40:40.701                             : :Chapter 16

piratbit.ru


Смотрите также