Королева проклятых скачать через торрент бесплатно в хорошем качестве


Скачать фильм Королева проклятых (2002) через торрент

gig-torrent.net

26 июля 2016 09:22 Королева проклятых / Queen of the Damned (2002) BDRip-AVC | D .torrent   [Информация о файле (нажмите для просмотра)] Перевод: ДубляжКодек: x264Качество: BDRip-AVC (Исх | BDRemux 1080p)Видео: 864x360 (2,40:1), 23,976 кадра/сек, 954 Кбит/сек, 0.128 Бит/ПиксельАудио: 48.0 KHz, AAC-HE, 2 ch, 72 Kbps avgВидео: Идентификатор : 1 Формат : AVC Формат/Информация : Advanced Video Codec Профиль формата : [email protected] Параметр CABAC формата : Да Параметр ReFrames формата : 9 кадров Идентификатор кодека : V_MPEG4/ISO/AVC Продолжительность : 1 ч. 41 м. Номинальный битрейт : 954 Кбит/сек Ширина : 864 пикселя Высота : 360 пикселей Соотношение сторон : 2,40:1 Режим частоты кадров : Постоянный Частота кадров : 23,976 кадра/сек Цветовое пространство : YUV Субдискретизация насыщенности : 4:2:0 Битовая глубина : 8 бит Тип развёртки : Прогрессивная Бит/(Пиксели*Кадры) : 0.128 Заголовок : Queen of the Damned Библиотека кодирования : x264 core 146 r2538 121396c Настройки программы : cabac=1 / ref=9 / deblock=1:-1:-1 / analyse=0x3:0x113 / me=umh / subme=10 / psy=1 / psy_rd=1.00:0.15 / mixed_ref=1 / me_range=32 / chroma_me=1 / trellis=2 / 8x8dct=1 / cqm=0 / deadzone=21,11 / fast_pskip=1 / chroma_qp_offset=-3 / threads=2 / lookahead_threads=1 / sliced_threads=0 / nr=0 / decimate=0 / interlaced=0 / bluray_compat=0 / constrained_intra=0 / bframes=8 / b_pyramid=2 / b_adapt=2 / b_bias=0 / direct=3 / weightb=1 / open_gop=0 / weightp=2 / keyint=240 / keyint_min=23 / scenecut=40 / intra_refresh=0 / rc_lookahead=40 / rc=2pass / mbtree=0 / bitrate=954 / ratetol=1.0 / qcomp=0.60 / qpmin=0 / qpmax=69 / qpstep=4 / cplxblur=20.0 / qblur=0.5 / vbv_maxrate=14000 / vbv_bufsize=14000 / nal_hrd=none / filler=0 / ip_ratio=1.40 / pb_ratio=1.30 / aq=1:1.00 Язык : English Default : Да Forced : НетАудио: Идентификатор : 2 Формат : AAC Формат/Информация : Advanced Audio Codec Профиль формата : HE-AAC / LC Идентификатор кодека : A_AAC Продолжительность : 1 ч. 41 м. Каналы : 2 канала Расположение каналов : Front: L R Частота : 48,0 КГц / 24,0 КГц Метод сжатия : С потерями Задержка видео : 31 мс. Заголовок : Дубляж (72,0 Кбит/сек) Язык : Russian Default : Да Forced : Нет 746,03 Mb 8 4
26 июля 2016 09:22 Королева Проклятых / Queen of the Damned (2002) BDRip от Scarabey | D .torrent   [Информация о файле (нажмите для просмотра)] Перевод: Профессиональный (полное дублирование)Качество: BDRipФормат: AVIВидео: 688x288 (2.39:1), 23.976 fps, XviD build 73 ~890 kbps avg, 0.19 bit/pixelАудио: 48 kHz, MPEG Layer 3, 2 ch, ~128.00 kbps avg 746,34 Mb 5 5
26 июля 2016 09:21 Королева Проклятых / Queen of the Damned (2002) BDRip от Scarabey | D .torrent   [Информация о файле (нажмите для просмотра)] Перевод: Профессиональный (полное дублирование)Качество: BDRipФормат: AVIВидео: 720x304 (2.37:1), 23.976 fps, XviD build 73 ~1802 kbps avg, 0.34 bit/pixelАудио: 48 kHz, AC3 Dolby Digital, 2/0 (L,R) ch, ~224 kbps 1,44 Gb 37 6
26 июля 2016 09:21 Королева проклятых / Queen of the Damned (2002) BDRip 720p | D, P, A .torrent   [Информация о файле (нажмите для просмотра)] Перевод: дубляж, профессиональный многоголосый закадровый, авторский одноголосый закадровый (Векшин)Кодек: h.264Качество: BDRip 720pВидео: 1280x534, 5260 Кбит/сек, 23,976 кадра/секЗвук: Русский; AC3; 2 каналов; 48 кГц; 224 Кбит/сек; дубляж Русский; AC3; 6 каналов; 48 кГц; 448 Кбит/сек; многоголосый закадровый Русский; AC3; 6 каналов; 44,1 кГц; 192 Кбит/сек; авторский одноголосый (Векшин) Английский; DTS; 6 каналов; 48 кГц; 1509 Кбит/сек; оригинальная дорожкаСубтитры: русские, английские (SDH)Видео: Идентификатор : 1 Формат : AVC Формат/Информация : Advanced Video Codec Профиль формата : [email protected] Параметр CABAC формата : Да Параметр ReFrames формата : 8 кадров Идентификатор кодека : V_MPEG4/ISO/AVC Продолжительность : 1 ч. 42 м. Битрейт : 5260 Кбит/сек Ширина : 1280 пикселей Высота : 534 пикселя Соотношение сторон : 2,40:1 Режим частоты кадров : Постоянный Частота кадров : 23,976 кадра/сек Цветовое пространство : YUV Субдискретизация насыщенности : 4:2:0 Битовая глубина : 8 бит Тип развёртки : Прогрессивная Бит/(Пиксели*Кадры) : 0.321 Размер потока : 3,61 Гбайт (67%) Библиотека кодирования : x264 core 125 r2208 d9d2288 Настройки программы : cabac=1 / ref=8 / deblock=1:-2:-2 / analyse=0x3:0x133 / me=umh / subme=9 / psy=1 / psy_rd=1.20:0.20 / mixed_ref=1 / me_range=16 / chroma_me=1 / trellis=2 / 8x8dct=1 / cqm=0 / deadzone=21,11 / fast_pskip=1 / chroma_qp_offset=-3 / threads=9 / lookahead_threads=1 / sliced_threads=0 / nr=0 / decimate=0 / interlaced=0 / bluray_compat=0 / constrained_intra=0 / bframes=3 / b_pyramid=2 / b_adapt=2 / b_bias=0 / direct=3 / weightb=1 / open_gop=0 / weightp=2 / keyint=240 / keyint_min=1 / scenecut=40 / intra_refresh=0 / rc_lookahead=60 / rc=2pass / mbtree=1 / bitrate=5260 / ratetol=1.0 / qcomp=0.60 / qpmin=10 / qpmax=51 / qpstep=4 / cplxblur=20.0 / qblur=0.5 / vbv_maxrate=38000 / vbv_bufsize=38000 / nal_hrd=none / ip_ratio=1.40 / aq=1:1.00 Язык : English Default : Да Forced : НетАудио #1: Идентификатор : 2 Формат : AC-3 Формат/Информация : Audio Coding 3 Расширение режима : CM (complete main) Параметр Endianness формата : Big Идентификатор кодека : A_AC3 Продолжительность : 1 ч. 42 м. Вид битрейта : Постоянный Битрейт : 224 Кбит/сек Каналы : 2 канала Расположение каналов : Front: L R Частота : 48,0 КГц Битовая глубина : 16 бит Метод сжатия : С потерями Размер потока : 164 Мбайт (3%) Заголовок : Дубляж Язык : Russian Default : Да Forced : НетАудио #2: Идентификатор : 3 Формат : AC-3 Формат/Информация : Audio Coding 3 Расширение режима : CM (complete main) Параметр Endianness формата : Big Идентификатор кодека : A_AC3 Продолжительность : 1 ч. 42 м. Вид битрейта : Постоянный Битрейт : 448 Кбит/сек Каналы : 6 каналов Расположение каналов : Front: L C R, Side: L R, LFE Частота : 48,0 КГц Битовая глубина : 16 бит Метод сжатия : С потерями Размер потока : 328 Мбайт (6%) Заголовок : Многоголосый закадровый Язык : Russian Default : Нет Forced : НетАудио #3: Идентификатор : 4 Формат : AC-3 Формат/Информация : Audio Coding 3 Расширение режима : CM (complete main) Параметр Endianness формата : Big Идентификатор кодека : A_AC3 Продолжительность : 1 ч. 42 м. Вид битрейта : Постоянный Битрейт : 192 Кбит/сек Каналы : 2 канала Расположение каналов : Front: L R Частота : 44,1 КГц Битовая глубина : 16 бит Метод сжатия : С потерями Размер потока : 141 Мбайт (3%) Заголовок : Авторский одноголосый (Леонид Векшин) Язык : Russian Default : Нет Forced : НетАудио #4: Идентификатор : 5 Формат : DTS Формат/Информация : Digital Theater Systems Режим : 16 Параметр Endianness формата : Big Идентификатор кодека : A_DTS Продолжительность : 1 ч. 42 м. Вид битрейта : Постоянный Битрейт : 1509 Кбит/сек Каналы : 6 каналов Расположение каналов : Front: L C R, Side: L R, LFE Частота : 48,0 КГц Битовая глубина : 24 бит Метод сжатия : С потерями Размер потока : 1,08 Гбайт (20%) Заголовок : Английский Язык : English Default : Нет Forced : Нет 5,41 Gb 17 3
26 июля 2016 09:21 Королева проклятых / Queen of the Damned (2002) BDRip-AVC .torrent   [Информация о файле (нажмите для просмотра)] Перевод: Дублированный, профессиональный многоголосый (Мост Видео), авторский одноголосый (Леонид Векшин)Кодек: MKV, H.264Качество: BDRip-AVCВидео: MPEG-4 AVC, 1321 Кбит/с, 1024x426Звук: Русский (АС3, 2 ch, 224 Кбит/с), (АС3, 2 ch, 192 Кбит/с), (АС3, 6 ch, 448 Кбит/с), английский (АС3, 6 ch, 448 Кбит/с)Субтитры: Русские, английские (SDH) 1,92 Gb 6 1
26 июля 2016 09:21 Королева проклятых / Queen of the Damned (2002) BDRip от Rulya74 .torrent   [Информация о файле (нажмите для просмотра)] Перевод: Дубляж, Многоголосый закадровый (Мост Видео), Оригинал (Английский)Кодек: XviDКачество: BDRipВидео: 720x304 (2.37:1), 23.976 fps, 1229 kbps, 0.234 bit/pixelАудио#1: 48 kHz, AC3 2.0, 224.00 kbps (Дубляж)Аудио#2: 48 kHz, AC3 5.1, 384.00 kbps (Мост Видео)Аудио#3: 48 kHz, AC3 2.0, 192.00 kbps (Английский)Видео: Идентификатор : 0 Формат : MPEG-4 Visual Профиль формата : Advanced [email protected] Параметр BVOP формата : 4 Параметр QPel формата : Нет Параметр GMC формата : Без точки перехода Параметр матрицы формата : Default (MPEG) Режим смешивания : Сжатый битовый поток Идентификатор кодека : XVID Идентификатор кодека/Подсказка : XviD Продолжительность : 1 ч. 41 м. Битрейт : 1229 Кбит/сек Ширина : 720 пикселей Высота : 304 пикселя Соотношение сторон : 2,35:1 Частота кадров : 23,976 кадра/сек Цветовое пространство : YUV Субдискретизация насыщенности : 4:2:0 Битовая глубина : 8 бит Тип развёртки : Прогрессивная Метод сжатия : С потерями Бит/(Пиксели*Кадры) : 0.234 Размер потока : 892 Мбайт (60%) Библиотека кодирования : XviD 1.2.1 (UTC 2008-12-04) Аудио #1: Идентификатор : 1 Формат : AC-3 Формат/Информация : Audio Coding 3 Расширение режима : CM (complete main) Идентификатор кодека : 2000 Продолжительность : 1 ч. 41 м. Вид битрейта : Постоянный Битрейт : 224 Кбит/сек Каналы : 2 канала Расположение каналов : Front: L R Частота : 48,0 КГц Битовая глубина : 16 бит Метод сжатия : С потерями Размер потока : 163 Мбайт (11%) Выравнивание : Разделение по промежуткам Продолжительность промежутка : 42 мс. (1,00 видеокадр) Время предзагрузки промежутка : 500 мс. Заголовок : Дубляж Аудио #2: Идентификатор : 2 Формат : AC-3 Формат/Информация : Audio Coding 3 Расширение режима : CM (complete main) Идентификатор кодека : 2000 Продолжительность : 1 ч. 41 м. Вид битрейта : Постоянный Битрейт : 384 Кбит/сек Каналы : 6 каналов Расположение каналов : Front: L C R, Side: L R, LFE Частота : 48,0 КГц Битовая глубина : 16 бит Метод сжатия : С потерями Размер потока : 279 Мбайт (19%) Выравнивание : Разделение по промежуткам Продолжительность промежутка : 42 мс. (1,00 видеокадр) Время предзагрузки промежутка : 500 мс. Заголовок : Многоголосый закадровый (Мост Видео) Аудио #3: Идентификатор : 3 Формат : AC-3 Формат/Информация : Audio Coding 3 Расширение режима : CM (complete main) Идентификатор кодека : 2000 Продолжительность : 1 ч. 41 м. Вид битрейта : Постоянный Битрейт : 192 Кбит/сек Каналы : 2 канала Расположение каналов : Front: L R Частота : 48,0 КГц Битовая глубина : 16 бит Метод сжатия : С потерями Размер потока : 139 Мбайт (9%) Выравнивание : Разделение по промежуткам Продолжительность промежутка : 42 мс. (1,00 видеокадр) Время предзагрузки промежутка : 500 мс. Заголовок : Оригинал (Английский)Скриншоты 1,45 Gb 3 3
26 июля 2016 09:21 Королева проклятых / Queen of the Damned (2002) DVDRip от New-Team | D .torrent   [Информация о файле (нажмите для просмотра)] Перевод: Профессиональный (дублированный)Видео: 688x288 (2.35:1), 25.000 кадр/сек, XviD ~912 Кбит/сек avg, 0.184 Бит/(Пиксели*Кадры)Аудио: Русский 48 kHz, Mpeg Layer 3, 2 канала, 128 Кбит/сек Постоянный 745,05 Mb 2 4
26 июля 2016 09:21 Королева Проклятых / The Queen Of The Damned (2002) DVD5 .torrent   [Информация о файле (нажмите для просмотра)] Перевод: Профессиональный, многоголосыйСубтитры: English, French, Espanol, Polish, Czech (Ceske), TurkishФормат: DVD VideoКачество: DVD5Видео: NTSC 16:9 (720x480) VBRЗвук: English (Dolby AC3, 6 ch, 448 Кбит/с), Русский (Dolby AC3, 6 ch, 448 Кбит/с) 4,37 Gb 4 3
26 июля 2016 09:21 Королева проклятых / Queen of the Damned (2002) DVDRip-AVC .torrent   [Информация о файле (нажмите для просмотра)] Перевод: Профессиональный , многоголосый (закадровый)Субтитры: НетКачество: DVDRip-AVCФормат: MKVВидео: MPEG4 Video (h364) 960x408, 23.98fps, ~1656 kbps avg, 0.17 bit/pixelАудио 1: AAC, 256kbps, 6 channels, 16bit, 48000khzАудио 2: AAC, 192kbps, 2 channels, 16bit, 48000khz 1,49 Gb 4 5
26 июля 2016 09:21 Королева проклятых / Queen of the Damned (2002) DVDRip от HQ-ViDEO .torrent   [Информация о файле (нажмите для просмотра)] Перевод: Русский профессиональный многоголосый перевод + Оригинальная английская дорожка (отдельным файлом)Кодек: XviDКачество: DVDRipВидео: 720x304, 25 fps, 1746 kbps, 0.32 bit/pixel, XviD 1.2 beta 1 (build 43)Звук: 48 kHz, 6 ch, 384.00 kbps, AC3 Dolby Digital 1,72 Gb 3 3

Королева проклятых 2002 - скачать бесплатно через торрент в хорошем качестве. Без регистрации

www.kinovit.net

Название: Королева проклятых / Queen of the Damned (2002) BDRemux 1080p | D, P, A
Качество видео: BDRemux 1080
Перевод: Профессиональный (полное дублирование)
Видео: MPEG-4 1920x1080 / 23,976 fps / 16:9 / High Profile 4.1 / 29927 kbps
Аудио: Аудио 1: AC3 / 2.0 / 48 kHz / 224 kbps / 16 bits |Dub|
Скачать

Загрузка начнется в течение 5 сек.

24.78 GB

Название: Королева проклятых / Queen of the Damned (2002) BDRip-AVC | D
Качество видео: BDRip-AVC (Исх | BDRemux 1080p)
Перевод: Дубляж
Видео: x264 864x360 (2,40:1), 23,976 кадра/сек, 954 Кбит/сек, 0.128 Бит/Пиксель
Аудио: 48.0 KHz, AAC-HE, 2 ch, 72 Kbps avg
Скачать

Загрузка начнется в течение 5 сек.

746.03 MB

Название: Королева Проклятых / Queen of the Damned (2002) BDRip от Scarabey | D
Качество видео: BDRip
Перевод: Профессиональный (полное дублирование)
Формат видео: AVI
Видео: 720x304 (2.37:1), 23.976 fps, XviD build 73 ~1802 kbps avg, 0.34 bit/pixel
Аудио: 48 kHz, AC3 Dolby Digital, 2/0 (L,R) ch, ~224 kbps
Скачать

Загрузка начнется в течение 5 сек.

1.44 GB

Название: Королева Проклятых / Queen of the Damned (2002) BDRip от Scarabey | D
Качество видео: BDRip
Перевод: Профессиональный (полное дублирование)
Формат видео: AVI
Видео: 688x288 (2.39:1), 23.976 fps, XviD build 73 ~890 kbps avg, 0.19 bit/pixel
Аудио: 48 kHz, MPEG Layer 3, 2 ch, ~128.00 kbps avg
Скачать

Загрузка начнется в течение 5 сек.

746.34 MB

Название: Королева проклятых / Queen of the Damned (2002) BDRip 720p | D, P, A
Качество видео: BDRip 720p
Перевод: дубляж, профессиональный многоголосый закадровый, авторский одноголосый закадровый (Векшин)
Видео: h.264 1280x534, 5260 Кбит/сек, 23,976 кадра/сек
Аудио: Русский; AC3; 2 каналов; 48 кГц; 224 Кбит/сек; дубляж
Скачать

Загрузка начнется в течение 5 сек.

5.41 GB

Название: Королева проклятых / Queen of the Damned (2002) BDRip-AVC
Качество видео: BDRip-AVC
Перевод: Дублированный, профессиональный многоголосый (Мост Видео), авторский одноголосый (Леонид Векшин)
Видео: MKV, H.264 MPEG-4 AVC, 1321 Кбит/с, 1024x426
Аудио: Русский (АС3, 2 ch, 224 Кбит/с), (АС3, 2 ch, 192 Кбит/с), (АС3, 6 ch, 448 Кбит/с), английский (АС3, 6 ch, 448 Кбит/с)
Скачать

Загрузка начнется в течение 5 сек.

1.92 GB

Название: Королева проклятых / Queen of the Damned (2002) BDRip от Rulya74
Качество видео: BDRip
Перевод: Дубляж, Многоголосый закадровый (Мост Видео), Оригинал (Английский)
Видео: XviD 720x304 (2.37:1), 23.976 fps, 1229 kbps, 0.234 bit/pixel
Аудио: 48 kHz, AC3 2.0, 224.00 kbps (Дубляж)48 kHz, AC3 5.1, 384.00 kbps (Мост Видео)48 kHz, AC3 2.0, 192.00 kbps (Английский)
Скачать

Загрузка начнется в течение 5 сек.

1.45 GB

Название: Королева проклятых / Queen of the Damned (2002) DVDRip | D
Качество видео: DVDRip-ASP
Перевод: Профессиональный (дублированный)
Видео: 688x288 (2.35:1), 25.000 кадр/сек, XviD ~912 Кбит/сек avg, 0.184 Бит/(Пиксели*Кадры)
Аудио: Русский 48 kHz, Mpeg Layer 3, 2 канала, 128 Кбит/сек Постоянный
Скачать

Загрузка начнется в течение 5 сек.

745.05 MB

Скачать фильм Королева проклятых через торрент в хорошем качестве бесплатно DVDRip

piratbit.ru

Размер: 1.46 GB | Добавлен: 6 лет 1 мес. назад | Торрент скачан:266 раз
Реклама Дарим 3000 рублей за регистрацию, не упусти свой шанс получить шикарный бонус!!!

15-09-2011 11:34 Королева проклятых Скачать торрент  

Королева проклятых / Queen of the Damned Год выпуска: 2002Страна: СШАЖанр: Вампиры, ужасы, фэнтези, музыкаПродолжительность: 01:39:27Перевод: Профессиональный (полное дублирование)Субтитры: нет

Режиссер: Майкл Раймер

В ролях: Алийа, Стюарт Таунсенд, Маргарит Моро, Венсан Перес, Лина Олин, Пол МакГэнн, Брюс Спенс, Кристиан Мэнон, Клаудия Блэк, Мэттью Ньютон

Описание:Легендарный вампир Лестат пробудился после долгих лет сна и решил выйти в свет. Теперь он имеет возможность перемещаться среди смертных в образе некой рок-звезды. Его опьяняющая музыка — приманка популярна во всем мире, и в конечном счете, доходит до ушей дремлющей Королевы Акаши в ее склепе во льдах Арктики.

Мать всех вампиров, Акаша отдыхала несколько столетий, ожидая подходящее время для того, чтобы подняться и вновь захватить власть по всему миру. Музыка Лестата — открытие, которого она ожидала…

Качество: DVDRipФормат: AVIВидео кодек: XviD Аудио кодек: AC3Видео: 720x304 (2.37:1), 25 fps, XviD build 50 ~1866 kbps avg, 0.34 bit/pixelАудио: 48 kHz, AC3 Dolby Digital, 2 ch, ~224.00 kbps avg

Скачать Королева проклятых через торрент http://i31.fastpic.ru/big/2011/0915/61/cdf220d34dfe30d8744c52e50c7b6261.png Скачать фильм Королева проклятых через торрент бесплантно в хорошем качестве Описание:Легендарный вампир Лестат пробудился после долгих лет сна и решил выйти в свет. Теперь он имеет возможность перемещаться среди ... 2011-09-15 11:34 10 10 4

Loading...

Loading...

Рекламный пират

15-09-2011 11:39 Королева проклятых Скачать торрент  

Сидеер ты гдее?

15-09-2011 14:01 Королева проклятых Скачать торрент  

Лучший фильм да и книга про вампиров. Никаких соплей.

Дорогой пользователь! Огромная просьба, поблагодарите релизера, оцените раздачу и оставьте свои комментарий, если Вы скачали Королева проклятых через торрент бесплатно! Внесите свою лепту в развитие PiratBit!

Комментировать посты могут только пользователи прошедшие не сложную регистрацию

Королева проклятых через торрент Скачать бесплатно Королева проклятых Королева проклятых скачать торрент Королева проклятых смотреть онлайн Cкачать фильм Королева проклятых бесплатно Королева проклятых скачать торрент в хорошем качестве Королева проклятых смотреть онлайн бесплатно в хорошем качестве

Вы не можете начинать темыВы не можете отвечать на сообщенияВы не можете редактировать свои сообщенияВы не можете удалять свои сообщенияВы не можете голосовать в опросахВы не можете прикреплять файлы к сообщениямВы можете скачивать файлы

Скачать фильм Королева Проклятых через торрент в хорошем качестве бесплатно 1080p

GeneralUnique ID : 230260966677755512420958267225318311237 (0xAD3AA629C486193BA2285FCB980F4545)Complete name : D:\Koroleva.proklyatih.2002.x264.BDRip.1080p.HDTracker.mkvFormat : MatroskaFormat version : Version 2File size : 9.97 GiBDuration : 1h 42mnOverall bit rate : 14.0 MbpsMovie name : =HDTracker= by =WhiteHorse= with =MySilu=Encoded date : UTC 2012-09-14 04:40:24Writing application : mkvmerge v4.4.0 ('Die Wiederkehr') сборка от Oct 31 2010 21:52:48Writing library : libebml v1.0.0 + libmatroska v1.0.0

VideoID : 1Format : AVCFormat/Info : Advanced Video CodecFormat profile : [email protected] settings, CABAC : YesFormat settings, ReFrames : 4 framesCodec ID : V_MPEG4/ISO/AVCDuration : 1h 42mnBit rate : 11.7 MbpsWidth : 1 920 pixelsHeight : 800 pixelsDisplay aspect ratio : 2.40:1Frame rate mode : ConstantFrame rate : 23.976 fpsColor space : YUVChroma subsampling : 4:2:0Bit depth : 8 bitsScan type : ProgressiveBits/(Pixel*Frame) : 0.318Stream size : 8.08 GiB (81%)Title : ВидеорядWriting library : x264 core 125 r2208 d9d2288Encoding settings : cabac=1 / ref=4 / deblock=1:-2:-2 / analyse=0x3:0x113 / me=umh / subme=10 / psy=1 / psy_rd=1.20:0.20 / mixed_ref=1 / me_range=32 / chroma_me=1 / trellis=2 / 8x8dct=1 / cqm=0 / deadzone=21,11 / fast_pskip=0 / chroma_qp_offset=-3 / threads=9 / lookahead_threads=1 / sliced_threads=0 / nr=0 / decimate=0 / interlaced=0 / bluray_compat=0 / constrained_intra=0 / bframes=5 / b_pyramid=2 / b_adapt=2 / b_bias=0 / direct=3 / weightb=1 / open_gop=0 / weightp=2 / keyint=240 / keyint_min=1 / scenecut=40 / intra_refresh=0 / rc_lookahead=72 / rc=2pass / mbtree=1 / bitrate=11695 / ratetol=1.0 / qcomp=0.60 / qpmin=10 / qpmax=51 / qpstep=4 / cplxblur=20.0 / qblur=0.5 / vbv_maxrate=38000 / vbv_bufsize=38000 / nal_hrd=none / ip_ratio=1.40 / aq=1:1.00Default : YesForced : No

Audio #1ID : 2Format : AC-3Format/Info : Audio Coding 3Mode extension : CM (complete main)Format settings, Endianness : BigCodec ID : A_AC3Duration : 1h 42mnBit rate mode : ConstantBit rate : 448 KbpsChannel(s) : 6 channelsChannel positions : Front: L C R, Side: L R, LFESampling rate : 48.0 KHzBit depth : 16 bitsCompression mode : LossyStream size : 328 MiB (3%)Title : МногоголосыйLanguage : RussianDefault : YesForced : No

Audio #2ID : 3Format : AC-3Format/Info : Audio Coding 3Mode extension : CM (complete main)Format settings, Endianness : BigCodec ID : A_AC3Duration : 1h 42mnBit rate mode : ConstantBit rate : 224 KbpsChannel(s) : 2 channelsChannel positions : Front: L RSampling rate : 48.0 KHzBit depth : 16 bitsCompression mode : LossyStream size : 164 MiB (2%)Title : Дублированный (Мост Видео)Language : RussianDefault : NoForced : No

Audio #3ID : 4Format : DTSFormat/Info : Digital Theater SystemsCodec ID : A_DTSDuration : 1h 42mnBit rate mode : ConstantBit rate : 1 510 KbpsChannel(s) : 6 channelsChannel positions : Front: L C R, Side: L R, LFESampling rate : 48.0 KHzBit depth : 24 bitsCompression mode : LossyStream size : 1.08 GiB (11%)Title : АнглийскийLanguage : EnglishDefault : NoForced : No

Audio #4ID : 5Format : AC-3Format/Info : Audio Coding 3Format profile : Dolby DigitalMode extension : CM (complete main)Format settings, Endianness : BigCodec ID : A_AC3Duration : 1h 42mnBit rate mode : ConstantBit rate : 192 KbpsChannel(s) : 2 channelsChannel positions : Front: L RSampling rate : 48.0 KHzBit depth : 16 bitsCompression mode : LossyStream size : 140 MiB (1%)Title : Английский (комментарии)Language : EnglishDefault : NoForced : No

Text #1ID : 6Format : UTF-8Codec ID : S_TEXT/UTF8Codec ID/Info : UTF-8 Plain TextTitle : Русские (full)Language : RussianDefault : NoForced : No

Text #2ID : 7Format : UTF-8Codec ID : S_TEXT/UTF8Codec ID/Info : UTF-8 Plain TextTitle : Английские (SDH)Language : EnglishDefault : NoForced : No

Menu00:00:00.000 : :Chapter 0100:03:44.599 : :Chapter 0200:06:48.157 : :Chapter 0300:09:28.276 : :Chapter 0400:12:29.165 : :Chapter 0500:16:36.286 : :Chapter 0600:20:09.583 : :Chapter 0700:24:34.055 : :Chapter 0800:29:09.038 : :Chapter 0900:34:09.088 : :Chapter 1000:37:30.164 : :Chapter 1100:40:49.196 : :Chapter 1200:45:11.792 : :Chapter 1300:51:03.268 : :Chapter 1400:55:10.473 : :Chapter 1500:59:45.290 : :Chapter 1601:04:18.646 : :Chapter 1701:06:34.115 : :Chapter 1801:09:09.311 : :Chapter 1901:12:02.026 : :Chapter 2001:16:46.226 : :Chapter 2101:19:18.003 : :Chapter 2201:21:48.278 : :Chapter 2301:26:18.756 : :Chapter 2401:30:07.068 : :Chapter 2501:32:45.142 : :Chapter 2601:37:04.485 : :Chapter 2701:41:28.373 : :Chapter 28

piratbit.ru

Скачать фильм Королева Проклятых через торрент в хорошем качестве бесплатно HDTVRip(720p)

ОбщееПолное имя                       : D:\Фильмы\Queen.of.the.Damned.2002.720p.HDTVRip.x264.AC3.Eng.2xRus.by.CClassicHD.mkvФормат                           : MatroskaРазмер файла                     : 4,85 ГигабайтПродолжительность                : 1 ч. 42 м.Общий поток                      : 6787 Кбит/секФильм                            : Released by CClassicHD.NetДата кодирования                 : UTC 2011-04-16 14:09:52Программа-кодировщик             : mkvmerge v2.9.8 ('C'est le bon') built on Aug 13 2009 12:49:06Библиотека кодирования           : libebml v0.7.7 + libmatroska v0.8.1

ВидеоИдентификатор                    : 1Формат                           : AVCФормат/Информация                : Advanced Video CodecПрофайл формата                  : [email protected]Параметры CABAC формата          : ДаПараметры ReFrames формата       : 5 кадрыРежим смешивания                 : Container [email protected]Идентификатор кодека             : V_MPEG4/ISO/AVCПродолжительность                : 1 ч. 42 м.Битрейт                          : 5596 Кбит/секНоминальный битрейт              : 5786 Кбит/секШирина                           : 1280 пикс.Высота                           : 720 пикс.Соотношение кадра                : 16:9Частота кадров                   : 23,976 кадр/секРазрешение                       : 24 битКолориметрия                     : 4:2:0Тип развёртки                    : ПрогрессивнаяБит/(Пиксели*Кадры)              : 0.253Размер потока                    : 3,99 Гигабайт (82%)Заголовок                        : Queen.of.the.Damned.2002.720p.HDTVRip.x264.AC3.Eng.2xRus.by.CClassicHD.NETБиблиотека кодирования           : x264 core 114 r1913 5fd3dceНастройки программы              : cabac=1 / ref=5 / deblock=1:0:0 / analyse=0x3:0x133 / me=umh / subme=8 / psy=1 / psy_rd=1.00:0.00 / mixed_ref=1 / me_range=16 / chroma_me=1 / trellis=1 / 8x8dct=1 / cqm=0 / deadzone=21,11 / fast_pskip=0 / chroma_qp_offset=-2 / threads=12 / sliced_threads=0 / nr=0 / decimate=1 / interlaced=0 / constrained_intra=0 / bframes=3 / b_pyramid=2 / b_adapt=1 / b_bias=0 / direct=1 / weightb=1 / open_gop=0 / weightp=2 / keyint=240 / keyint_min=24 / scenecut=40 / intra_refresh=0 / rc_lookahead=40 / rc=2pass / mbtree=1 / bitrate=5786 / ratetol=1.0 / qcomp=0.60 / qpmin=0 / qpmax=69 / qpstep=4 / cplxblur=20.0 / qblur=0.5 / ip_ratio=1.40 / aq=1:1.00Язык                             : English

Аудио #1Идентификатор                    : 2Формат                           : AC-3Формат/Информация                : Audio Coding 3Идентификатор кодека             : A_AC3Продолжительность                : 1 ч. 42 м.Вид битрейта                     : ПостоянныйБитрейт                          : 224 Кбит/секКанал(ы)                         : 2 канала(ов)Расположение каналов             : L RЧастота                          : 48,0 КГцЗадержка видео                   : 28 мс.Размер потока                    : 164 Мегабайт (3%)Заголовок                        : Rus: AC3 2.0, 224kbps - Профессиональный (Полное Дублирование)Язык                             : Russian

Аудио #2Идентификатор                    : 3Формат                           : AC-3Формат/Информация                : Audio Coding 3Идентификатор кодека             : A_AC3Продолжительность                : 1 ч. 42 м.Вид битрейта                     : ПостоянныйБитрейт                          : 448 Кбит/секКанал(ы)                         : 6 канала(ов)Расположение каналов             : Front: L C R, Surround: L R, LFEЧастота                          : 48,0 КГцЗадержка видео                   : 12 мс.Размер потока                    : 328 Мегабайт (7%)Заголовок                        : Rus: AC3 5.1, 448kbps - Профессиональный (Многоголосый, закадровый)Язык                             : Russian

Аудио #3Идентификатор                    : 4Формат                           : AC-3Формат/Информация                : Audio Coding 3Идентификатор кодека             : A_AC3Продолжительность                : 1 ч. 42 м.Вид битрейта                     : ПостоянныйБитрейт                          : 384 Кбит/секКанал(ы)                         : 6 канала(ов)Расположение каналов             : Front: L C R, Surround: L R, LFEЧастота                          : 48,0 КГцЗадержка видео                   : 19 мс.Размер потока                    : 281 Мегабайт (6%)Заголовок                        : Rus: AC3 5.1, 384kbps - OriginalЯзык                             : English

ТекстИдентификатор                    : 5Формат                           : UTF-8Идентификатор кодека             : S_TEXT/UTF8Идентификатор кодека/Информация  : UTF-8 Plain TextЗаголовок                        : SubtitlesЯзык                             : Russian

piratbit.ru

Королева проклятых (2002) скачать торрент в хорошем качестве

Информация о фильмеНазвание: Королева проклятыхОригинальное название: Queen of the DamnedГод выхода: 2002Жанр: ужасы, фэнтези, музыкаРежиссер: Майкл РаймерВ ролях: Алайя, Стюарт Таунсенд, Маргарит Моро, Венсан Перес, Пол МакГэнн, Лена Улин, Кристиан Мэнон, Клаудия Блэк, Брюс Спенс, Мэттью Ньютон

О фильме: Легендарный вампир Лестат пробудился после долгих лет сна и решил выйти в свет. Теперь он имеет возможность перемещаться среди смертных в образе некой рок-звезды. Его опьяняющая музыка — приманка популярна во всем мире, и в конечном счете, доходит до ушей дремлющей Королевы Акаши в ее склепе во льдах Арктики.

Мать всех вампиров, Акаша отдыхала несколько столетий, ожидая подходящее время для того, чтобы подняться и вновь захватить власть по всему миру. Музыка Лестата — открытие, которого она ожидала…

Страна: США, АвстралияПродолжительность: 01:41:29Перевод: ДубляжCубтитры: русские, английские SDH

ФайлКодек: x264Качество: BDRip-AVC (Исх | BDRemux 1080p)Видео: 864x360 (2,40:1), 23,976 кадра/сек, 954 Кбит/сек, 0.128 Бит/ПиксельАудио: 48.0 KHz, AAC-HE, 2 ch, 72 Kbps avg

avs [info]: 864x360p 1:1 @ 2500000/104271 fps (cfr)x264 [info]: using SAR=1/1x264 [info]: using cpu capabilities: MMX2 SSE2 SSE3 Cache64x264 [info]: profile High, level 4.1

x264 [info]: frame I:1068 Avg QP:15.63 size: 39649x264 [info]: frame P:30617 Avg QP:19.23 size: 11363x264 [info]: frame B:114296 Avg QP:21.06 size: 2937x264 [info]: consecutive B-frames: 2.1% 2.9% 6.1% 16.0% 19.9% 33.3% 9.5% 5.1% 5.0%x264 [info]: mb I I16..4: 10.1% 70.4% 19.5%x264 [info]: mb P I16..4: 1.4% 9.4% 1.2% P16..4: 39.8% 26.0% 13.4% 0.0% 0.0% skip: 8.8%x264 [info]: mb B I16..4: 0.1% 0.5% 0.1% B16..8: 41.7% 9.4% 2.2% direct: 3.5% skip:42.5% L0:44.3% L1:47.1% BI: 8.6%x264 [info]: 8x8 transform intra:77.0% inter:60.3%x264 [info]: direct mvs spatial:97.6% temporal:2.4%x264 [info]: coded y,uvDC,uvAC intra: 84.0% 76.0% 50.6% inter: 15.9% 13.1% 5.5%x264 [info]: i16 v,h,dc,p: 25% 12% 17% 46%x264 [info]: i8 v,h,dc,ddl,ddr,vr,hd,vl,hu: 15% 7% 9% 9% 13% 13% 11% 12% 11%x264 [info]: i4 v,h,dc,ddl,ddr,vr,hd,vl,hu: 14% 7% 4% 10% 15% 15% 13% 12% 12%x264 [info]: i8c dc,h,v,p: 40% 24% 20% 16%x264 [info]: Weighted P-Frames: Y:5.9% UV:3.1%x264 [info]: ref P L0: 48.3% 10.1% 17.6% 6.3% 5.7% 3.8% 3.7% 2.0% 2.1% 0.3% 0.0%x264 [info]: ref B L0: 69.6% 13.3% 6.8% 3.7% 2.6% 2.3% 1.3% 0.4%x264 [info]: ref B L1: 91.2% 8.8%x264 [info]: kb/s:953.79

ОбщееУникальный идентификатор : 248847318859697392579683504903225319070 (0xBB3640137ACF15E1BE73B1525C279E9E)Полное имя : D:Королева Проклятых.(2002).BDRip-AVC.mkvФормат : MatroskaВерсия формата : Version 4 / Version 2Размер файла : 746 МбайтПродолжительность : 1 ч. 41 м.Общий поток : 1028 Кбит/секНазвание фильма : -=rip by Sergei91=- (TorrentPMR.com)Дата кодирования : UTC 2015-11-11 14:31:51Программа кодирования : mkvmerge v6.1.0 ('Old Devil') built on Mar 2 2013 14:32:37Библиотека кодирования : libebml v1.3.0 + libmatroska v1.4.0Attachements : cover.jpg

ВидеоИдентификатор : 1Формат : AVCФормат/Информация : Advanced Video CodecПрофиль формата : [email protected]Параметр CABAC формата : ДаПараметр ReFrames формата : 9 кадровИдентификатор кодека : V_MPEG4/ISO/AVCПродолжительность : 1 ч. 41 м.Номинальный битрейт : 954 Кбит/секШирина : 864 пикселяВысота : 360 пикселейСоотношение сторон : 2,40:1Режим частоты кадров : ПостоянныйЧастота кадров : 23,976 кадра/секЦветовое пространство : YUVСубдискретизация насыщенности : 4:2:0Битовая глубина : 8 битТип развёртки : ПрогрессивнаяБит/(Пиксели*Кадры) : 0.128Заголовок : Queen of the DamnedБиблиотека кодирования : x264 core 146 r2538 121396cНастройки программы : cabac=1 / ref=9 / deblock=1:-1:-1 / analyse=0x3:0x113 / me=umh / subme=10 / psy=1 / psy_rd=1.00:0.15 / mixed_ref=1 / me_range=32 / chroma_me=1 / trellis=2 / 8x8dct=1 / cqm=0 / deadzone=21,11 / fast_pskip=1 / chroma_qp_offset=-3 / threads=2 / lookahead_threads=1 / sliced_threads=0 / nr=0 / decimate=0 / interlaced=0 / bluray_compat=0 / constrained_intra=0 / bframes=8 / b_pyramid=2 / b_adapt=2 / b_bias=0 / direct=3 / weightb=1 / open_gop=0 / weightp=2 / keyint=240 / keyint_min=23 / scenecut=40 / intra_refresh=0 / rc_lookahead=40 / rc=2pass / mbtree=0 / bitrate=954 / ratetol=1.0 / qcomp=0.60 / qpmin=0 / qpmax=69 / qpstep=4 / cplxblur=20.0 / qblur=0.5 / vbv_maxrate=14000 / vbv_bufsize=14000 / nal_hrd=none / filler=0 / ip_ratio=1.40 / pb_ratio=1.30 / aq=1:1.00Язык : EnglishDefault : ДаForced : Нет

АудиоИдентификатор : 2Формат : AACФормат/Информация : Advanced Audio CodecПрофиль формата : HE-AAC / LCИдентификатор кодека : A_AACПродолжительность : 1 ч. 41 м.Каналы : 2 каналаРасположение каналов : Front: L RЧастота : 48,0 КГц / 24,0 КГцМетод сжатия : С потерямиЗадержка видео : 31 мс.Заголовок : Дубляж (72,0 Кбит/сек)Язык : RussianDefault : ДаForced : Нет

Текст #1Идентификатор : 3Формат : UTF-8Идентификатор кодека : S_TEXT/UTF8Идентификатор кодека/Информация : UTF-8 Plain TextЯзык : RussianDefault : НетForced : Нет

Текст #2Идентификатор : 4Формат : UTF-8Идентификатор кодека : S_TEXT/UTF8Идентификатор кодека/Информация : UTF-8 Plain TextЯзык : EnglishDefault : НетForced : Нет

Меню00:00:00.000 : en:Chapter 0100:03:33.338 : en:Chapter 0200:08:00.688 : en:Chapter 0300:10:28.628 : en:Chapter 0400:13:58.045 : en:Chapter 0500:17:02.021 : en:Chapter 0600:20:16.089 : en:Chapter 0700:22:11.330 : en:Chapter 0800:26:37.887 : en:Chapter 0900:30:32.038 : en:Chapter 1000:34:29.776 : en:Chapter 1100:36:00.992 : en:Chapter 1200:38:18.087 : en:Chapter 1300:40:37.101 : en:Chapter 1400:45:53.792 : en:Chapter 1500:48:53.847 : en:Chapter 1600:51:58.156 : en:Chapter 1700:54:43.113 : en:Chapter 1800:57:51.426 : en:Chapter 1901:00:48.186 : en:Chapter 2001:03:26.594 : en:Chapter 2101:07:09.567 : en:Chapter 2201:09:43.596 : en:Chapter 2301:13:11.470 : en:Chapter 2401:15:31.860 : en:Chapter 2501:17:27.726 : en:Chapter 2601:19:30.098 : en:Chapter 2701:24:50.710 : en:Chapter 2801:26:58.254 : en:Chapter 2901:31:04.250 : en:Chapter 3001:34:03.679 : en:Chapter 3101:37:33.180 : en:Chapter 3201:41:54.817 : en:Chapter 33

rutorg2.ru

7
22
19-06-2017, 08:18
746.03 MB
Связанные раздачи

Королева проклятых торрент скачать | Скачать торренты в BDRip и HDRip качестве

Пираты Карибского моря: Проклятие Чёрной жемчужины / Pirates of the Caribbean: The Curse of the Black Pearl (Гор Вербински / Gore Verbinski) [2003, США, приключения, WEBRip] [Open Matte] Dub + DVO (Гланц и Королёва) + AVO (Гаврилов) + Original Eng4.18 GBКоролева Проклятых / Queen of the Damned (Майкл Раймер / Michael Rymer) [2002, США, Австралия, ужасы, фэнтези, музыка, BDRip] Dub + MVO + AVO + Sub Rus2.11 GBКоролева проклятых / Queen of the Damned (2002) BDRip-AVC | D746.03 MBКоролева проклятых / Queen of the Damned (2002) BDRip 720p | D, P, A5.41 GB(Soundtrack) Королева проклятых / The Queen Of The Damned - 2002, MP3, 320 kbps137.5 MBКоролева проклятых / Queen of the Damned (2002) DVDRip от HQ-ViDEO1.72 GBКоролева проклятых / Queen of the Damned / 2002 / ДБ / DVDRip / 1.38 ГБ1.38 GBКоролева проклятых / Queen of the Damned / 2002 / ДБ, ПМ, СТ / BDRip (1080p) / 9.97 ГБ9.97 GBКоролева Проклятых / Queen of the Damned (Майкл Раймер / Michael Rymer) [2002, США, Австралия, ужасы, фэнтези, музыка, BDRip] MVO ("Мост Видео")1.46 GBКоролева Проклятых / Queen of the Damned (Майкл Раймер / Michael Rymer) [2002, США, Австралия, ужасы, фэнтези, музыка, HDTVRip 720p] DUB + MVO + Original + Rus Sub4.85 GB(Score) Королева проклятых / Queen of the Damned (Jonathan Davis Vocals) - 2001, MP3, 192 kbps26.4 MBКоролева Проклятых / Queen of the Damned (Майкл Раймер / Michael Rymer) [2002, США, Австралия, ужасы, фэнтези, музыка, HDTVRip] Dub704.4 MBКоролева проклятых / Queen of the Damned (Майкл Раймер / Michael Rymer) [2002, США, Австралия, Мистика, ужасы, фэнтези, DVDRip-AVC] DUB744.8 MBКоролева проклятых / Queen of the Damned (Майкл Раймер / Michael Rymer) [2002, США, Австралия, Вампиры, ужасы, фэнтези, музыка, DVDRip] Dub1.46 GBКоролева проклятых / Queen of the Damned (2002) BDRip-AVC1.92 GBЧарли Чан и проклятье королевы драконов / Charlie Chan and the Curse of the Dragon Queen / 1981 / ПМ / HDTVRip / 1.46 ГБ1.46 GBКоролева проклятых / Queen of the Damned / Soundtrack / 2002 / MP3 / 138 МБ138 MBКоролева Проклятых / Queen of the Damned (Майкл Раймер / Michael Rymer) [2002, США, Австралия, ужасы, фэнтези, музыка, BDRemux 1080p] Dub + MVO (Мост Видео) + VO (Векшин) + Original Eng + Sub Rus, Eng24.78 GB(Score) Queen Of The Damned / Королева Проклятых (Richard Gibbs) - 2002, FLAC (tracks+.cue), lossless154 MBЧарли Чан и проклятье королевы драконов / Charlie Chan and the Curse of the Dragon Queen (Клив Доннер / Clive Donner) [1981, комедия, HDTV 1080i] MVO + original6.76 GBЧарли Чан и проклятье королевы драконов / Charlie Chan and the Curse of the Dragon Queen (Клив Доннер / Clive Donner) [1981, США, комедия, HDTVRip] MVO745 MBКоролева проклятых / Queen of the Damned (Майкл Раймер / Michael Rymer) [2002, США, Австралия, Мистика, ужасы, фэнтези, DVDRip] DUB745 MB(Score) Королева Проклятых / Queen of the Damned by Richard Gibbs & Jonathan Davis - 2002, MP3, 320 kbps68.6 MBКоролева проклятых / Queen of the Damned (Майкл Раймер / Michael Rymer) [2002, США, Австралия, триллер, DVD5 (Custom)]4.35 GBКоролева Проклятых / The Queen Of The Damned (2002) DVD54.37 GBПроклятие золотого цветка / Curse of the Golden Flower (Имоу Чжан / Yimou Zhang) [2006, Китай, Гонконг, Исторический, драма, мелодрама, HDRip] AVO (Гланц, Королева)1.46 GBКоролева Проклятых / Queen of the Damned (2002) BDRip от Scarabey | D746.34 MBКоролева проклятых / Queen of the Damned (2002) DVDRip-AVC1.49 GB[VIDEO] Королева Проклятых / Queen of the Damned (Майкл Раймер / Michael Rymer) [2002, ужасы, фэнтези, музыка, HDTVRip] [MP4, 800x] Dub, MVO847.8 MBКоролева проклятых / Queen of the Damned (Майкл Раймер / Michael Rymer) [2002, США, Австралия, ужасы, фэнтези, DVDRip-AVC]1.33 GBКоролева Проклятых\Queen of the Damned (Сборник клипов) [Ужасы / Мистика, HDTV]488.2 MBКоролева проклятых / Queen of the Damned (2002) DVDRip от New-Team | D745.05 MBКоролева Проклятых / Queen of the Damned (Майкл Раймер / Michael Rymer) [2002, Ужасы, MP3] VO Леонид Векшин92.5 MBКоролева проклятых / Queen of the Damned (Майкл Раймер / Michael Rymer) [2002, США, Ужасы / Романтика / Мистика, DVD9]7.15 GBПроклятие золотого цветка / Curse of the Golden Flower (Имоу Чжан / Yimou Zhang) [2006, Китай, Гонконг, Исторический, драма, мелодрама, HDRip] DVO (Гланц, Королева)753.3 MB[iPhone] Королева проклятых / Queen of the Damned (Майкл Раймер /Michael Rymer) [2002, Ужасы / Романтика / Мистика, DVDRip]428.9 MBКоролева проклятых / Queen of the Damned / 2002 / ДБ, ПМ, СТ / HDTVRip (720p) / 4.85 ГБ4.85 GBКоролева Проклятых / Queen of the Damned (2002) BDRip от Scarabey | D746.34 MB(Soundtrack) Королева проклятых / Queen of the Damned - 2002 ALAC, lossless434.7 MBПираты Карибского Моря: Проклятье Чёрной Жемчужины / Pirates of the Caribbean: The Curse of the Black Pearl (Гор Вербински / Gore Verbinski) [2003, боевик, фэнтези, приключения, AC3] DVO (Петр Гланц и Инна Королева)771.2 MBПираты Карибского моря: Проклятие Черной жемчужины / Pirates of the Caribbean: The Curse of the Black Pearl (Гор Вербински / Gore Verbinski) [2003, США, Боевик, Фэнтези, Приключения, HDRip] DVO (Гланц и Королева)1.46 GBКоролева Проклятых / Queen Of The Damned [2002, США, Мистика, DVDRip]700.3 MBКоролева проклятых / Queen of the Damned (2002) BDRip от Rulya741.45 GBКоролева проклятых / Queen of the Damned (2002) BDRemux 1080p | D, P, A24.78 GBКоролева проклятых / Queen of the Damned / 2002 / ПД / DVDRip / 1.36 ГБ1.36 GBКоролевы красоты. Проклятие короны / 2016 / РУ / WEB-DLRip / 502 МБ502 MBКоролева проклятых / Queen of the Damned / 2002 / ПМ, СТ / DVD-5 / 4.35 ГБ4.35 GBКоролева проклятых / Queen of the Damned / 2002 / ПМ / DVD-9 / 7.15 ГБ7.15 GBКоролева проклятых / Queen of the Damned / 2002 / ДБ, ПМ, АП (Векшин) / BDRip / 2.11 ГБ2.11 GBКоролева проклятых / Queen of the Damned / 2002 / ПМ / HDTVRip / 1.37 ГБ1.37 GB tparser.org – торрент поисковик по популярным торрент трекерам. Находить и скачивать новинки кино в HDRip и BDRip качестве через tparser намного проще! Добро пожаловать на крупный торрент архив фильмов и игр tparser.org. Вам больше не придется искать торренты на основных торрент трекерах в поисках нужной раздачи – мы предлагаем найти и скачать фильмы в хорошем качестве прямо на нашем сайте. Наш сервис поиска торрентов в реальном времени собирает информацию с крупных торрент трекеров и сортирует полученные результаты в удобную таблицу. Скачивайте торренты без ограничений и без всяких регистраций на трекерах. Начните скачивать торрент Королева проклятых прямо сейчас!

tparser.org


Смотрите также