Код доступа кейптаун скачать торрент в хорошем качестве hd 720


Скачать фильм Код доступа «Кейптаун» (2012) через торрент

21 января 2016 08:00 Код доступа «Кейптаун» / Safe House (2012) BDRip 720p от HELLYWOOD .torrent   [Информация о файле (нажмите для просмотра)] Перевод: Профессиональный (полное дублирование) + Оригинальная звуковая дорожкаСубтитры: Русские (Full Blu-Ray, Voronine, Forced Blu-Ray), Украинские (Full R5, Forced), Английские (Full, SDH, SDH color) - СпасибоvinalordФормат: MKVКачество: BDRip 720p (источник:Видео: 1280x534 at 23.976 fps, [email protected], crf, ~10.9 MbpsАудио #1: 48 kHz, AC3 Dolby Digital, 3/2 (L,C,R,l,r) + LFE ch, 640 kbps|DUB|Аудио #2: 48 kHz, AC3 Dolby Digital, 3/2 (L,C,R,l,r) + LFE ch, 640 kbps|ENG| 9,95 Gb 15 8 21 января 2016 08:00 Код доступа «Кейптаун» / Safe House (2012) BDRip-AVC .torrent   [Информация о файле (нажмите для просмотра)] Перевод: Профессиональный (полное дублирование)Кодек: x264Качество: BDRip-AVC - исх. BDRemux 1080pВидео: 768 x 320 (2.40:1), 23.976 fps, 775 Kbps, 0.132 bit/pixelЗвук: 48.0 KHz, Advanced Audio Codec, 2 channels (Front: L R), 128 kbpsСубтитры: Русские (полные, форсированные), Английские[полные, UTF-8] 743,78 Mb 36 2 21 января 2016 08:00 Код доступа «Кейптаун» / Safe House (2012) BDRip 720p | D, L1, A .torrent   [Информация о файле (нажмите для просмотра)] Перевод: Дублированный, Любительский (одноголосый, закадровый)|zamez|, Авторский (одноголосый закадровый) |А. Гаврилов|Качество: BDRip (720p)Видео: MPEG-4 AVC, 9500 Кбит/с, 1280x534Аудио 1: Русский (DTS, 6 ch, 755 Кбит/с) - ДублированныйАудио 2: Русский (DTS, 6 ch, 1510 Кбит/с) - zamezАудио 3: Русский (AC3, 6 ch, 384 Кбит/с) - Гаврилов 9,76 Gb 7 1 21 января 2016 08:00 Код доступа «Кейптаун» / Safe House (2012) BDRip | Гаврилов .torrent   [Информация о файле (нажмите для просмотра)] Перевод: Авторский (одноголосый закадровый)|А. Гаврилов|Качество: BDRipФормат: AVIВидео: 720x304 (2.37:1), 23.976 fps, XviD build 65 ~1424 kbps avg, 0.27 bit/pixelАудио: 48 kHz, AC3 Dolby Digital, 3/2 (L,C,R,l,r) + LFE ch, ~384.00 kbps avg 1,46 Gb 16 2 21 января 2016 08:00 Код доступа «Кейптаун» / Safe House (2012) BDRip 720p от leonardo 59 .torrent   [Информация о файле (нажмите для просмотра)] Перевод: Дубляж [лицензия]Качество: BDRip 720pВидео: AVC, 1280x534 (2.40:1) at 23.976 fps, AVC at 11 390 kbps avg, 0.680 bit/pixel, crfАудио #1: 48 kHz, AC3 Dolby Digital, 3/2 (L,C,R,l,r) + LFE ch, 448.00 kbps -Russian (dub)Аудио #2: 48 kHz, AC3 Dolby Digital, 3/2 (L,C,R,l,r) + LFE ch, 448.00 kbps - English (original)Субтитры: Русские (полные, форсированные), Украинские (форсированные), Английские (полные, SDH, SDH цветные), Французские, Испанские 9,86 Gb 5 2 21 января 2016 08:00 Код доступа «Кейптаун» / Safe House (2012) HDRip от Scarabey | Лицензия .torrent   [Информация о файле (нажмите для просмотра)] Перевод: Дубляж - лицензияКодек: XviDКачество: HDRipВидео: 720x304 (2.37:1), 23.976 fps, XviD build 50 ~1350 kbps avg, 0.26 bit/pixelАудио: 48 kHz, AC3 Dolby Digital, 3/2 (L,C,R,l,r) + LFE ch, ~384.00 kbps avgСубтитры: нет 1,4 Gb 471 32 21 января 2016 08:00 Код доступа «Кейптаун» / Safe House (2012) BDRip от HELLYWOOD .torrent   [Информация о файле (нажмите для просмотра)] Перевод: Профессиональный (полное дублирование) + Оригинальная звуковая дорожкаСубтитры: Русские (полные, форсированные), Украинские (форсированные), Английские (полные, SDH, SDH цветные) - СпасибоvinalordФормат: AVIКачество: BDRip (источник:Видео: 720x304 (2.37:1), 23.976 fps, XviD build 65 ~1948 kbps avg, 0.37 bit/pixelАудио #1: 48 kHz, AC3 Dolby Digital, 3/2 (L,C,R,l,r) + LFE ch, 384 kbps|DUB|Аудио #2: 48 kHz, AC3 Dolby Digital, 3/2 (L,C,R,l,r) + LFE ch, 384 kbps|ENG| 2,19 Gb 50 8 21 января 2016 08:00 Код доступа «Кейптаун» / Safe House (2012) BDRip 1080p .torrent   [Информация о файле (нажмите для просмотра)] Перевод: Дублированный (лицензия)Кодек: x264Качество: BDRip (источник: Blu-ray Disc)Видео: 1920x800 (2,40:1), 23.976 fps, 8769 kbpsАудио #1: AC-3, 6 ch, 448 kbps (Rus)Аудио #2: AC-3, 6 ch, 448 kbps (Eng)Субтитры: Русские (форс,полные), АнглийскиеВидео: Идентификатор : 1 Формат : AVC Формат/Информация : Advanced Video Codec Профиль формата : [email protected] Параметр CABAC формата : Да Параметр ReFrames формата : 5 кадров Идентификатор кодека : V_MPEG4/ISO/AVC Продолжительность : 1 ч. 54 м. Битрейт : 8769 Кбит/сек Ширина : 1920 пикселей Высота : 800 пикселей Соотношение сторон : 2,40:1 Частота кадров : 23,976 кадра/сек Цветовое пространство : YUV Субдискретизация насыщенности : 4:2:0 Битовая глубина : 8 бит Тип развёртки : Прогрессивная Бит/(Пиксели*Кадры) : 0.238 Размер потока : 6,88 Гбайт (89%) Заголовок : Release by AlexKa Библиотека кодирования : x264 core 125 r2200 999b753 Настройки программы : cabac=1 / ref=5 / deblock=1:0:0 / analyse=0x3:0x133 / me=umh / subme=10 / psy=1 / psy_rd=1.00:0.10 / mixed_ref=1 / me_range=32 / chroma_me=1 / trellis=2 / 8x8dct=1 / cqm=0 / deadzone=21,11 / fast_pskip=0 / chroma_qp_offset=-3 / threads=12 / lookahead_threads=2 / sliced_threads=0 / nr=0 / decimate=0 / interlaced=0 / bluray_compat=0 / constrained_intra=0 / bframes=5 / b_pyramid=2 / b_adapt=2 / b_bias=0 / direct=3 / weightb=1 / open_gop=0 / weightp=2 / keyint=240 / keyint_min=23 / scenecut=40 / intra_refresh=0 / rc_lookahead=60 / rc=2pass / mbtree=1 / bitrate=8769 / ratetol=1.0 / qcomp=0.60 / qpmin=0 / qpmax=69 / qpstep=4 / cplxblur=20.0 / qblur=0.5 / ip_ratio=1.40 / aq=1:1.00 Язык : EnglishАудио #1: Идентификатор : 2 Формат : AC-3 Формат/Информация : Audio Coding 3 Расширение режима : CM (complete main) Идентификатор кодека : A_AC3 Продолжительность : 1 ч. 54 м. Вид битрейта : Постоянный Битрейт : 448 Кбит/сек Каналы : 6 каналов Расположение каналов : Front: L C R, Side: L R, LFE Частота : 48,0 КГц Битовая глубина : 16 бит Метод сжатия : С потерями Размер потока : 368 Мбайт (5%) Заголовок : Rus Язык : RussianАудио #2: Идентификатор : 3 Формат : AC-3 Формат/Информация : Audio Coding 3 Расширение режима : CM (complete main) Идентификатор кодека : A_AC3 Продолжительность : 1 ч. 54 м. Вид битрейта : Постоянный Битрейт : 448 Кбит/сек Каналы : 6 каналов Расположение каналов : Front: L C R, Side: L R, LFE Частота : 48,0 КГц Битовая глубина : 16 бит Метод сжатия : С потерями Размер потока : 368 Мбайт (5%) Заголовок : Eng Язык : English 7,75 Gb 131 2 21 января 2016 08:00 Код доступа «Кейптаун» / Safe House (2012) BDRip от R.G. AVI | AVC .torrent   [Информация о файле (нажмите для просмотра)] Перевод: Профессиональный (полное дублирование) |Лицензия|Субтитры: нетКачество: BDRip [Safe.House.2012.BluRay.1080p.AVC.DTS-HD.MA.5.1-CHDBits]Формат: AVIВидео: 720x304 (2.37:1), 23.976 fps, XviD build 65 ~1424 kbps avg, 0.27 bit/pixelАудио: 48 kHz, AC3 Dolby Digital, 3/2 (L,C,R,l,r) + LFE ch, ~384.00 kbps avg 1,46 Gb 118 7 21 января 2016 08:00 Код доступа «Кейптаун» / Safe House (2012) DVD9 .torrent   [Информация о файле (нажмите для просмотра)] Перевод: дублированныйСубтитры: Русские, Английские, Чешские, Эстонские, Латышские, Литовские, УкраинскиеКодек: MPEG2Качество: DVD9Видео: PAL 16:9 () VBR, ~9800KbpsЗвук: Аудио#1 - Английский (Dolby AC3, 6 ch), 48000 Hz, 384 Kbps Аудио#2 - Русский (Dolby AC3, 6 ch), 48000 Hz, 384 Kbps Аудио#3 - Чешский (Dolby AC3, 6 ch), 48000 Hz, 384 Kbps 7,72 Gb 5 3 21 января 2016 08:00 Код доступа «Кейптаун» / Safe House (2012) BDRip-AVC от HQ-ViDEO | Лицензия .torrent   [Информация о файле (нажмите для просмотра)] Перевод: Профессиональный дублированный (Лицензия) + Оригинальная дорожка (Английская) Субтитры: Русские (форс. + полные), Английские |.srt|Видео: x.264 / 960 x 400 / 2.40:1 / ~2842 kbps / 23,976 fpsАудио 1: Русский / AC3 Dolby Digital / 48 KHz / 384 kbps / 3/2 (L,C,R,l,r) + LFE chАудио 2: Английский / AC3 Dolby Digital / 48 KHz / 384 kbps / 3/2 (L,C,R,l,r) + LFE ch 2,9 Gb 16 3 21 января 2016 08:00 Код доступа «Кейптаун» / Safe House (2012) BDRip от HQ-ViDEO | Лицензия .torrent   [Информация о файле (нажмите для просмотра)] Перевод: Профессиональный дублированный (Лицензия) + Оригинальная дорожка (Английская) Субтитры: Русские (форс. + полные), Английские |.srt|Видео: XviD / 720 x 304 / 2.37:1 / 1936 kbps / 23,976 fpsАудио 1: Русский / AC3 Dolby Digital / 48 KHz / 384 kbps / 3/2 (L,C,R,l,r) + LFE chАудио 2: Английский / AC3 Dolby Digital / 48 KHz / 384 kbps / 3/2 (L,C,R,l,r) + LFE ch 2,18 Gb 10 3 21 января 2016 08:00 Код доступа «Кейптаун» / Safe House (2012) BDRip-AVC от R.G. AVI | AVC | Лицензия .torrent   [Информация о файле (нажмите для просмотра)] Перевод: Профессиональный (полное дублирование)Субтитры: РусскиеКачество: BDRip-AVC [BDRemux]Формат: MKVВидео: H.264, 1056x440 (2,40:1), 23,976 кадр/сек, 2269 Кбит/сек, 0.204 bit/pixelАудио#1: 48 kHz, AC3 Dolby Digital, 3/2 (L,C,R,l,r) + LFE ch, ~384.00 kbps avg |RUSАудио#2: 48 kHz, AC3 Dolby Digital, 3/2 (L,C,R,l,r) + LFE ch, ~448.00 kbps avg |ENG 2,13 Gb 6 5 21 января 2016 07:59 Код доступа «Кейптаун» / Safe House (2012) HDRip от Scarabey .torrent   [Информация о файле (нажмите для просмотра)] Перевод: Дубляж - лицензияКодек: XviDКачество: HDRipВидео: 656x272 (2.41:1), 23.976 fps, XviD build 50 ~768 kbps avg, 0.18 bit/pixelЗвук: 48 kHz, MPEG Layer 3, 2 ch, ~128.00 kbps avgСубтитры: нет 744,91 Mb 6 6 21 января 2016 07:59 Код доступа «Кейптаун» / Safe House (2012) BDRip от HQCLUB | Лицензия .torrent   [Информация о файле (нажмите для просмотра)] Перевод: Профессиональный (полное дублирование) + Оригинальная звуковая дорожкаСубтитры: Русские (полные, форсированные), Английские (внешние srt*) (спасибо Gellard)Формат: AVIКачество: BDRip (источникSafe.House.2012.BluRay.1080p.AVC.DTS-HD.MA.5.1-CHDBits)Видео: 720x304 (2.37:1), 23.976 fps, XviD build 65 ~1880 kbps avg, 0.36 bit/pixelАудио #1: 48 kHz, AC3 Dolby Digital, 3/2 (L,C,R,l,r) + LFE ch, ~384.00 kbps avgАудио #2: 48 kHz, AC3 Dolby Digital, 3/2 (L,C,R,l,r) + LFE ch, ~448.00 kbps avg 2,18 Gb 9 3 21 января 2016 07:59 Код доступа «Кейптаун» / Safe House (2012) BDRip 720p | Лицензия .torrent   [Информация о файле (нажмите для просмотра)] Качество: BDRip 720pВидео: MKV (x.264), 1280x534, 23.976 fps, 9500 kbpsАудио #1: Русский, AC3 5.1, 384 kbps, 48 KHzАудио #2: Английский, DTS 5.1, 1510 kbps, 48 KHzСубтитры: Английские 9,13 Gb 5 4 21 января 2016 07:59 Код доступа «Кейптаун» / Safe House (2012) Blu-Ray | Лицензия .torrent   [Информация о файле (нажмите для просмотра)] Качество: Blu-RayВидео: MPEG-4 AVC, 33.6 Мбит/с, 1920x1080, 23.976 кадр/сАудио: Русский (АС3, 6 ch, 384 Кбит/с), английский (DTS-HD MA, 6 ch, 3819 Кбит/с)Перевод: Дублированный [лицензия]Субтитры: Русские (форсированные от voronine), русские (полные от voronine), английские (полные, SDH, SDH цветные)Видео: Идентификатор : 1 Формат : AVC Формат/Информация : Advanced Video Codec Профиль формата : [email protected] Параметр CABAC формата : Да Параметр ReFrames формата : 4 кадра Параметр GOP формата : M=3, N=12 Идентификатор кодека : V_MPEG4/ISO/AVC Продолжительность : 1 ч. 54 м. Вид битрейта : Переменный Битрейт : 33,6 Мбит/сек Максимальный битрейт : 35,0 Мбит/сек Ширина : 1920 пикселей Высота : 1080 пикселей Соотношение сторон : 16:9 Частота кадров : 23,976 кадра/сек Цветовое пространство : YUV Субдискретизация насыщенности : 4:2:0 Битовая глубина : 8 бит Тип развёртки : Прогрессивная Бит/(Пиксели*Кадры) : 0.676 Размер потока : 27,0 Гбайт (93%) Язык : English Default : Да Forced : ДаАудио #1: Идентификатор : 2 Формат : AC-3 Формат/Информация : Audio Coding 3 Расширение режима : CM (complete main) Параметр Endianness формата : Big Идентификатор кодека : A_AC3 Продолжительность : 1 ч. 54 м. Вид битрейта : Постоянный Битрейт : 384 Кбит/сек Каналы : 6 каналов Расположение каналов : Front: L C R, Side: L R, LFE Частота : 48,0 КГц Битовая глубина : 16 бит Метод сжатия : С потерями Размер потока : 316 Мбайт (1%) Язык : Russian Default : Да Forced : ДаАудио #2: Идентификатор : 3 Формат : DTS Формат/Информация : Digital Theater Systems Профиль формата : MA / Core Идентификатор кодека : A_DTS Продолжительность : 1 ч. 54 м. Вид битрейта : Переменный Битрейт : 1576 Кбит/сек / 1510 Кбит/сек Каналы : 6 каналов Расположение каналов : Front: L C R, Side: L R, LFE Частота : 48,0 КГц Битовая глубина : 24 бит Метод сжатия : Без потерь / Lossy Язык : English Default : Нет Forced : Нет 29,13 Gb 5 2

gig-torrent.net

Код доступа «Кейптаун» через торрент

Размер: 2.13 GB | Добавлен: 5 лет 4 мес. назад | Торрент скачан:846 раз
Реклама Дарим 3000 рублей за регистрацию, не упусти свой шанс получить шикарный бонус!!!

06-06-2012 22:02 Код доступа «Кейптаун» Скачать торрент  

Код доступа «Кейптаун» / Safe HouseГод выпуска: 2012Страна: США, ЮАР / Relativity Media, Intrepid Pictures, Stuber Productions, Moonlighting Films South AfricaЖанр: Боевик, триллер, криминал, детективПродолжительность: 01:54:54Перевод: Дубляж (Лицензия)

Режиссер: Дэниэл Эспиноза

В ролях: Дензел Вашингтон, Райан Рейнольдс, Вера Фармига, Брендан Глисон, Сэм Шепард, Рубен Бладес, Нора Арнезедер, Роберт Патрик, Лиам Каннингэм, Юэль Киннаман

Описание: Выпускник Гарварда Мэтт мечтает со своей невестой переехать в Париж. Но она не знает, что уже год он работает на ЦРУ.Легендарный агент ЦРУ Фрост владеет секретной информацией. Но он вышел из-под контроля, и теперь его главное правило: «не доверяй никому — тебя предаст каждый». Их пути пересекутся в одном из красивейших городов мира — Кейптауне, где каждый должен будет сделать свой выбор.

Качество: BDRip-AVC [BDRemux]Формат: MKVВидео кодек: H.26xАудио кодек: AC3Видео: H.264, 1056x440 (2,40:1), 23,976 кадр/сек, 2269 Кбит/сек, 0.204 bit/pixelАудио#1: 48 kHz, AC3 Dolby Digital, 3/2 (L,C,R,l,r) + LFE ch, ~384.00 kbps avg | RUSСубтитры: Русские

Релиз от: Автор рипа: potroks Скачать Код доступа «Кейптаун» через торрент http://lostpic.net/images/73a4a6fd94772c7e8919e453b0b4fe86.jpg Скачать фильм Код доступа «Кейптаун» через торрент бесплантно в хорошем качестве Описание: Выпускник Гарварда Мэтт мечтает со своей невестой переехать в Париж. Но она не знает, что уже год он работает на ЦРУ.Легендарный ... 2012-06-06 22:02 10 10 6

Loading...

Loading...

Рекламный пират

07-06-2012 00:29 Код доступа «Кейптаун» Скачать торрент  

Дензел Вашингтон умеет играть отрицательных героев. Надеюсь, здесь будет так же закрученно, как в "Тренировочном дне".

Последний раз редактировалось: Po3T (2012-06-20 01:06), всего редактировалось 1 раз

07-06-2012 01:37 Код доступа «Кейптаун» Скачать торрент  

Фильм шикарен красиво не глупо. Смотрел в кинотеатре. Но начиная с того момента как сказали что за информация лежит на чипе я понял абсолютно всё что будет и предугадывал каждую сцену(таких фильмов было снято с пару сотен,но Дензел молодец,хорошо сыграл. Посмотреть стоит.

07-06-2012 14:27 Код доступа «Кейптаун» Скачать торрент  

Райан тоже последнее время попер. играет классно. После того, как индус снимал Король вечеринок и там играл его сын того приезжего индуса, Райана звать сниматься перестали, а с 2009 он выдает по паре ролей в год минимум. Дензел красавец, как всегда). Дориан Грэй, только черный))))

08-06-2012 19:43 Код доступа «Кейптаун» Скачать торрент  

Отлично снятый боевик. Один из лучших про спецслужбы, естественно после трилогии о Борне.

29-06-2012 22:00 Код доступа «Кейптаун» Скачать торрент  

Наконец-то посмотрел. Неплохой в целом фильм, но как-то не ВААААУ. На 7 из 10. Дензел на высоте, а вот все остальное, включая сценарий, монтаж и режиссуру - явно ниже его уровнем.

06-08-2017 18:59 Код доступа «Кейптаун» Скачать торрент  

Гайс!! дайте скорости, плиз)

Дорогой пользователь! Огромная просьба, поблагодарите релизера, оцените раздачу и оставьте свои комментарий, если Вы скачали Код доступа «Кейптаун» через торрент бесплатно! Внесите свою лепту в развитие PiratBit!

Комментировать посты могут только пользователи прошедшие не сложную регистрацию

Код доступа «Кейптаун» через торрент Скачать бесплатно Код доступа «Кейптаун» Код доступа «Кейптаун» скачать торрент Код доступа «Кейптаун» смотреть онлайн Cкачать фильм Код доступа «Кейптаун» бесплатно Код доступа «Кейптаун» скачать торрент в хорошем качестве Код доступа «Кейптаун» смотреть онлайн бесплатно в хорошем качестве

Вы не можете начинать темыВы не можете отвечать на сообщенияВы не можете редактировать свои сообщенияВы не можете удалять свои сообщенияВы не можете голосовать в опросахВы не можете прикреплять файлы к сообщениямВы можете скачивать файлы

piratbit.ru

Код доступа «Кейптаун» через торрент

Размер: 1.45 GB | Добавлен: 5 лет 4 мес. назад | Торрент скачан:2529 раз
Реклама Дарим 3000 рублей за регистрацию, не упусти свой шанс получить шикарный бонус!!!

06-06-2012 17:59 Код доступа «Кейптаун» Скачать торрент  

Код доступа «Кейптаун» / Safe House«No One Is Safe»Название:Код доступа «Кейптаун»Оригинальное название: Safe HouseГод выхода: 2012Жанр: боевик, триллер, криминалВыпущено: США, ЮАРПродолжительность: 01:54:55Перевод: Профессиональный [дублированный] Лицензия!Cубтитры: нетРежиссер: Дэниэл Эспиноза / Daniel EspinosaВ ролях: Дензел Вашингтон, Райан Рейнольдс, Вера Фармига, Брендан Глисон, Сэм Шепард, Рубен Бладес, Нора Арнезедер, Роберт Патрик, Лиам Каннингэм, Юэль КиннаманОписание: Выпускник Гарварда Мэтт мечтает со своей невестой переехать в Париж. Но она не знает, что уже год он работает на ЦРУ. Легендарный агент ЦРУ Фрост владеет секретной информацией. Но он вышел из-под контроля, и теперь его главное правило: «не доверяй никому — тебя предаст каждый». Их пути пересекутся в одном из красивейших городов мира — Кейптауне, где каждый должен будет сделать свой выбор... | | Раздача от: Автор рипа: LИсходник: Safe House 2012 1080p BluRay AVC DTS-HD MA 5.1-HDC Качество: BDRip-AVCКонтейнер: MKVВидео кодек: AVCАудио кодек: AC3Видео: AVC / [email protected] / 1056x440 / 1 424 Kbps / 2.40:1Аудио: 48 kHz, AC3, 3/2 (L,C,R,l,r) + LFE ch, ~384.00 kbps avg - Профессиональный [дублированный] Лицензия!

ОбщееУникальный идентификатор : 184932302623668396892828756866800933388 (0x8B20AA7A6FDFE95BB2B6FC928EC5DA0C)Полное имя : D:\L\Kod.Dostupa.Kejptaun.2012.BDRip.x264.ac3[by.L].mkvФормат : MatroskaВерсия формата : Version 2Размер файла : 1,45 ГбайтПродолжительность : 1 ч. 54 м.Общий поток : 1805 Кбит/секДата кодирования : UTC 2012-06-06 14:51:03Программа кодирования : mkvmerge v3.2.0 ('Beginnings') built on Feb 12 2010 16:46:17Библиотека кодирования : libebml v0.7.9 + libmatroska v0.8.1ВидеоИдентификатор : 1Формат : AVCФормат/Информация : Advanced Video CodecПрофиль формата : [email protected]Параметр CABAC формата : ДаПараметр ReFrames формата : 11 кадровИдентификатор кодека : V_MPEG4/ISO/AVCПродолжительность : 1 ч. 54 м.Битрейт : 1424 Кбит/секШирина : 1056 пикселейВысота : 440 пикселейСоотношение сторон : 2,40:1Частота кадров : 23,976 кадра/секЦветовое пространство : YUVСубдискретизация насыщенности : 4:2:0Битовая глубина : 8 битТип развёртки : ПрогрессивнаяБит/(Пиксели*Кадры) : 0.128Размер потока : 1,11 Гбайт (77%)Библиотека кодирования : x264 core 120 r2164 da19765Настройки программы : cabac=1 / ref=11 / deblock=1:-2:-1 / analyse=0x3:0x113 / me=umh / subme=11 / psy=1 / psy_rd=0.95:0.05 / mixed_ref=1 / me_range=32 / chroma_me=1 / trellis=2 / 8x8dct=1 / cqm=0 / deadzone=21,11 / fast_pskip=0 / chroma_qp_offset=-3 / threads=6 / sliced_threads=0 / nr=0 / decimate=1 / interlaced=0 / bluray_compat=0 / constrained_intra=0 / bframes=8 / b_pyramid=2 / b_adapt=1 / b_bias=0 / direct=1 / weightb=1 / open_gop=0 / weightp=2 / keyint=240 / keyint_min=22 / scenecut=40 / intra_refresh=0 / rc=2pass / mbtree=0 / bitrate=1424 / ratetol=1.0 / qcomp=0.70 / qpmin=10 / qpmax=61 / qpstep=4 / cplxblur=20.0 / qblur=0.5 / ip_ratio=1.40 / pb_ratio=1.30 / aq=2:0.70Язык : EnglishDefault : НетForced : НетАудиоИдентификатор : 2Формат : AC-3Формат/Информация : Audio Coding 3Расширение режима : CM (complete main)Идентификатор кодека : A_AC3Продолжительность : 1 ч. 54 м.Вид битрейта : ПостоянныйБитрейт : 384 Кбит/секКаналы : 6 каналовРасположение каналов : Front: L C R, Side: L R, LFEЧастота : 48,0 КГцБитовая глубина : 16 битМетод сжатия : С потерямиЗадержка видео : 20 мс.Размер потока : 316 Мбайт (21%)Заголовок : ДубляжЯзык : RussianDefault : ДаForced : Нет

Скачать Код доступа «Кейптаун» через торрент http://s002.youpic.su/pictures/1337976000/8145eb5fa20bf2fcccab1e3e030fb0b6.png Скачать фильм Код доступа «Кейптаун» через торрент бесплантно в хорошем качестве Описание: Выпускник Гарварда Мэтт мечтает со своей невестой переехать в Париж. Но она не знает, что уже год он работает на ЦРУ. Легендарный ... 2012-06-06 17:59 9.5 10 13

Loading...

Loading...

Рекламный пират

07-06-2012 09:38 Код доступа «Кейптаун» Скачать торрент  

Охренеть ! Скачали 223 человека и ни одного комментария ! Отпишитесь чтоль , кто-нибудь ! Как фильм ? Смотреть можно , или нет ?

22-10-2012 16:33 Код доступа «Кейптаун» Скачать торрент  

Спасибо!! Фильм бомба!

25-01-2013 14:55 Код доступа «Кейптаун» Скачать торрент  

фильм супер

Дорогой пользователь! Огромная просьба, поблагодарите релизера, оцените раздачу и оставьте свои комментарий, если Вы скачали Код доступа «Кейптаун» через торрент бесплатно! Внесите свою лепту в развитие PiratBit!

Комментировать посты могут только пользователи прошедшие не сложную регистрацию

Код доступа «Кейптаун» через торрент Скачать бесплатно Код доступа «Кейптаун» Код доступа «Кейптаун» скачать торрент Код доступа «Кейптаун» смотреть онлайн Cкачать фильм Код доступа «Кейптаун» бесплатно Код доступа «Кейптаун» скачать торрент в хорошем качестве Код доступа «Кейптаун» смотреть онлайн бесплатно в хорошем качестве

Вы не можете начинать темыВы не можете отвечать на сообщенияВы не можете редактировать свои сообщенияВы не можете удалять свои сообщенияВы не можете голосовать в опросахВы не можете прикреплять файлы к сообщениямВы можете скачивать файлы

piratbit.ru

, HELLYWOOD

(Full Blu-Ray, Voronine, Fored Blu-Ray), (Full R5, Fored), (Full, SDH, SDH color)

x264 [info]: frame I:1073 Avg QP:15.83 size:148428x264 [info]: frame P:36654 Avg QP:19.93 size: 68093x264 [info]: frame B:127576 Avg QP:21.29 size: 54296x264 [info]: consecutive B-frames: 2.5% 4.1% 10.7% 15.1% 16.3% 35.1% 4.9% 1.3% 1.9% 2.3% 2.4% 1.7% 1.6%x264 [info]: mb I I16..4: 8.6% 69.8% 21.6%x264 [info]: mb P I16..4: 1.0% 32.6% 1.9% P16..4: 20.9% 24.8% 9.1% 1.3% 0.1% skip: 8.4%x264 [info]: mb B I16..4: 0.1% 17.8% 0.4% B16..8: 30.0% 17.9% 4.8% direct: 8.1% skip:20.9% L0:43.7% L1:42.3% BI:14.1%x264 [info]: 8x8 transform intra:94.8% inter:63.5%x264 [info]: coded y,uvDC,uvAC intra: 95.9% 94.6% 86.5% inter: 46.5% 39.6% 16.9%x264 [info]: i16 v,h,dc,p: 46% 17% 8% 28%x264 [info]: i8 v,h,dc,ddl,ddr,vr,hd,vl,hu: 9% 7% 17% 10% 12% 11% 12% 10% 12%x264 [info]: i4 v,h,dc,ddl,ddr,vr,hd,vl,hu: 19% 8% 8% 9% 13% 12% 12% 10% 11%x264 [info]: i8c dc,h,v,p: 55% 12% 11% 22%x264 [info]: Weighted P-Frames: Y:4.3% UV:2.9%x264 [info]: ref P L0: 43.7% 8.0% 17.7% 8.0% 5.8% 4.5% 3.6% 2.2% 1.8% 1.6% 1.4% 1.3% 0.3% 0.0%x264 [info]: ref B L0: 70.3% 12.4% 6.2% 3.2% 2.3% 1.8% 1.4% 0.9% 0.8% 0.4% 0.2%x264 [info]: ref B L1: 90.8% 9.2%

GeneralUnique ID : 232436389214455513603159443248017822932 (0xAEDD9EC66EAB4451B6082D36CE1BD4D4)Complete name : D:\Kod.Dostupa.Keiptaun.2012.BDRip.720p.DUAL.-HELLYWOOD.mkvFormat : MatroskaFormat version : Version 2File size : 9.95 GiBDuration : 1h 54mnOverall bit rate : 12.4 MbpsMovie name : Safe House (2012) - https://hellywood.ru/Encoded date : UTC 2014-05-13 18:11:16Writing application : mkvmerge v6.9.1 ('Blue Panther') 32bit built on Apr 18 2014 18:15:44Writing library : libebml v1.3.0 + libmatroska v1.4.1

VideoID : 1Format : AVCFormat/Info : Advanced Video CodecFormat profile : [email protected] settings, CABAC : YesFormat settings, ReFrames : 12 framesCodec ID : V_MPEG4/ISO/AVCDuration : 1h 54mnBit rate : 10.9 MbpsWidth : 1 280 pixelsHeight : 534 pixelsDisplay aspect ratio : 2.40:1Frame rate : 23.976 fpsColor space : YUVChroma subsampling : 4:2:0Bit depth : 8 bitsScan type : ProgressiveBits/(Pixel*Frame) : 0.664Stream size : 8.73 GiB (88%)Title : serokuz74Writing library : x264 core 142 r2409kMod d6b4e63Encoding settings : cabac=1 / ref=12 / deblock=1:-3:-3 / analyse=0x3:0x133 / me=umh / subme=11 / psy=1 / fade_compensate=0.00 / psy_rd=1.00:0.00 / mixed_ref=1 / me_range=64 / chroma_me=1 / trellis=2 / 8x8dct=1 / cqm=0 / deadzone=21,11 / fast_pskip=0 / chroma_qp_offset=-2 / threads=12 / lookahead_threads=2 / sliced_threads=0 / nr=0 / decimate=1 / interlaced=0 / bluray_compat=0 / constrained_intra=0 / fgo=0 / bframes=12 / b_pyramid=2 / b_adapt=2 / b_bias=0 / direct=1 / weightb=1 / open_gop=0 / weightp=2 / keyint=250 / keyint_min=23 / scenecut=40 / intra_refresh=0 / rc_lookahead=60 / rc=crf / mbtree=1 / crf=18.5000 / qcomp=0.75 / qpmin=0 / qpmax=69 / qpstep=4 / vbv_maxrate=50000 / vbv_bufsize=62500 / crf_max=0.0 / nal_hrd=none / filler=0 / ip_ratio=1.40 / aq=1:0.80Language : EnglishDefault : YesForced : NoMatrix coefficients : BT.709-5, BT.1361, IEC 61966-2-4 709, SMPTE RP177

Audio #1ID : 2Format : AC-3Format/Info : Audio Coding 3Mode extension : CM (complete main)Format settings, Endianness : BigCodec ID : A_AC3Duration : 1h 54mnBit rate mode : ConstantBit rate : 640 KbpsChannel(s) : 6 channelsChannel positions : Front: L C R, Side: L R, LFESampling rate : 48.0 KHzBit depth : 16 bitsCompression mode : LossyStream size : 526 MiB (5%)Title : AC3 5.1 @ 640 kbps - DUBLanguage : RussianDefault : YesForced : Yes

Audio #2ID : 3Format : AC-3Format/Info : Audio Coding 3Mode extension : CM (complete main)Format settings, Endianness : BigCodec ID : A_AC3Duration : 1h 54mnBit rate mode : ConstantBit rate : 640 KbpsChannel(s) : 6 channelsChannel positions : Front: L C R, Side: L R, LFESampling rate : 48.0 KHzBit depth : 16 bitsCompression mode : LossyStream size : 526 MiB (5%)Title : AC3 5.1 @ 640 kbps - OriginalLanguage : EnglishDefault : NoForced : No

Text #1ID : 4Format : UTF-8Codec ID : S_TEXT/UTF8Codec ID/Info : UTF-8 Plain TextTitle : Forced - Blu-RayLanguage : RussianDefault : YesForced : Yes

Text #2ID : 5Format : UTF-8Codec ID : S_TEXT/UTF8Codec ID/Info : UTF-8 Plain TextTitle : Full - Blu-RayLanguage : RussianDefault : NoForced : No

Text #3ID : 6Format : UTF-8Codec ID : S_TEXT/UTF8Codec ID/Info : UTF-8 Plain TextTitle : Full - VoronineLanguage : RussianDefault : NoForced : No

Text #4ID : 7Format : UTF-8Codec ID : S_TEXT/UTF8Codec ID/Info : UTF-8 Plain TextTitle : ForcedLanguage : UkrainianDefault : NoForced : No

Text #5ID : 8Format : UTF-8Codec ID : S_TEXT/UTF8Codec ID/Info : UTF-8 Plain TextTitle : Full - R5Language : UkrainianDefault : NoForced : No

Text #6ID : 9Format : UTF-8Codec ID : S_TEXT/UTF8Codec ID/Info : UTF-8 Plain TextTitle : FullLanguage : EnglishDefault : NoForced : No

Text #7ID : 10Format : UTF-8Codec ID : S_TEXT/UTF8Codec ID/Info : UTF-8 Plain TextTitle : Full - SDHLanguage : EnglishDefault : NoForced : No

Text #8ID : 11Format : UTF-8Codec ID : S_TEXT/UTF8Codec ID/Info : UTF-8 Plain TextTitle : Full - SDH, ColorLanguage : EnglishDefault : NoForced : No

Menu00:00:00.000 : en:Chapter 0100:04:52.000 : en:Chapter 0200:13:44.615 : en:Chapter 0300:18:44.457 : en:Chapter 0400:23:58.228 : en:Chapter 0500:29:26.932 : en:Chapter 0600:37:19.988 : en:Chapter 0700:41:23.981 : en:Chapter 0800:48:29.031 : en:Chapter 0900:56:48.780 : en:Chapter 1001:00:53.984 : en:Chapter 1101:07:02.310 : en:Chapter 1201:11:17.982 : en:Chapter 1301:16:25.581 : en:Chapter 1401:21:23.128 : en:Chapter 1501:26:14.002 : en:Chapter 1601:29:25.110 : en:Chapter 1701:35:34.479 : en:Chapter 1801:44:25.217 : en:Chapter 1901:49:44.203 : en:Chapter 20

hellywood.ru

/ Safe House ( / Daniel Espinosa) [2012, , , , , , BDRip 720p] Dub + Original eng + Sub rus, eng

General Complete name : E:\...\Safe.House.2012.720p.BluRay.x264.DD5.1.Rus.Eng-HDChina.mkv Format : Matroska Format version : Version 2 File size : 8.75 GiB Duration : 1h 54mn Overall bit rate : 10.9 Mbps Movie name : Safe.House.2012.720p.BluRay.x264.DD5.1.Eng-HDC Encoded date : UTC 2012-06-08 23:50:57 Writing application : mkvmerge v5.2.1 ('A Far Off Place') built on Jan 2 2012 23:21:10 Writing library : libebml v1.2.3 + libmatroska v1.3.0

Video

ID : 1 Format : AVC Format/Info : Advanced Video Codec Format profile : [email protected] Format settings, CABAC : Yes Format settings, ReFrames : 12 frames Codec ID : V_MPEG4/ISO/AVC Duration : 1h 54mn Bit rate : 9 500 Kbps Width : 1 280 pixels Height : 534 pixels Display aspect ratio : 2.40:1 Frame rate : 23.976 fps Color space : YUV Chroma subsampling : 4:2:0 Bit depth : 8 bits Scan type : Progressive Bits/(Pixel*Frame) : 0.580 Stream size : 7.46 GiB (85%) Title : HDChina Writing library : x264 core 125 r2200 999b753 Encoding settings : cabac=1 / ref=12 / deblock=1:-3:-3 / analyse=0x3:0x113 / me=umh / subme=10 / psy=1 / psy_rd=1.10:0.00 / mixed_ref=1 / me_range=32 / chroma_me=1 / trellis=2 / 8x8dct=1 / cqm=0 / deadzone=21,11 / fast_pskip=0 / chroma_qp_offset=-2 / threads=18 / lookahead_threads=3 / sliced_threads=0 / nr=0 / decimate=0 / interlaced=0 / bluray_compat=0 / constrained_intra=0 / bframes=8 / b_pyramid=2 / b_adapt=2 / b_bias=0 / direct=3 / weightb=1 / open_gop=0 / weightp=2 / keyint=240 / keyint_min=24 / scenecut=40 / intra_refresh=0 / rc_lookahead=240 / rc=2pass / mbtree=1 / bitrate=9500 / ratetol=1.0 / qcomp=0.70 / qpmin=0 / qpmax=69 / qpstep=4 / cplxblur=20.0 / qblur=0.5 / ip_ratio=1.40 / aq=1:0.65 Language : English

Audio #1

ID : 2 Format : DTS Format/Info : Digital Theater Systems Codec ID : A_DTS Duration : 1h 54mn Bit rate mode : Constant Bit rate : 755 Kbps Channel(s) : 6 channels Channel positions : Front: L C R, Side: L R, LFE Sampling rate : 48.0 KHz Bit depth : 24 bits Compression mode : Lossy Stream size : 620 MiB (7%) Title : Dub Language : Russian

Audio #2

ID : 3 Format : AC-3 Format/Info : Audio Coding 3 Mode extension : CM (complete main) Codec ID : A_AC3 Duration : 1h 54mn Bit rate mode : Constant Bit rate : 640 Kbps Channel(s) : 6 channels Channel positions : Front: L C R, Side: L R, LFE Sampling rate : 48.0 KHz Bit depth : 16 bits Compression mode : Lossy Stream size : 526 MiB (6%) Title : Original Language : English

Text #1

ID : 4 Format : UTF-8 Codec ID : S_TEXT/UTF8 Codec ID/Info : UTF-8 Plain Text Title : voronine forced Language : Russian

Text #2

ID : 5 Format : UTF-8 Codec ID : S_TEXT/UTF8 Codec ID/Info : UTF-8 Plain Text Title : voronine full Language : Russian

Text #3

ID : 6 Format : UTF-8 Codec ID : S_TEXT/UTF8 Codec ID/Info : UTF-8 Plain Text Title : BD CEE Language : Russian

Text #4

ID : 7 Format : UTF-8 Codec ID : S_TEXT/UTF8 Codec ID/Info : UTF-8 Plain Text Language : English

Menu

00:00:00.000 : en:00:00:00.000 00:04:52.000 : en:00:04:52.000 00:13:44.615 : en:00:13:44.615 00:18:44.457 : en:00:18:44.457 00:23:58.228 : en:00:23:58.228 00:29:26.932 : en:00:29:26.932 00:37:19.988 : en:00:37:19.988 00:41:23.981 : en:00:41:23.981 00:48:29.031 : en:00:48:29.031 00:56:48.780 : en:00:56:48.780 01:00:53.984 : en:01:00:53.984 01:07:02.310 : en:01:07:02.310 01:11:17.982 : en:01:11:17.982 01:16:25.581 : en:01:16:25.581 01:21:23.128 : en:01:21:23.128 01:26:14.002 : en:01:26:14.002 01:29:25.110 : en:01:29:25.110 01:35:34.479 : en:01:35:34.479 01:44:25.217 : en:01:44:25.217 01:49:44.203 : en:01:49:44.203

unionpeer.com


Смотрите также