Киборг скачать торрент 1989 скачать торрент в хорошем качестве


Скачать фильм Киборг (1989) через торрент

gig-torrent.net

15 июля 2016 10:50 Киборг / Cyborg (1989) BDRip 1080p от Переулка Переводмана | Directors Cut | Kyberpunk .torrent   [Информация о файле (нажмите для просмотра)] Перевод: Авторский (одноголосый, закадровый) Яроцкий Михаил (kyberpunk)Кодек: x264Качество: BDRip 1080pВидео: 1920x912 , 12000 kbps, 23,976 fpsАудио #1: AC-3, 2 ch, 224 kbps (Rus) - AVO Яроцкий Михаил (kyberpunk)Аудио #2: AC-3, 2 ch, 224 kbps (Eng)Видео: Идентификатор : 1 Формат : AVC Формат/Информация : Advanced Video Codec Профиль формата : [email protected] Параметр CABAC формата : Да Параметр ReFrames формата : 4 кадра Идентификатор кодека : V_MPEG4/ISO/AVC Продолжительность : 1 ч. 22 м. Битрейт : 12,0 Мбит/сек Ширина : 1920 пикселей Высота : 912 пикселей Соотношение сторон : 2,105 Режим частоты кадров : Постоянный Частота кадров : 23,976 кадра/сек Цветовое пространство : YUV Субдискретизация насыщенности : 4:2:0 Битовая глубина : 8 бит Тип развёртки : Прогрессивная Бит/(Пиксели*Кадры) : 0.286 Размер потока : 6,78 Гбайт (94%) Библиотека кодирования : x264 core 146 r2538 121396c Настройки программы : cabac=1 / ref=4 / deblock=1:-3:-3 / analyse=0x3:0x133 / me=umh / subme=11 / psy=1 / psy_rd=1.00:0.00 / mixed_ref=1 / me_range=32 / chroma_me=1 / trellis=2 / 8x8dct=1 / cqm=0 / deadzone=21,11 / fast_pskip=0 / chroma_qp_offset=-2 / threads=12 / lookahead_threads=2 / sliced_threads=0 / nr=0 / decimate=0 / interlaced=0 / bluray_compat=0 / constrained_intra=0 / bframes=12 / b_pyramid=2 / b_adapt=2 / b_bias=0 / direct=3 / weightb=1 / open_gop=0 / weightp=2 / keyint=240 / keyint_min=23 / scenecut=40 / intra_refresh=0 / rc=2pass / mbtree=0 / bitrate=12000 / ratetol=1.0 / qcomp=0.60 / qpmin=0 / qpmax=69 / qpstep=4 / cplxblur=20.0 / qblur=0.5 / ip_ratio=1.40 / pb_ratio=1.30 / aq=1:0.80 Язык : English Default : Нет Forced : Нет Аудио #1: Идентификатор : 2 Формат : AC-3 Формат/Информация : Audio Coding 3 Расширение режима : CM (complete main) Параметр Endianness формата : Big Идентификатор кодека : A_AC3 Продолжительность : 1 ч. 22 м. Вид битрейта : Постоянный Битрейт : 224 Кбит/сек Каналы : 2 канала Расположение каналов : Front: L R Частота : 48,0 КГц Метод сжатия : С потерями Размер потока : 132 Мбайт (2%) Заголовок : AVO Яроцкий Михаил (kyberpunk) Язык : Russian Default : Нет Forced : Нет Аудио #2: Идентификатор : 3 Формат : AC-3 Формат/Информация : Audio Coding 3 Расширение режима : CM (complete main) Параметр Endianness формата : Big Идентификатор кодека : A_AC3 Продолжительность : 1 ч. 22 м. Вид битрейта : Постоянный Битрейт : 224 Кбит/сек Каналы : 2 канала Расположение каналов : Front: L R Частота : 48,0 КГц Метод сжатия : С потерями Размер потока : 132 Мбайт (2%) Язык : English Default : Нет Forced : Нет 7,18 Gb 3 4
15 июля 2016 10:50 Киборг / Cyborg (1989) BDRip 720p .torrent   [Информация о файле (нажмите для просмотра)] Перевод 1: Профессиональный (двухголосый закадровый) R5Перевод 2: Авторский (одноголосый закадровый) Андрей ГавриловПеревод 3: Авторский (одноголосый закадровый) Вартан ДохаловПеревод 4: Авторский (одноголосый закадровый) Леонид ВолодарскийПеревод 5: Профессиональный (многоголосый, закадровый) {1+1}Кодек: x264Качество: BDRip 720pВидео: 1280x692, AVC, 23,976 fps, 13111 kbpsАудио 1: Русский / DTS / 2.0 / 48 kHz / 755 kbps / 24 bit ||MVO - R5Аудио 2: Русский / DTS / 2.0 / 48 kHz / 755 kbps / 16 bit || AVO - А.ГавриловАудио 3: Русский / DTS / 2.0 / 48 kHz / 755 kbps / 16 bit || AVO - В.ДохаловАудио 4: Русский / AC3 / 2.0 / 48 kHz / 192 kbps / 16 bit || AVO - Л.ВолодарскийАудио 5: Украинский / AC3 / 2.0 / 48 kHz / 192 kbps / 16 bit || MVO - 1+1Аудио 6: Английский / DTS / 2.0 / 48 kHz / 755 kbps / 24 bitСубтитры: русские (Forced), русские (Full), английские (Full) 10 Gb 3 1
15 июля 2016 10:50 Киборг / Cyborg (1989) BDRip от 0ptimus | P, P2, A .torrent   [Информация о файле (нажмите для просмотра)] Перевод: Профессиональный многоголосый, авторский одноголосыйКодек: XviDКачество: BDRipВидео: XviD, 2014 Кбит/с, 720x384, 23.976 кадр/сЗвук: • №1: Русский (AC3, 2 ch, 192 Кбит/с) Профессиональный многоголосый [R5] • №2: Английский (AC3, 2 ch, 192 Кбит/с) Отдельно: • №3: Русский (AC3, 2 ch, 192 Кбит/с) Профессиональный многоголосый [РТР] • №4: Русский (AC3, 2 ch, 192 Кбит/с) Профессиональный двухголосый [ТВ-6] • №5: Русский (AC3, 2 ch, 192 Кбит/с) Авторский одноголосый [Андрей Гаврилов] • №6: Русский (AC3, 2 ch, 192 Кбит/с) Авторский одноголосый [Вартан Дохалов] • №7: Русский (AC3, 2 ch, 192 Кбит/с) Авторский одноголосый [Леонид Володарский] • №8: Украинский (AC3, 2 ch, 192 Кбит/с) Профессиональный многоголосый [1+1]Субтитры: Русские (форсированные), русские (полные), английскиеВидео: Идентификатор : 0 Формат : MPEG-4 Visual Профиль формата : Advanced [email protected] Параметр BVOP формата : 2 Параметр QPel формата : Нет Параметр GMC формата : Без точки перехода Параметр матрицы формата : Выборочная Идентификатор кодека : XVID Идентификатор кодека/Подсказка : XviD Продолжительность : 1 ч. 26 м. Битрейт : 2014 Кбит/сек Ширина : 720 пикселей Высота : 384 пикселя Соотношение сторон : 1,85:1 Частота кадров : 23,976 кадра/сек Цветовое пространство : YUV Субдискретизация насыщенности : 4:2:0 Битовая глубина : 8 бит Тип развёртки : Прогрессивная Метод сжатия : С потерями Бит/(Пиксели*Кадры) : 0.304 Размер потока : 1,22 Гбайт (83%) Библиотека кодирования : XviD 64Аудио #1: Идентификатор : 1 Формат : AC-3 Формат/Информация : Audio Coding 3 Расширение режима : CM (complete main) Параметр Endianness формата : Big Идентификатор кодека : 2000 Продолжительность : 1 ч. 26 м. Вид битрейта : Постоянный Битрейт : 192 Кбит/сек Каналы : 2 канала Расположение каналов : Front: L R Частота : 48,0 КГц Битовая глубина : 16 бит Метод сжатия : С потерями Размер потока : 119 Мбайт (8%) Выравнивание : Разделение по промежуткам Продолжительность промежутка : 42 мс. (1,00 видеокадр) Время предзагрузки промежутка : 500 мс.Аудио #2: Идентификатор : 2 Формат : AC-3 Формат/Информация : Audio Coding 3 Расширение режима : CM (complete main) Параметр Endianness формата : Big Идентификатор кодека : 2000 Продолжительность : 1 ч. 26 м. Вид битрейта : Постоянный Битрейт : 192 Кбит/сек Каналы : 2 канала Расположение каналов : Front: L R Частота : 48,0 КГц Битовая глубина : 16 бит Метод сжатия : С потерями Размер потока : 119 Мбайт (8%) Выравнивание : Разделение по промежуткам Продолжительность промежутка : 42 мс. (1,00 видеокадр) Время предзагрузки промежутка : 500 мс. 2,15 Gb 3 1
15 июля 2016 10:50 Киборг / Cyborg (1989) BDRip-AVC от 0ptimus | P, P2, A .torrent   [Информация о файле (нажмите для просмотра)] Перевод: Профессиональный многоголосый, авторский одноголосыйКодек: h364Качество: BDRip-AVCВидео: MPEG-4 AVC, 3100 Кбит/с, 1024x552, 23.976 кадр/сЗвук: • №1: Русский (AC3, 2 ch, 192 Кбит/с) Профессиональный многоголосый [R5] • №2: Русский (AC3, 2 ch, 192 Кбит/с) Профессиональный двухголосый [ТВ-6] • №3: Русский (AC3, 2 ch, 192 Кбит/с) Авторский одноголосый [Андрей Гаврилов] • №4: Английский (AC3, 2 ch, 192 Кбит/с) Отдельно: • №5: Русский (AC3, 2 ch, 192 Кбит/с) Профессиональный многоголосый [РТР] • №6: Русский (AC3, 2 ch, 192 Кбит/с) Авторский одноголосый [Вартан Дохалов] • №7: Русский (AC3, 2 ch, 192 Кбит/с) Авторский одноголосый [Леонид Володарский] • №8: Украинский (AC3, 2 ch, 192 Кбит/с) Профессиональный многоголосый [1+1]Субтитры: Русские (форсированные), русские (полные), английскиеВидео: Идентификатор : 1 Формат : AVC Формат/Информация : Advanced Video Codec Профиль формата : [email protected] Параметр CABAC формата : Да Параметр ReFrames формата : 10 кадров Идентификатор кодека : V_MPEG4/ISO/AVC Продолжительность : 1 ч. 26 м. Битрейт : 3100 Кбит/сек Ширина : 1024 пикселя Высота : 552 пикселя Соотношение сторон : 1,855 Частота кадров : 23,976 кадра/сек Цветовое пространство : YUV Субдискретизация насыщенности : 4:2:0 Битовая глубина : 8 бит Тип развёртки : Прогрессивная Бит/(Пиксели*Кадры) : 0.229 Размер потока : 1,82 Гбайт (78%) Заголовок : Rip by 0ptimus Библиотека кодирования : x264 core 125 r2208 d9d2288 Настройки программы : cabac=1 / ref=10 / deblock=1:-3:-3 / analyse=0x3:0x113 / me=umh / subme=11 / psy=1 / psy_rd=1.00:0.20 / mixed_ref=1 / me_range=32 / chroma_me=1 / trellis=2 / 8x8dct=1 / cqm=0 / deadzone=21,11 / fast_pskip=0 / chroma_qp_offset=-3 / threads=4 / lookahead_threads=1 / sliced_threads=0 / nr=0 / decimate=0 / interlaced=0 / bluray_compat=0 / constrained_intra=0 / bframes=12 / b_pyramid=2 / b_adapt=2 / b_bias=0 / direct=3 / weightb=1 / open_gop=0 / weightp=2 / keyint=240 / keyint_min=23 / scenecut=40 / intra_refresh=0 / rc_lookahead=40 / rc=2pass / mbtree=0 / bitrate=3100 / ratetol=1.0 / qcomp=0.60 / qpmin=0 / qpmax=69 / qpstep=4 / cplxblur=20.0 / qblur=0.5 / vbv_maxrate=50000 / vbv_bufsize=50000 / nal_hrd=none / ip_ratio=1.40 / pb_ratio=1.30 / aq=1:1.00 Язык : EnglishАудио #1: Идентификатор : 2 Формат : AC-3 Формат/Информация : Audio Coding 3 Расширение режима : CM (complete main) Идентификатор кодека : A_AC3 Продолжительность : 1 ч. 26 м. Вид битрейта : Постоянный Битрейт : 192 Кбит/сек Каналы : 2 канала Расположение каналов : Front: L R Частота : 48,0 КГц Битовая глубина : 16 бит Метод сжатия : С потерями Размер потока : 119 Мбайт (5%) Заголовок : Многоголосый закадровый [R5] AC3 2.0 @ 192 kbps Язык : RussianАудио #2: Идентификатор : 3 Формат : AC-3 Формат/Информация : Audio Coding 3 Расширение режима : CM (complete main) Идентификатор кодека : A_AC3 Продолжительность : 1 ч. 26 м. Вид битрейта : Постоянный Битрейт : 192 Кбит/сек Каналы : 2 канала Расположение каналов : Front: L R Частота : 48,0 КГц Битовая глубина : 16 бит Метод сжатия : С потерями Размер потока : 119 Мбайт (5%) Заголовок : Двухголосый закадровый [ТВ-6] AC3 2.0 @ 192 kbps Язык : RussianАудио #3: Идентификатор : 4 Формат : AC-3 Формат/Информация : Audio Coding 3 Расширение режима : CM (complete main) Идентификатор кодека : A_AC3 Продолжительность : 1 ч. 26 м. Вид битрейта : Постоянный Битрейт : 192 Кбит/сек Каналы : 2 канала Расположение каналов : Front: L R Частота : 48,0 КГц Битовая глубина : 16 бит Метод сжатия : С потерями Размер потока : 119 Мбайт (5%) Заголовок : Авторский [Андрей Гаврилов] AC3 2.0 @ 192 kbpsАудио #4: Идентификатор : 5 Формат : AC-3 Формат/Информация : Audio Coding 3 Расширение режима : CM (complete main) Идентификатор кодека : A_AC3 Продолжительность : 1 ч. 26 м. Вид битрейта : Постоянный Битрейт : 192 Кбит/сек Каналы : 2 канала Расположение каналов : Front: L R Частота : 48,0 КГц Битовая глубина : 16 бит Метод сжатия : С потерями Размер потока : 119 Мбайт (5%) Заголовок : AC3 2.0 @ 192 kbps Язык : English 2,8 Gb 4 3
15 июля 2016 10:50 Киборг / Cyborg (1989) Blu-ray 1080p .torrent   [Информация о файле (нажмите для просмотра)] Перевод: Профессиональный(Многоголосый)x2 Авторский(одноголосый) x3Кодек: H.264Качество: Blu-ray 1080pВидео: 1920x1080 / 23,976 fps / 16:9 / High Profile 4.1, H.264, ~ 30998 kbpsАудио 1: DTS-HD Master Audio English 939 kbps 2.0 / 48 kHz / 939 kbps / 24-bit (DTS Core: 2.0 / 48 kHz / 768 kbps / 24-bit)Аудио 2: DTS-HD Master Audio Russian 1613 kbps 2.0 / 48 kHz / 1613 kbps / 24-bit (DTS Core: 2.0 / 48 kHz / 768 kbps / 24-bit)[MVO - R5] CP-DigitalАудио 3: Dolby Digital Audio Ukrainian 192 kbps 2.0 / 48 kHz / 192 kbps / DN -4dB[1+1]Аудио 4: DTS-HD Master Audio Russian 992 kbps 2.0 / 48 kHz / 992 kbps / 16-bit (DTS Core: 2.0 / 48 kHz / 768 kbps / 16-bit)[Андрей Гаврилов]Аудио 5: DTS-HD Master Audio Russian 969 kbps 2.0 / 48 kHz / 969 kbps / 16-bit (DTS Core: 2.0 / 48 kHz / 768 kbps / 16-bit)[Вартан Дохалов]Аудио 6: Dolby Digital Audio Russian 192 kbps 2.0 / 48 kHz / 192 kbps / DN -4dB / Dolby Surround[Леонид Володарский] 23,19 Gb 1 3
15 июля 2016 10:50 Киборг / Cyborg (1989) BDRip от HQCLUB .torrent   [Информация о файле (нажмите для просмотра)] Перевод: Профессиональный (двухголосый, закадровый) R5 + Оригинальная звуковая дорожка +Профессиональный (многоголосый, закадровый) РТРСубтитры: Русские, Английские (внешние .srt)Формат: AVIКачество: BDRip (источник / Blu-ray / 1080p)Видео: 704x384 (1.83:1), 23.976 fps, XviD build 65 ~2009 kbps avg, 0.31 bit/pixelАудио #1: 48 kHz, AC3 Dolby Digital, 2/0 (L,R), ~192.00 kbps avgАудио #2: 48 kHz, AC3 Dolby Digital, 2/0 (L,R), ~192.00 kbps avgАудио #3: 48 kHz, AC3 Dolby Digital, 2/0 (L,R), ~192.00 kbps avg(отдельно, http)Аудио #4: 48 kHz, AC3 Dolby Digital, 2/0 (L,R), ~192.00 kbps avg(отдельно, http)Аудио #5: 48 kHz, AC3 Dolby Digital, 2/0 (L,R), ~192.00 kbps avg(отдельно, http)Аудио #6: 48 kHz, AC3 Dolby Digital, 2/0 (L,R), ~192.00 kbps avg(отдельно Narod.Ru)Аудио #7: 48 kHz, AC3 Dolby Digital, 2/0 (L,R), ~192.00 kbps avg(отдельно Narod.Ru) 1,45 Gb 6 1
15 июля 2016 10:50 Киборг / Cyborg (1989) HDRip от Scarabey | Р .torrent   [Информация о файле (нажмите для просмотра)] Перевод: Профессиональный (многоголосый, закадровый)Качество: HDRipФормат: AVIВидео: 688x368 (1.87:1), 23.976 fps, XviD build 73 ~2195 kbps avg, 0.36 bit/pixelАудио: 48 kHz, AC3 Dolby Digital, 2/0 (L,R) ch, ~192 kbps 1,45 Gb 7 3
15 июля 2016 10:50 Киборг / Cyborg (1989) HDRip от Scarabey | Р .torrent   [Информация о файле (нажмите для просмотра)] Перевод: Профессиональный (многоголосый, закадровый)Качество: HDRipФормат: AVIВидео: 624x336 (1.86:1), 23.976 fps, XviD build 73 ~1065 kbps avg, 0.21 bit/pixelАудио: 48 kHz, MPEG Layer 3, 2 ch, ~128.00 kbps avg 743,54 Mb 5 3
15 июля 2016 10:50 Киборг / Cyborg (1989) BDRip 1080p от Hatfield.. .torrent   [Информация о файле (нажмите для просмотра)] Перевод: Профессиональный (многоголосый, закадровый)(R5)Кодек: x264Качество: BDRip (Оригинал: Blu-ray Disc)Видео: 1904x1024 (1,86:1), 23.976 fps, 12.3 MbpsЗвук: AC-3, 2 ch, 640 KbpsСубтитры: Русские (форсированные) 7,77 Gb 3 5
15 июля 2016 10:50 Киборг / Cyborg (1989) HDTVRip 720p .torrent   [Информация о файле (нажмите для просмотра)] Перевод: Профессиональный (многоголосый закадровый) студия "ИНИС"Кодек: x264Качество: HDTVRip 720pВидео: [email protected] L4.1 / 1280x720 / 16:9 / 23.976fps / 6 347 KbpsЗвук: Аудио 1: Русский многоголосый, AC3, 6ch, 48 kHz, 448 Kbps Аудио 2: Английский, AC3, 6ch, 48 kHz, 448 Kbps 4,37 Gb 4 1
15 июля 2016 10:50 Киборг / Cyborg (1989) DVDRip-AVC .torrent   [Информация о файле (нажмите для просмотра)] Перевод: Профессиональный (многоголосый, закадровый) + Авторский (одноголосый, Дохалов) + ОригиналКодек: x264Качество: DVDRip-AVCВидео: 720х[email protected] (1,883:1), 25 fps, x264 core 79 ~1560 kbps, 0,2 b/pЗвук: Аудио 1:(RUS) 48 kHz, AАC 6 ch, Front: L C R, Rear: L R, LFE, ~320.00 kbps avg Профессиональный (многоголосый, закадровый) Аудио 2:(RUS) 48 kHz, AAC 6 ch, Front: L C R, Rear: L R, LFE, ~320.00 kbps avg Авторский (одноголосый, Дохалов) Аудио 3:(ENG) 48 kHz, AAC 6 ch, Front: L C R, Rear: L R, LFE, ~320.00 kbps avg ОригинальныйСубтитры: РусскиеСубтитры: 1,46 Gb 3 1

/ Cyborg (1989) BDRip 720p

: : Cyborg: 1989: , : : - , , , , , , ̸, , ,

: 21- , , - . , -, . , , , . - , ,

: : 01:26:24 1: ( ) R5 2: ( ) 3: ( ) 4: ( ) 5: (, ) {1+1}

: x264: BDRip 720p: 1280x692, AVC, 23,976 fps, 13111 kbps 1: / DTS / 2.0 / 48 kHz / 755 kbps / 24 bit ||MVO - R5 2: / DTS / 2.0 / 48 kHz / 755 kbps / 16 bit || AVO - . 3: / DTS / 2.0 / 48 kHz / 755 kbps / 16 bit || AVO - . 4: / AC3 / 2.0 / 48 kHz / 192 kbps / 16 bit || AVO - . 5: / AC3 / 2.0 / 48 kHz / 192 kbps / 16 bit || MVO - 1+1 6: / DTS / 2.0 / 48 kHz / 755 kbps / 24 bit: (Forced), (Full), (Full)

GeneralUnique ID : 183450645385532208724607424133561574250 (0x8A034F22EA54CACF91AECA8501BFE36A)Complete name : L: __Cyborg [1989.BDRip.720p.MVO.3AVO.Ukr.Eng.Subs]-HQFans.mkvFormat : MatroskaFormat version : Version 2File size : 10.00 GiBDuration : 1h 26mnOverall bit rate : 16.6 MbpsMovie name : __Cyborg [1989.BDRip.720p.MVO.3AVO.Ukr.Eng.Subs]-HQFansEncoded date : UTC 2012-11-04 07:02:27Writing application : mkvmerge v5.8.0 ('No Sleep / Pillow') built on Sep 2 2012 15:37:04Writing library : libebml v1.2.3 + libmatroska v1.3.0

VideoID : 1Format : AVCFormat/Info : Advanced Video CodecFormat profile : [email protected]Format settings, CABAC : YesFormat settings, ReFrames : 9 framesCodec ID : V_MPEG4/ISO/AVCDuration : 1h 26mnBit rate : 13.1 MbpsWidth : 1 280 pixelsHeight : 692 pixelsDisplay aspect ratio : 1.850Frame rate : 23.976 fpsColor space : YUVChroma subsampling : 4:2:0Bit depth : 8 bitsScan type : ProgressiveBits/(Pixel*Frame) : 0.617Stream size : 7.74 GiB (77%)Title : Rip by IBodyBWriting library : x264 core 128 r2216 198a7eaEncoding settings : cabac=1 / ref=9 / deblock=1:-3:-3 / analyse=0x3:0x113 / me=tesa / subme=11 / psy=1 / psy_rd=1.00:0.10 / mixed_ref=1 / me_range=48 / chroma_me=1 / trellis=2 / 8x8dct=1 / cqm=0 / deadzone=21,11 / fast_pskip=0 / chroma_qp_offset=-3 / threads=18 / lookahead_threads=3 / sliced_threads=0 / nr=0 / decimate=0 / interlaced=0 / bluray_compat=0 / constrained_intra=0 / bframes=9 / b_pyramid=2 / b_adapt=2 / b_bias=0 / direct=3 / weightb=1 / open_gop=0 / weightp=2 / keyint=240 / keyint_min=22 / scenecut=40 / intra_refresh=0 / rc_lookahead=40 / rc=2pass / mbtree=0 / bitrate=13111 / ratetol=1.0 / qcomp=0.60 / qpmin=0 / qpmax=69 / qpstep=4 / cplxblur=20.0 / qblur=0.5 / vbv_maxrate=40000 / vbv_bufsize=30000 / nal_hrd=none / ip_ratio=1.40 / pb_ratio=1.30 / aq=1:1.00Language : EnglishDefault : YesForced : NoColor primaries : BT.709-5, BT.1361, IEC 61966-2-4, SMPTE RP177Transfer characteristics : BT.709-5, BT.1361Matrix coefficients : BT.709-5, BT.1361, IEC 61966-2-4 709, SMPTE RP177

Audio #1ID : 2Format : DTSFormat/Info : Digital Theater SystemsCodec ID : A_DTSDuration : 1h 26mnBit rate mode : ConstantBit rate : 755 KbpsChannel(s) : 2 channelsChannel positions : Front: L RSampling rate : 48.0 KHzBit depth : 24 bitsCompression mode : LossyStream size : 466 MiB (5%)Title : MVO {R5} [DTS [email protected]/24-bit]Language : RussianDefault : YesForced : No

Audio #2ID : 3Format : DTSFormat/Info : Digital Theater SystemsCodec ID : A_DTSDuration : 1h 26mnBit rate mode : ConstantBit rate : 755 KbpsChannel(s) : 2 channelsChannel positions : Front: L RSampling rate : 48.0 KHzBit depth : 16 bitsCompression mode : LossyStream size : 466 MiB (5%)Title : AVO {.} [DTS [email protected]/16-bit]Language : RussianDefault : NoForced : No

Audio #3ID : 4Format : DTSFormat/Info : Digital Theater SystemsCodec ID : A_DTSDuration : 1h 26mnBit rate mode : ConstantBit rate : 755 KbpsChannel(s) : 2 channelsChannel positions : Front: L RSampling rate : 48.0 KHzBit depth : 16 bitsCompression mode : LossyStream size : 466 MiB (5%)Title : AVO {.} [DTS [email protected]/16-bit]Language : RussianDefault : NoForced : No

Audio #4ID : 5Format : AC-3Format/Info : Audio Coding 3Format profile : Dolby DigitalMode extension : CM (complete main)Codec ID : A_AC3Duration : 1h 26mnBit rate mode : ConstantBit rate : 192 KbpsChannel(s) : 2 channelsChannel positions : Front: L RSampling rate : 48.0 KHzBit depth : 16 bitsCompression mode : LossyStream size : 119 MiB (1%)Title : AVO {.} [AC3 [email protected]/16-bit]Language : RussianDefault : NoForced : No

Audio #5ID : 6Format : AC-3Format/Info : Audio Coding 3Mode extension : CM (complete main)Codec ID : A_AC3Duration : 1h 26mnBit rate mode : ConstantBit rate : 192 KbpsChannel(s) : 2 channelsChannel positions : Front: L RSampling rate : 48.0 KHzBit depth : 16 bitsCompression mode : LossyStream size : 119 MiB (1%)Title : MVO {1+1} [AC3 [email protected]/16-bit]Language : UkrainianDefault : NoForced : No

Audio #6ID : 7Format : DTSFormat/Info : Digital Theater SystemsCodec ID : A_DTSDuration : 1h 26mnBit rate mode : ConstantBit rate : 755 KbpsChannel(s) : 2 channelsChannel positions : Front: L RSampling rate : 48.0 KHzBit depth : 24 bitsCompression mode : LossyStream size : 466 MiB (5%)Title : Original [DTS [email protected]/24-bit]Language : EnglishDefault : NoForced : No

Text #1ID : 8Format : UTF-8Codec ID : S_TEXT/UTF8Codec ID/Info : UTF-8 Plain TextTitle : ForcedLanguage : RussianDefault : YesForced : No

Text #2ID : 9Format : UTF-8Codec ID : S_TEXT/UTF8Codec ID/Info : UTF-8 Plain TextTitle : FullLanguage : RussianDefault : NoForced : No

Text #3ID : 10Format : UTF-8Codec ID : S_TEXT/UTF8Codec ID/Info : UTF-8 Plain TextTitle : FullLanguage : EnglishDefault : NoForced : No

Menu00:00:00.000 : :Chapter 0100:00:25.191 : :Chapter 0200:04:14.087 : :Chapter 0300:05:24.699 : :Chapter 0400:10:31.881 : :Chapter 0500:16:20.479 : :Chapter 0600:23:38.166 : :Chapter 0700:28:52.814 : :Chapter 0800:32:34.077 : :Chapter 0900:36:01.075 : :Chapter 1000:40:01.482 : :Chapter 1100:46:34.917 : :Chapter 1200:49:52.364 : :Chapter 1300:55:11.725 : :Chapter 1400:56:38.103 : :Chapter 1500:59:36.614 : :Chapter 1601:05:58.037 : :Chapter 1701:09:25.035 : :Chapter 1801:12:41.565 : :Chapter 1901:19:29.723 : :Chapter 2001:22:11.801 : :Chapter 2101:26:24.179 : :Chapter 22

---[NoImage] x264 [info]: frame I:906 Avg QP:15.68 size:186901---[NoImage] x264 [info]: frame P:27183 Avg QP:16.93 size: 98913---[NoImage] x264 [info]: frame B:96208 Avg QP:19.06 size: 58542---[NoImage] x264 [info]: consecutive B-frames: 2.8% 3.3% 8.6% 12.8% 14.7% 46.3% 5.3% 2.3% 2.4% 1.6%---[NoImage] x264 [info]: mb I I16..4: 17.0% 67.4% 15.7%---[NoImage] x264 [info]: mb P I16..4: 1.0% 46.1% 2.9% P16..4: 16.1% 19.6% 11.0% 0.0% 0.0% skip: 3.4%---[NoImage] x264 [info]: mb B I16..4: 0.1% 14.4% 0.6% B16..8: 30.7% 23.9% 7.8% direct:12.0% skip:10.4% L0:46.5% L1:39.2% BI:14.3%---[NoImage] x264 [info]: 8x8 transform intra:93.0% inter:60.7%---[NoImage] x264 [info]: direct mvs spatial:97.0% temporal:3.0%---[NoImage] x264 [info]: coded y,uvDC,uvAC intra: 97.4% 97.3% 90.7% inter: 66.6% 57.9% 27.8%---[NoImage] x264 [info]: i16 v,h,dc,p: 36% 3% 24% 37%---[NoImage] x264 [info]: i8 v,h,dc,ddl,ddr,vr,hd,vl,hu: 9% 7% 16% 10% 12% 12% 11% 12% 12%---[NoImage] x264 [info]: i4 v,h,dc,ddl,ddr,vr,hd,vl,hu: 42% 4% 7% 7% 9% 9% 8% 8% 7%---[NoImage] x264 [info]: i8c dc,h,v,p: 60% 12% 12% 16%---[NoImage] x264 [info]: Weighted P-Frames: Y:10.8% UV:6.2%---[NoImage] x264 [info]: ref P L0: 38.4% 10.9% 20.5% 8.4% 7.1% 4.6% 4.4% 2.5% 2.6% 0.5% 0.0%---[NoImage] x264 [info]: ref B L0: 67.3% 14.3% 7.3% 4.1% 2.9% 2.5% 1.3% 0.4%---[NoImage] x264 [info]: ref B L1: 90.7% 9.3%---[NoImage] x264 [info]: kb/s:13101.80---[NoImage] encoded 124297 frames, 1.97 fps, 13101.80 kb/s--[Information] Final statistics---[Information] [02.11.2012 20:06:59] Video Bitrate Desired: 13111 kbit/s

filmtor.net

Скачать фильм Киборг через торрент в хорошем качестве бесплатно DVDRip-AVC

piratbit.ru

Размер: 1.46 GB | Добавлен: 7 лет 6 мес. назад | Торрент скачан:78 раз
Реклама Дарим 3000 рублей за регистрацию, не упусти свой шанс получить шикарный бонус!!!

28-03-2010 08:34 Киборг Скачать торрент  

Киборг / Cyborg

Год выпуска: 1989Страна: СШАЖанр: фантастика, боевикПродолжительность: 01:22:31Перевод: Профессиональный (многоголосый, закадровый) + Авторский (Дохалов) + Оригинал

Режиссер: Альберт ПьюнПродюссер: Йорам Глобус, Менахем Голан, Том КарновскиСценарий: Китти Чалмерс

Бюджет: $2 000 000Премьера в мире: 7 апреля 1989

R

-Лицам до 17 лет обязательно присутствие взрослогоМировой рейтинг IMDB 4.30 (7 797)

В ролях: Жан-Клод Ван-Дамм, Дебора Рихтер, Винсент Клин, Алекс Дэниелс, Дэйл Хэддон, Блэйз Лунг, Ральф Мёллер, Хейли Петерсон, Джексон «Скала» Пинкни, Джэнис Грейсер

Описание: Америка 21-го века, прозябая в социальной анархии и смертоносной чуме, вот-вот станет жертвой бурного воровского беспредела. Только Перл Профет, прекрасная полуженщина-полуробот, знает секрет создания спасительной вакцины.Собирая компоненты, необходимые для спасения человечества, Перл попадает в плен к людоеду Флэшу Пайротсу, который замыслил использовать противоядие в личных целях и добиться господства над целым миром. Теперь только стальной кулак героя-меченосца Гибсона Рикенбакера может спастиее, а заодно и все, что еще осталось от человечества

Качество: DVDRip-AVCФормат: MKVВидео кодек: H.264Аудио кодек: AACВидео: 720х[email protected] (1,883:1), 25 fps, x264 core 79 ~1560 kbps, 0,2 b/pАудио (Русский): 48 kHz, AАC 6 ch, Front: L C R, Rear: L R, LFE, ~320.00 kbps avg Профессиональный (многоголосый, закадровый)Аудио (Русский): 48 kHz, AAC 6 ch, Front: L C R, Rear: L R, LFE, ~320.00 kbps avg Авторский (одноголосый, Дохалов)Аудио (Английский): 48 kHz, AAC 6 ch, Front: L C R, Rear: L R, LFE, ~320.00 kbps avg ОригинальныйСубтитры: Русские и английские

* На американском телевидении этот фильм шел под названием «Властелины Вселенной 2: Киборг» (Masters of the Universe II: The Cyborg). Дело в том, что картина должна была стать продолжением телефильма «Властелины Вселенной» (Masters of the Universe) 1987 года. Уже был написан сценарий, но проект закрыли, а сценарий переписали для полнометражного кинофильма.* Имена главных героев картины – Фендер Тремоло, Перл Профет, Гибсон Рикенбейкер, Нади Симмонс, Маршалл Страт – были взяты на основе названий музыкальных инструментов или их производителей.* В 1993 и 1994 годах были сняты картины «Киборг 2» (Cyborg 2) и «Киборг 3: Утилизатор» (Cyborg 3: The Recycler), которые к фильму «Киборг» (Cyborg) никакого отношения не имеют.* Премьера фильма состоялась одновременно в 830 кинотеатрах, а сборы за уик-энд (7-9 апреля) составили $3 179 811, что в полтора раз превысило бюджет фильма.

Скачать Киборг через торрент http://i029.radikal.ru/1003/05/57468aefeec2.jpg Скачать фильм Киборг через торрент бесплантно в хорошем качестве Описание: Америка 21-го века, прозябая в социальной анархии и смертоносной чуме, вот-вот станет жертвой бурного воровского беспредела. ... 2010-03-28 08:34 10 10 1

Loading...

Loading...

Рекламный пират

15-04-2010 15:26 Киборг Скачать торрент  

02-11-2011 06:31 Киборг Скачать торрент  

Спасибо!!!Качаю,собрал всю коллекцию Ван-Дамма,остался Киборг)))

25-02-2012 09:42 Киборг Скачать торрент  

Станьте на раздачу Плиз!

Дорогой пользователь! Огромная просьба, поблагодарите релизера, оцените раздачу и оставьте свои комментарий, если Вы скачали Киборг через торрент бесплатно! Внесите свою лепту в развитие PiratBit!

Комментировать посты могут только пользователи прошедшие не сложную регистрацию

Киборг через торрент Скачать бесплатно Киборг Киборг скачать торрент Киборг смотреть онлайн Cкачать фильм Киборг бесплатно Киборг скачать торрент в хорошем качестве Киборг смотреть онлайн бесплатно в хорошем качестве

Вы не можете начинать темыВы не можете отвечать на сообщенияВы не можете редактировать свои сообщенияВы не можете удалять свои сообщенияВы не можете голосовать в опросахВы не можете прикреплять файлы к сообщениямВы можете скачивать файлы

Скачать фильм Киборг через торрент в хорошем качестве бесплатно 720p

ОбщееУникальный идентификатор : 219030239172882150390101051813853004275 (0xA4C7B08BEA44D09AA80138E6A2B601F3)Полное имя : D:DVDCyborg.1989.BluRay.720p.mkvФормат : MatroskaВерсия формата : Version 2Размер файла : 3,83 ГбайтПродолжительность : 1 ч. 26 м.Общий поток : 6351 Кбит/секНазвание фильма : Cyborg 1989 By 3LiДата кодирования : UTC 2013-02-02 12:16:02Программа кодирования : mkvmerge v4.0.0 ('The Stars were mine') сборка от Jun 6 2010 16:18:42Библиотека кодирования : libebml v1.0.0 + libmatroska v1.0.0

ВидеоИдентификатор : 1Формат : AVCФормат/Информация : Advanced Video CodecПрофиль формата : [email protected]Параметр CABAC формата : ДаПараметр ReFrames формата : 5 кадровИдентификатор кодека : V_MPEG4/ISO/AVCПродолжительность : 1 ч. 26 м.Битрейт : 5200 Кбит/секШирина : 1280 пикс.Высота : 688 пикс.Соотношение сторон : 1,860Частота кадров : 23,976 кадр/секЦветовое пространство : YUVПодвыборка цветности : 4:2:0Битовая глубина : 8 битТип развёртки : ПрогрессивнаяБит/(Пиксели*Кадры) : 0.246Размер потока : 3,06 Гбайт (80%)Заголовок : Cyborg 1989 By 3LiБиблиотека кодирования : x264 core 129 r2230 1cffe9fНастройки программы : cabac=1 / ref=5 / deblock=1:-3:-3 / analyse=0x3:0x113 / me=umh / subme=9 / psy=1 / psy_rd=1.00:0.00 / mixed_ref=1 / me_range=18 / chroma_me=1 / trellis=1 / 8x8dct=1 / cqm=0 / deadzone=21,11 / fast_pskip=0 / chroma_qp_offset=-2 / threads=3 / lookahead_threads=1 / sliced_threads=0 / nr=0 / decimate=0 / interlaced=0 / bluray_compat=0 / constrained_intra=0 / bframes=3 / b_pyramid=2 / b_adapt=2 / b_bias=0 / direct=1 / weightb=1 / open_gop=0 / weightp=2 / keyint=240 / keyint_min=23 / scenecut=40 / intra_refresh=0 / rc_lookahead=40 / rc=2pass / mbtree=1 / bitrate=5200 / ratetol=1.0 / qcomp=0.60 / qpmin=0 / qpmax=69 / qpstep=4 / cplxblur=20.0 / qblur=0.5 / ip_ratio=1.40 / aq=1:1.00Язык : English

Аудио #1Идентификатор : 2Формат : AC-3Формат/Информация : Audio Coding 3Расширение режима : CM (complete main)Идентификатор кодека : A_AC3Продолжительность : 1 ч. 26 м.Вид битрейта : ПостоянныйБитрейт : 192 Кбит/секКаналы : 2 каналаРасположение каналов : Front: L RЧастота : 48,0 КГцБитовая глубина : 16 битМетод сжатия : С потерямиРазмер потока : 119 Мбайт (3%)Заголовок : (AC3, 2 ch, 192 Кбит/с) Dub [R5]Язык : Russian

Аудио #2Идентификатор : 3Формат : AC-3Формат/Информация : Audio Coding 3Расширение режима : CM (complete main)Идентификатор кодека : A_AC3Продолжительность : 1 ч. 26 м.Вид битрейта : ПостоянныйБитрейт : 192 Кбит/секКаналы : 2 каналаРасположение каналов : Front: L RЧастота : 48,0 КГцБитовая глубина : 16 битМетод сжатия : С потерямиРазмер потока : 119 Мбайт (3%)Заголовок : (AC3, 2 ch, 192 Кбит/с) Dub [1+1]Язык : Ukrainian

Аудио #3Идентификатор : 4Формат : AC-3Формат/Информация : Audio Coding 3Расширение режима : CM (complete main)Идентификатор кодека : A_AC3Продолжительность : 1 ч. 26 м.Вид битрейта : ПостоянныйБитрейт : 192 Кбит/секКаналы : 2 каналаРасположение каналов : Front: L RЧастота : 48,0 КГцБитовая глубина : 16 битМетод сжатия : С потерямиРазмер потока : 119 Мбайт (3%)Заголовок : (AC3, 2 ch, 192 Кбит/с)Язык : English

Аудио #4Идентификатор : 5Формат : AC-3Формат/Информация : Audio Coding 3Расширение режима : CM (complete main)Идентификатор кодека : A_AC3Продолжительность : 1 ч. 26 м.Вид битрейта : ПостоянныйБитрейт : 192 Кбит/секКаналы : 2 каналаРасположение каналов : Front: L RЧастота : 48,0 КГцБитовая глубина : 16 битМетод сжатия : С потерямиРазмер потока : 119 Мбайт (3%)Заголовок : (AC3, 2 ch, 192 Кбит/с) AVO [Вартан Дохалов]Язык : Russian

Аудио #5Идентификатор : 6Формат : AC-3Формат/Информация : Audio Coding 3Расширение режима : CM (complete main)Идентификатор кодека : A_AC3Продолжительность : 1 ч. 26 м.Вид битрейта : ПостоянныйБитрейт : 192 Кбит/секКаналы : 2 каналаРасположение каналов : Front: L RЧастота : 48,0 КГцБитовая глубина : 16 битМетод сжатия : С потерямиРазмер потока : 119 Мбайт (3%)Заголовок : (AC3, 2 ch, 192 Кбит/с) АVO [Андрей Гаврилов]Язык : Russian

Аудио #6Идентификатор : 7Формат : AC-3Формат/Информация : Audio Coding 3Профиль формата : Dolby DigitalРасширение режима : CM (complete main)Идентификатор кодека : A_AC3Продолжительность : 1 ч. 26 м.Вид битрейта : ПостоянныйБитрейт : 192 Кбит/секКаналы : 2 каналаРасположение каналов : Front: L RЧастота : 48,0 КГцБитовая глубина : 16 битМетод сжатия : С потерямиРазмер потока : 119 Мбайт (3%)Заголовок : (AC3, 2 ch, 192 Кбит/с) АVO [Леонид Володарский]Язык : Russian

Текст #1Идентификатор : 8Формат : UTF-8Идентификатор кодека : S_TEXT/UTF8Идентификатор кодека/Информация : UTF-8 Plain TextЗаголовок : forsedЯзык : Russian

Текст #2Идентификатор : 9Формат : UTF-8Идентификатор кодека : S_TEXT/UTF8Идентификатор кодека/Информация : UTF-8 Plain TextЗаголовок : fullЯзык : Russian

Текст #3Идентификатор : 10Формат : UTF-8Идентификатор кодека : S_TEXT/UTF8Идентификатор кодека/Информация : UTF-8 Plain TextЯзык : English

piratbit.ru


Смотрите также