Инсургент торрент в хорошем качестве скачать


Инсургент через торрент в хорошем качестве бесплатно HDRip

Раздают: 1 [ 0 KB/s ]
Размер: 1.47 GB | Добавлен: 2 года 2 мес. назад | Торрент скачан:198 раз
Реклама Дарим 3000 рублей за регистрацию, не упусти свой шанс получить шикарный бонус!!!

03-08-2015 20:42 Дивергент, глава 2: Инсургент Скачать торрент  

«В этом мире пора что-то менять» Год выпуска: 2015Страна: СШАЖанр: фантастика, триллер, приключенияПродолжительность: 01:59:00Перевод: Дубляж - [Лицензия / iTunes]Режиссер: Роберт ШвенткеВ ролях: Шейлин Вудли (Tris), Тео Джеймс (Four), Кейт Уинслет (Jeanine), Джай Кортни (Eric), Энсел Элгорт (Caleb), Майлз Теллер (Peter), Зои Кравиц (Christina), Мекхай Файфер (Max), Наоми Уоттс (Evelyn), Октавия Спенсер (Johanna), Рэй Стивенсон (Marcus), Тони Голдуин (Andrew)Описание: В новой главе антиутопии об обществе, где все расставлено по полочкам, а любая индивидуальность подлежит искоренению, Трис должна найти способ борьбы со страшной системой, уничтожающей ее близких. Кто из них на очереди? Она узнает все больше страшных подробностей, стоящих за кажущимся порядком, и уже не может не видеть, что в ее мире пора что-то менять. Но главное в этой борьбе - справиться с расколом, который враг порождает в ее собственной душе. , MPAA: PG-13 - Детям до 13 лет просмотр не желателенКачество: HDRipФормат: AVIВидео кодек: XviDАудио кодек: AC3Видео: XviD, 720x304 (2.35:1), 1378 kbps, 23,976 fps, 0,263 bppАудио: AC3 / 5.1 / 48 kHz / 384 kbps / 16 bit

Код:

GeneralComplete name                            : E:\торент\1nsurge9t.2015.D.HDRip.aviFormat                                   : AVIFormat/Info                              : Audio Video InterleaveFile size                                : 1.47 GiBDuration                                 : 1h 59mnOverall bit rate                         : 1 772 KbpsWriting application                      : VirtualDubMod 1.5.10.3 | www.virtualdub-fr.org || (build 2550/release)Writing library                          : VirtualDubMod build 2550/release

VideoID                                       : 0Format                                   : MPEG-4 VisualFormat profile                           : Advanced [email protected] settings, BVOP                    : 2Format settings, QPel                    : NoFormat settings, GMC                     : No warppointsFormat settings, Matrix                  : Default (MPEG)Codec ID                                 : XVIDCodec ID/Hint                            : XviDDuration                                 : 1h 59mnBit rate                                 : 1 379 KbpsWidth                                    : 720 pixelsHeight                                   : 304 pixelsDisplay aspect ratio                     : 2.35:1Frame rate                               : 23.976 fpsColor space                              : YUVChroma subsampling                       : 4:2:0Bit depth                                : 8 bitsScan type                                : ProgressiveCompression mode                         : LossyBits/(Pixel*Frame)                       : 0.263Stream size                              : 1.15 GiB (78%)Writing library                          : XviD 1.2.1 (UTC 2008-12-04)

AudioID                                       : 1Format                                   : AC-3Format/Info                              : Audio Coding 3Mode extension                           : CM (complete main)Format settings, Endianness              : BigCodec ID                                 : 2000Duration                                 : 1h 58mnBit rate mode                            : ConstantBit rate                                 : 384 KbpsChannel(s)                               : 6 channelsChannel positions                        : Front: L C R, Side: L R, LFESampling rate                            : 48.0 KHzBit depth                                : 16 bitsCompression mode                         : LossyStream size                              : 327 MiB (22%)Alignment                                : Split accross interleavesInterleave, duration                     : 42 ms (1.00 video frame)Interleave, preload duration             : 500 ms

Скачать Дивергент, глава 2: Инсургент через торрент http://pic1.pb.wtf/images/10/mqdhq.jpg Скачать фильм Дивергент, глава 2: Инсургент через торрент бесплантно в хорошем качестве Описание: В новой главе антиутопии об обществе, где все расставлено по полочкам, а любая индивидуальность подлежит искоренению, Трис должна ... 2015-08-03 20:42 9.7 10 14

Loading...

Loading...

Рекламный пират

Дорогой пользователь! Огромная просьба, поблагодарите релизера, оцените раздачу и оставьте свои комментарий, если Вы скачали Дивергент, глава 2: Инсургент через торрент бесплатно! Внесите свою лепту в развитие PiratBit!

Комментировать посты могут только пользователи прошедшие не сложную регистрацию

Дивергент, глава 2: Инсургент через торрент Скачать бесплатно Дивергент, глава 2: Инсургент Дивергент, глава 2: Инсургент скачать торрент Дивергент, глава 2: Инсургент смотреть онлайн Cкачать фильм Дивергент, глава 2: Инсургент бесплатно Дивергент, глава 2: Инсургент скачать торрент в хорошем качестве Дивергент, глава 2: Инсургент смотреть онлайн бесплатно в хорошем качестве

Вы не можете начинать темыВы не можете отвечать на сообщенияВы не можете редактировать свои сообщенияВы не можете удалять свои сообщенияВы не можете голосовать в опросахВы не можете прикреплять файлы к сообщениямВы можете скачивать файлы

piratbit.ru

Инсургент через торрент в хорошем качестве бесплатно BDRip от Twi7ter

Раздают: 2 [ 0 KB/s ]
Размер: 1.46 GB | Добавлен: 2 года 2 мес. назад | Торрент скачан:847 раз
Реклама Дарим 3000 рублей за регистрацию, не упусти свой шанс получить шикарный бонус!!!

18-07-2015 11:35 Дивергент, глава 2: Инсургент Скачать торрент  

Дивергент, глава 2: Инсургент / Insurgent

«В этом мире пора что-то менять»

Год выпуска: 2015Страна: СШАЖанр: фантастика, триллер, приключенияПродолжительность: 01:59:00Перевод: Профессиональный (полное дублирование) [лицензия BD RUS]Субтитры: НетРежиссер: Роберт Швентке / Robert SchwentkeВ ролях: Шейлин Вудли (Tris), Тео Джеймс (Four), Кейт Уинслет (Jeanine), Джай Кортни (Eric), Энсел Элгорт (Caleb), Майлз Теллер (Peter), Зои Кравиц (Christina), Мекхай Файфер (Max), Наоми Уоттс (Evelyn), Октавия Спенсер (Johanna), Рэй Стивенсон (Marcus), Тони Голдуин (Andrew)Описание: В новой главе антиутопии об обществе, где все расставлено по полочкам, а любая индивидуальность подлежит искоренению, Трис должна найти способ борьбы со страшной системой, уничтожающей ее близких. Кто из них на очереди? Она узнает все больше страшных подробностей, стоящих за кажущимся порядком, и уже не может не видеть, что в ее мире пора что-то менять. Но главное в этой борьбе - справиться с расколом, который враг порождает в ее собственной душе.

MPAA: PG-13 - Детям до 13 лет просмотр не желателен

Качество: BDRip | исх. Insurgent.2015.1080p.BluRay.AVC.TrueHD.7.1.Atmos |Формат: AVIВидео кодек: XviDАудио кодек: AC3Видео: 720x304 (2.37:1), 23.976 fps, XviD build 73 ~1300 kbps avg, 0.25 bit/pixelАудио: 48 kHz, AC3 Dolby Digital, 3/2 (L,C,R,l,r) + LFE ch, ~448 kbps

Релиз: & MegaPeer

Скачать Дивергент, глава 2: Инсургент через торрент http://i70.fastpic.ru/big/2015/0815/a8/7614eb98d4076333130a6c463f2a28a8.jpg Скачать фильм Дивергент, глава 2: Инсургент через торрент бесплантно в хорошем качестве Описание: В новой главе антиутопии об обществе, где все расставлено по полочкам, а любая индивидуальность подлежит искоренению, Трис должна ... 2015-08-15 08:10 9.5 10 69

Loading...

Loading...

% Раздел Тема Автор DL S | L
3D Фильмы [ 40.9 GB ] Дивергент глава 2: Инсургент / Insurgent [2015 Blu-Ray 1080p] [3D/2D] [] killermax2013 Скачать
Фильмы [HD 720p, 1080p] (Хороший звук DUB, MVO) [ 12.85 GB ] Дивергент глава 2: Инсургент / Insurgent [2015 BDRip 1080p] DUB Ворон Скачать
Фильмы 2015 [DVDrip, WEB-DLRip, HDrip] [ 745 MB ] Дивергент глава 2: Инсургент / Insurgent [2015 BDRip-AVC от sokol_ok] DUB sokol_ok Скачать
Фильмы 2015 [DVDrip, WEB-DLRip, HDrip] [ 2.18 GB ] Дивергент глава 2: Инсургент / Insurgent [2015 BDRip-AVC от sokol_ok] DUB sokol_ok Скачать
Фильмы 2015 [DVDrip, WEB-DLRip, HDrip] [ 2.19 GB ] Дивергент глава 2: Инсургент / Insurgent [2015 BDRip-AVC] DUB potroks Скачать
Фильмы 2015 [DVDrip, WEB-DLRip, HDrip] [ 1.46 GB ] Дивергент глава 2: Инсургент / Insurgent [2015 BDRip-AVC] DUB potroks Скачать
Фильмы [HD 720p, 1080p] (Хороший звук DUB, MVO) [ 4.36 GB ] Дивергент глава 2: Инсургент / Insurgent [2015 BDRip 720p] DUB potroks Скачать

Рекламный пират

Дорогой пользователь! Огромная просьба, поблагодарите релизера, оцените раздачу и оставьте свои комментарий, если Вы скачали Дивергент, глава 2: Инсургент через торрент бесплатно! Внесите свою лепту в развитие PiratBit!

Комментировать посты могут только пользователи прошедшие не сложную регистрацию

Дивергент, глава 2: Инсургент через торрент Скачать бесплатно Дивергент, глава 2: Инсургент Дивергент, глава 2: Инсургент скачать торрент Дивергент, глава 2: Инсургент смотреть онлайн Cкачать фильм Дивергент, глава 2: Инсургент бесплатно Дивергент, глава 2: Инсургент скачать торрент в хорошем качестве Дивергент, глава 2: Инсургент смотреть онлайн бесплатно в хорошем качестве

Вы не можете начинать темыВы не можете отвечать на сообщенияВы не можете редактировать свои сообщенияВы не можете удалять свои сообщенияВы не можете голосовать в опросахВы не можете прикреплять файлы к сообщениямВы можете скачивать файлы

piratbit.ru

Инсургент через торрент в хорошем качестве бесплатно HDRip

Размер: 2.19 GB | Добавлен: 2 года 2 мес. назад | Торрент скачан:713 раз
Реклама Дарим 3000 рублей за регистрацию, не упусти свой шанс получить шикарный бонус!!!

20-07-2015 18:03 Дивергент, глава 2: Инсургент Скачать торрент  

Дивергент

глава 2: Инсургент / Insurgent

Год выпуска: 2015Страна: США / Red Wagon Entertainment, Mandeville Films, NeoReelЖанр: фантастика, триллер, приключенияПродолжительность: 01:59:00Перевод: Дубляж (iTunes)

Режиссер: Роберт Швентке

IMDB 6.90 (46 992)

В ролях: Шейлин Вудли, Тео Джеймс, Кейт Уинслет, Джай Кортни, Энсел Элгорт, Майлз Теллер, Зои Кравиц, Мекхай Файфер, Наоми Уоттс, Октавия Спенсер

Описание: В новой главе антиутопии об обществе, где все расставлено по полочкам, а любая индивидуальность подлежит искоренению, Трис должна найти способ борьбы со страшной системой, уничтожающей ее близких. Кто из них на очереди? Она узнает все больше страшных подробностей, стоящих за кажущимся порядком, и уже не может не видеть, что в ее мире пора что-то менять. Но главное в этой борьбе — справиться с расколом, который враг порождает в ее собственной душе.

Качество: HDRipФормат: AVIВидео кодек: XviDАудио кодек: AC3Видео: 720x304 (2.37:1), 23.976 fps, XviD build 50 ~2243 kbps avg, 0.43 bit/pixelАудио: 48 kHz, AC3 Dolby Digital, 3/2 (L,C,R,l,r) + LFE ch, ~384 kbps

ОбщееПолное имя : F:\кино\Дивергент, глава 2. Инсургент.2015.HDRip.aviФормат : AVIФормат/Информация : Audio Video InterleaveПрофиль формата : OpenDMLРазмер файла : 2,19 ГбайтПродолжительность : 1 ч. 59 м.Общий поток : 2634 Кбит/секПрограмма кодирования : VirtualDubMod 1.5.10.3 | www.virtualdub-fr.org || (build 2550/release)Библиотека кодирования : VirtualDubMod build 2550/release

ВидеоИдентификатор : 0Формат : MPEG-4 VisualПрофиль формата : Advanced [email protected]Параметр BVOP формата : 2Параметр QPel формата : НетПараметр GMC формата : Без точки переходаПараметр матрицы формата : Default (H.263)Идентификатор кодека : XVIDИдентификатор кодека/Подсказка : XviDПродолжительность : 1 ч. 59 м.Битрейт : 2238 Кбит/секШирина : 720 пикселейВысота : 304 пикселяСоотношение сторон : 2,35:1Частота кадров : 23,976 кадра/секЦветовое пространство : YUVСубдискретизация насыщенности : 4:2:0Битовая глубина : 8 битТип развёртки : ПрогрессивнаяМетод сжатия : С потерямиБит/(Пиксели*Кадры) : 0.427Размер потока : 1,86 Гбайт (85%)Библиотека кодирования : XviD 1.2.1 (UTC 2008-12-04)

АудиоИдентификатор : 1Формат : AC-3Формат/Информация : Audio Coding 3Расширение режима : CM (complete main)Параметр Endianness формата : BigИдентификатор кодека : 2000Продолжительность : 1 ч. 58 м.Вид битрейта : ПостоянныйБитрейт : 384 Кбит/секКаналы : 6 каналовРасположение каналов : Front: L C R, Side: L R, LFEЧастота : 48,0 КГцМетод сжатия : С потерямиРазмер потока : 327 Мбайт (15%)Выравнивание : Разделение по промежуткамПродолжительность промежутка : 42 мс. (1,00 видеокадр)Время предзагрузки промежутка : 500 мс.

Скачать Дивергент, глава 2: Инсургент через торрент http://pic1.pb.wtf/images/10/17bf2.jpg Скачать фильм Дивергент, глава 2: Инсургент через торрент бесплантно в хорошем качестве Описание: В новой главе антиутопии об обществе, где все расставлено по полочкам, а любая индивидуальность подлежит искоренению, Трис должна ... 2015-08-05 17:56 9.5 10 23

Loading...

Loading...

Последний раз редактировалось: coc900 (2015-08-05 17:56), всего редактировалось 1 раз

Рекламный пират

20-07-2015 20:34 Дивергент, глава 2: Инсургент Скачать торрент  

Друзья! Не тратьте время на просмотр этого абсолютного шлака, второсортного ну не знаю бое...мило...фанта... нет определения шлако-халтуры.

24-07-2015 18:49 Дивергент, глава 2: Инсургент Скачать торрент  

Ну почему сразу шлака, довольно обычный фильм для просмотра наночь)

05-08-2015 17:58 Дивергент, глава 2: Инсургент Скачать торрент  

Релиз обновлен!Просьба перекачать торрент файл!

07-08-2015 11:26 Дивергент, глава 2: Инсургент Скачать торрент  

Те кто несет шлакокритику , советуйте что можно смотреть на ваше мнение...просто оч интересно что для вас не шлак...

23-08-2015 01:11 Дивергент, глава 2: Инсургент Скачать торрент  

Хм. Я посмотрю, хотя бы потому что я смотрел первую часть (она мне в принципе понравилась). Будем надеяться, что вторую часть они не слили.

Дорогой пользователь! Огромная просьба, поблагодарите релизера, оцените раздачу и оставьте свои комментарий, если Вы скачали Дивергент, глава 2: Инсургент через торрент бесплатно! Внесите свою лепту в развитие PiratBit!

Комментировать посты могут только пользователи прошедшие не сложную регистрацию

Дивергент, глава 2: Инсургент через торрент Скачать бесплатно Дивергент, глава 2: Инсургент Дивергент, глава 2: Инсургент скачать торрент Дивергент, глава 2: Инсургент смотреть онлайн Cкачать фильм Дивергент, глава 2: Инсургент бесплатно Дивергент, глава 2: Инсургент скачать торрент в хорошем качестве Дивергент, глава 2: Инсургент смотреть онлайн бесплатно в хорошем качестве

Вы не можете начинать темыВы не можете отвечать на сообщенияВы не можете редактировать свои сообщенияВы не можете удалять свои сообщенияВы не можете голосовать в опросахВы не можете прикреплять файлы к сообщениямВы можете скачивать файлы

piratbit.ru

Инсургент через торрент в хорошем качестве бесплатно BDRip-AVC от potroks

Общее Уникальный идентификатор : 246855275731306682075979496033722969586 (0xB9B698C45A08CED98752F296C7822DF2) Полное имя : F:\Фантастика\Divergent.Dilogy.[2014-2015].-HELLYWOOD\Divergent.2.Insurgent.2015.DUAL.BDRip.x264.-HELLYWOOD.mkv Формат : Matroska Версия формата : Version 4 / Version 2 Размер файла : 2,19 Гбайт Продолжительность : 1 ч. 59 м. Общий поток : 2629 Кбит/сек Название фильма : Insurgent (2015) - HELLYWOOD Дата кодирования : UTC 2015-08-14 06:17:27 Программа кодирования : mkvmerge v5.9.0 ('On The Loose') built on Dec 15 2012 16:39:58 Библиотека кодирования : libebml v1.3.0 + libmatroska v1.4.0

Видео Идентификатор : 1 Формат : AVC Формат/Информация : Advanced Video Codec Профиль формата : [email protected] Параметр CABAC формата : Да Параметр ReFrames формата : 10 кадров Идентификатор кодека : V_MPEG4/ISO/AVC Продолжительность : 1 ч. 59 м. Битрейт : 1731 Кбит/сек Ширина : 1056 пикселей Высота : 440 пикселей Соотношение сторон : 2,40:1 Режим частоты кадров : Постоянный Частота кадров : 23,976 кадра/сек Цветовое пространство : YUV Субдискретизация насыщенности : 4:2:0 Битовая глубина : 8 бит Тип развёртки : Прогрессивная Бит/(Пиксели*Кадры) : 0.155 Размер потока : 1,40 Гбайт (64%) Заголовок : potroks Библиотека кодирования : x264 core 146 r2538 121396c Настройки программы : cabac=1 / ref=10 / deblock=1:-2:-2 / analyse=0x3:0x113 / me=umh / subme=11 / psy=1 / psy_rd=1.04:0.07 / mixed_ref=1 / me_range=48 / chroma_me=1 / trellis=2 / 8x8dct=1 / cqm=0 / deadzone=21,11 / fast_pskip=0 / chroma_qp_offset=-3 / threads=9 / lookahead_threads=2 / sliced_threads=0 / nr=0 / decimate=1 / interlaced=0 / bluray_compat=0 / constrained_intra=0 / bframes=11 / b_pyramid=2 / b_adapt=2 / b_bias=0 / direct=3 / weightb=1 / open_gop=0 / weightp=2 / keyint=250 / keyint_min=23 / scenecut=40 / intra_refresh=0 / rc_lookahead=60 / rc=2pass / mbtree=0 / bitrate=1731 / ratetol=1.0 / qcomp=0.70 / qpmin=0 / qpmax=69 / qpstep=4 / cplxblur=20.0 / qblur=0.5 / vbv_maxrate=14000 / vbv_bufsize=14000 / nal_hrd=none / filler=0 / ip_ratio=1.35 / pb_ratio=1.25 / aq=1:1.00 Язык : English Default : Да Forced : Нет

Аудио #1 Идентификатор : 2 Формат : AC-3 Формат/Информация : Audio Coding 3 Расширение режима : CM (complete main) Параметр Endianness формата : Big Идентификатор кодека : A_AC3 Продолжительность : 1 ч. 59 м. Вид битрейта : Постоянный Битрейт : 448 Кбит/сек Каналы : 6 каналов Расположение каналов : Front: L C R, Side: L R, LFE Частота : 48,0 КГц Метод сжатия : С потерями Размер потока : 381 Мбайт (17%) Заголовок : Dub | DD 5.1 @ 448 kbps - Blu-Ray RUS Язык : Russian Default : Да Forced : Нет

Аудио #2 Идентификатор : 3 Формат : AC-3 Формат/Информация : Audio Coding 3 Расширение режима : CM (complete main) Параметр Endianness формата : Big Идентификатор кодека : A_AC3 Продолжительность : 1 ч. 59 м. Вид битрейта : Постоянный Битрейт : 448 Кбит/сек Каналы : 6 каналов Расположение каналов : Front: L C R, Side: L R, LFE Частота : 48,0 КГц Метод сжатия : С потерями Размер потока : 381 Мбайт (17%) Заголовок : Original | DD 5.1 @ 448 kbps Язык : English Default : Нет Forced : Нет

Текст #1 Идентификатор : 4 Формат : UTF-8 Идентификатор кодека : S_TEXT/UTF8 Идентификатор кодека/Информация : UTF-8 Plain Text Заголовок : Notabenoid Язык : Russian Default : Нет Forced : Нет

Текст #2 Идентификатор : 5 Формат : UTF-8 Идентификатор кодека : S_TEXT/UTF8 Идентификатор кодека/Информация : UTF-8 Plain Text Язык : Russian Default : Нет Forced : Нет

Текст #3 Идентификатор : 6 Формат : UTF-8 Идентификатор кодека : S_TEXT/UTF8 Идентификатор кодека/Информация : UTF-8 Plain Text Заголовок : Full Язык : English Default : Нет Forced : Нет

Текст #4 Идентификатор : 7 Формат : UTF-8 Идентификатор кодека : S_TEXT/UTF8 Идентификатор кодека/Информация : UTF-8 Plain Text Заголовок : SDH Язык : English Default : Нет Forced : Нет

Текст #5 Идентификатор : 8 Формат : UTF-8 Идентификатор кодека : S_TEXT/UTF8 Идентификатор кодека/Информация : UTF-8 Plain Text Заголовок : SDH-Colored Язык : English Default : Нет Forced : Нет

Меню 00:00:00.000 : en:(01)00:00:00:000 00:06:11.286 : en:(02)00:06:11:286 00:13:35.397 : en:(03)00:13:35:397 00:19:35.007 : en:(04)00:19:35:007 00:26:39.431 : en:(05)00:26:39:431 00:34:23.059 : en:(06)00:34:23:059 00:41:13.846 : en:(07)00:41:13:846 00:46:34.708 : en:(08)00:46:34:708 00:53:10.103 : en:(09)00:53:10:103 00:59:30.358 : en:(10)00:59:30:358 01:05:59.663 : en:(11)01:05:59:663 01:13:34.908 : en:(12)01:13:34:908 01:22:57.930 : en:(13)01:22:57:930 01:32:04.935 : en:(14)01:32:04:935 01:39:09.359 : en:(15)01:39:09:359 01:46:38.641 : en:(16)01:46:38:641 01:59:00.131 : en:(17)01:59:00:131

piratbit.ru

Инсургент через торрент в хорошем качестве бесплатно 720p от potroks

GeneralUnique ID                                : 198996442848419022385945409709747179431 (0x95B55220A89CCF6D942EAAB89ED38FA7)Complete name                            : N:\Фантастика\Divergent.2.Insurgent.2015.DUAL.BDRip.720p.-HELLYWOOD.mkvFormat                                   : MatroskaFormat version                           : Version 4 / Version 2File size                                : 4.36 GiBDuration                                 : 1h 59mnOverall bit rate                         : 5 241 KbpsMovie name                               : Insurgent (2015) - HELLYWOODEncoded date                             : UTC 2015-08-14 05:51:33Writing application                      : mkvmerge v5.9.0 ('On The Loose') built on Dec 15 2012 16:39:58Writing library                          : libebml v1.3.0 + libmatroska v1.4.0

VideoID                                       : 1Format                                   : AVCFormat/Info                              : Advanced Video CodecFormat profile                           : [email protected] settings, CABAC                   : YesFormat settings, ReFrames                : 9 framesCodec ID                                 : V_MPEG4/ISO/AVCDuration                                 : 1h 59mnBit rate                                 : 3 980 KbpsWidth                                    : 1 280 pixelsHeight                                   : 534 pixelsDisplay aspect ratio                     : 2.40:1Frame rate                               : 23.976 fpsColor space                              : YUVChroma subsampling                       : 4:2:0Bit depth                                : 8 bitsScan type                                : ProgressiveBits/(Pixel*Frame)                       : 0.243Stream size                              : 3.21 GiB (74%)Title                                    : potroksWriting library                          : x264 core 146 r2538 121396cEncoding settings                        : cabac=1 / ref=9 / deblock=1:-3:-3 / analyse=0x3:0x113 / me=umh / subme=11 / psy=1 / psy_rd=1.02:0.06 / mixed_ref=1 / me_range=48 / chroma_me=1 / trellis=2 / 8x8dct=1 / cqm=0 / deadzone=21,11 / fast_pskip=0 / chroma_qp_offset=-3 / threads=9 / lookahead_threads=2 / sliced_threads=0 / nr=0 / decimate=0 / interlaced=0 / bluray_compat=0 / constrained_intra=0 / bframes=10 / b_pyramid=2 / b_adapt=2 / b_bias=0 / direct=3 / weightb=1 / open_gop=0 / weightp=2 / keyint=250 / keyint_min=23 / scenecut=40 / intra_refresh=0 / rc_lookahead=60 / rc=2pass / mbtree=0 / bitrate=3980 / ratetol=1.0 / qcomp=0.70 / qpmin=0 / qpmax=69 / qpstep=4 / cplxblur=20.0 / qblur=0.5 / vbv_maxrate=14000 / vbv_bufsize=14000 / nal_hrd=none / filler=0 / ip_ratio=1.35 / pb_ratio=1.25 / aq=1:0.80Language                                 : EnglishDefault                                  : YesForced                                   : No

Audio #1ID                                       : 2Format                                   : AC-3Format/Info                              : Audio Coding 3Mode extension                           : CM (complete main)Codec ID                                 : A_AC3Duration                                 : 1h 59mnBit rate mode                            : ConstantBit rate                                 : 640 KbpsChannel(s)                               : 6 channelsChannel positions                        : Front: L C R, Side: L R, LFESampling rate                            : 48.0 KHzBit depth                                : 16 bitsCompression mode                         : LossyStream size                              : 545 MiB (12%)Title                                    : Dub | DD 5.1 @ 640 kbps - Blu-Ray RUSLanguage                                 : RussianDefault                                  : YesForced                                   : No

Audio #2ID                                       : 3Format                                   : AC-3Format/Info                              : Audio Coding 3Mode extension                           : CM (complete main)Codec ID                                 : A_AC3Duration                                 : 1h 59mnBit rate mode                            : ConstantBit rate                                 : 640 KbpsChannel(s)                               : 6 channelsChannel positions                        : Front: L C R, Side: L R, LFESampling rate                            : 48.0 KHzBit depth                                : 16 bitsCompression mode                         : LossyStream size                              : 545 MiB (12%)Title                                    : Original | DD 5.1 @ 640 kbpsLanguage                                 : EnglishDefault                                  : NoForced                                   : No

Text #1ID                                       : 4Format                                   : UTF-8Codec ID                                 : S_TEXT/UTF8Codec ID/Info                            : UTF-8 Plain TextTitle                                    : NotabenoidLanguage                                 : RussianDefault                                  : NoForced                                   : No

Text #2ID                                       : 5Format                                   : UTF-8Codec ID                                 : S_TEXT/UTF8Codec ID/Info                            : UTF-8 Plain TextLanguage                                 : RussianDefault                                  : NoForced                                   : No

Text #3ID                                       : 6Format                                   : UTF-8Codec ID                                 : S_TEXT/UTF8Codec ID/Info                            : UTF-8 Plain TextTitle                                    : FullLanguage                                 : EnglishDefault                                  : NoForced                                   : No

Text #4ID                                       : 7Format                                   : UTF-8Codec ID                                 : S_TEXT/UTF8Codec ID/Info                            : UTF-8 Plain TextTitle                                    : SDHLanguage                                 : EnglishDefault                                  : NoForced                                   : No

Text #5ID                                       : 8Format                                   : UTF-8Codec ID                                 : S_TEXT/UTF8Codec ID/Info                            : UTF-8 Plain TextTitle                                    : SDH-ColoredLanguage                                 : EnglishDefault                                  : NoForced                                   : No

Menu00:00:00.000                             : en:(01)00:00:00:00000:06:11.286                             : en:(02)00:06:11:28600:13:35.397                             : en:(03)00:13:35:39700:19:35.007                             : en:(04)00:19:35:00700:26:39.431                             : en:(05)00:26:39:43100:34:23.059                             : en:(06)00:34:23:05900:41:13.846                             : en:(07)00:41:13:84600:46:34.708                             : en:(08)00:46:34:70800:53:10.103                             : en:(09)00:53:10:10300:59:30.358                             : en:(10)00:59:30:35801:05:59.663                             : en:(11)01:05:59:66301:13:34.908                             : en:(12)01:13:34:90801:22:57.930                             : en:(13)01:22:57:93001:32:04.935                             : en:(14)01:32:04:93501:39:09.359                             : en:(15)01:39:09:35901:46:38.641                             : en:(16)01:46:38:64101:59:00.131                             : en:(17)01:59:00:131

piratbit.ru


Смотрите также