Инфекция скачать торрент в хорошем качестве


Скачать фильм Инфекция (2013) через торрент

24 июня 2016 12:17 Заражённая / Contracted (2013) HDRip-AVC от New-Team | L1 .torrent   [Информация о файле (нажмите для просмотра)] Перевод: Любительский (одноголосый, закадровый) [Хихидок]Видео: 2094 Кбит/сек, 1022*434 (2,35:1), в 24,000 кадр/сек, AVCАудио #1: Russian, 192 Кбит/сек, 48,0 КГц, 16 бит, 2 канала(ов), AC-3Аудио #2: English, 192 Кбит/сек, 48,0 КГц, 16 бит, 2 канала(ов), AC-3Видео: Идентификатор : 1 Формат : AVC Формат/Информация : Advanced Video Codec Профиль формата : [email protected] Параметр CABAC формата : Да Параметр ReFrames формата : 11 кадры Идентификатор кодека : V_MPEG4/ISO/AVC Продолжительность : 1 ч. 23 м. Битрейт : 2094 Кбит/сек Ширина : 1022 пикс. Высота : 434 пикс. Соотношение сторон : 2,35:1 Частота кадров : 24,000 кадр/сек Цветовое пространство : YUV Подвыборка цветности : 4:2:0 Битовая глубина : 8 бит Тип развёртки : Прогрессивная Бит/(Пиксели*Кадры) : 0.197 Размер потока : 1,20 Гбайт (83%) Библиотека кодирования : x264 core 138 r2358 9e941d1 Настройки программы : cabac=1 / ref=11 / deblock=1:-2:-2 / analyse=0x3:0x133 / me=umh / subme=10 / psy=1 / psy_rd=1.00:0.10 / mixed_ref=1 / me_range=32 / chroma_me=1 / trellis=2 / 8x8dct=1 / cqm=0 / deadzone=21,11 / fast_pskip=0 / chroma_qp_offset=-3 / threads=6 / lookahead_threads=1 / sliced_threads=0 / nr=0 / decimate=0 / interlaced=0 / bluray_compat=0 / constrained_intra=0 / bframes=11 / b_pyramid=2 / b_adapt=2 / b_bias=0 / direct=3 / weightb=1 / open_gop=0 / weightp=2 / keyint=240 / keyint_min=24 / scenecut=40 / intra_refresh=0 / rc_lookahead=80 / rc=2pass / mbtree=1 / bitrate=2094 / ratetol=1.0 / qcomp=0.65 / qpmin=0 / qpmax=69 / qpstep=4 / cplxblur=20.0 / qblur=0.5 / vbv_maxrate=20000 / vbv_bufsize=25000 / nal_hrd=none / ip_ratio=1.40 / aq=2:0.90Аудио #1: Идентификатор : 2 Формат : AC-3 Формат/Информация : Audio Coding 3 Расширение режима : CM (complete main) Идентификатор кодека : A_AC3 Продолжительность : 1 ч. 23 м. Вид битрейта : Постоянный Битрейт : 192 Кбит/сек Канал(ы) : 2 канала(ов) Расположение каналов : Front: L R Частота : 48,0 КГц Битовая глубина : 16 бит Метод сжатия : С потерями Размер потока : 115 Мбайт (8%) Заголовок : AC3 2.0 @ 192 kbps ХиХиДок Язык : RussianАудио #2: Идентификатор : 3 Формат : AC-3 Формат/Информация : Audio Coding 3 Расширение режима : CM (complete main) Идентификатор кодека : A_AC3 Продолжительность : 1 ч. 23 м. Вид битрейта : Постоянный Битрейт : 192 Кбит/сек Канал(ы) : 2 канала(ов) Расположение каналов : Front: L R Частота : 48,0 КГц Битовая глубина : 16 бит Метод сжатия : С потерями Размер потока : 115 Мбайт (8%) Заголовок : AC3 2.0 @ 192 kbps Язык : English 1,45 Gb 4 4 24 июня 2016 12:17 Заражённая / Contracted (2013) BDRip 1080p от CINEMANIA | L1 .torrent   [Информация о файле (нажмите для просмотра)] Формат: MKVКачество: BDRip 1080p[PFa]Видео: 8673 kb/s, 1920x816Аудио: Russian: AC3, 192 kb/s (2 ch) / English: AC3, 640 kb/s (6 ch)Субтитры: EnglishВидео: Идентификатор : 1 Формат : AVC Формат/Информация : Advanced Video Codec Профиль формата : [email protected] Параметр CABAC формата : Да Параметр ReFrames формата : 5 кадров Идентификатор кодека : V_MPEG4/ISO/AVC Продолжительность : 1 ч. 23 м. Битрейт : 8673 Кбит/сек Ширина : 1920 пикселей Высота : 816 пикселей Соотношение сторон : 2,35:1 Режим частоты кадров : Постоянный Частота кадров : 24,000 кадра/сек Цветовое пространство : YUV Субдискретизация насыщенности : 4:2:0 Битовая глубина : 8 бит Тип развёртки : Прогрессивная Бит/(Пиксели*Кадры) : 0.231 Размер потока : 4,97 Гбайт (89%) Заголовок : Release Group CINEMANIA Библиотека кодирования : x264 core 142 r2389 956c8d8 Настройки программы : cabac=1 / ref=5 / deblock=1:0:0 / analyse=0x3:0x133 / me=umh / subme=8 / psy=1 / psy_rd=1.00:0.00 / mixed_ref=1 / me_range=16 / chroma_me=1 / trellis=1 / 8x8dct=1 / cqm=0 / deadzone=21,11 / fast_pskip=0 / chroma_qp_offset=-2 / threads=12 / lookahead_threads=2 / sliced_threads=0 / nr=0 / decimate=1 / interlaced=0 / bluray_compat=0 / constrained_intra=0 / bframes=3 / b_pyramid=2 / b_adapt=1 / b_bias=0 / direct=1 / weightb=1 / open_gop=0 / weightp=2 / keyint=250 / keyint_min=24 / scenecut=40 / intra_refresh=0 / rc_lookahead=40 / rc=2pass / mbtree=1 / bitrate=8673 / ratetol=1.0 / qcomp=0.60 / qpmin=0 / qpmax=69 / qpstep=4 / cplxblur=20.0 / qblur=0.5 / ip_ratio=1.40 / aq=1:1.00 Язык : English Default : Да Forced : Нет Аудио #1: Идентификатор : 2 Формат : AC-3 Формат/Информация : Audio Coding 3 Расширение режима : CM (complete main) Параметр Endianness формата : Big Идентификатор кодека : A_AC3 Продолжительность : 1 ч. 23 м. Вид битрейта : Постоянный Битрейт : 192 Кбит/сек Каналы : 2 канала Расположение каналов : Front: L R Частота : 48,0 КГц Битовая глубина : 16 бит Метод сжатия : С потерями Задержка видео : -83 мс. Размер потока : 115 Мбайт (2%) Заголовок : ХиХиДок Язык : Russian Default : Да Forced : Да Аудио #2: Идентификатор : 3 Формат : AC-3 Формат/Информация : Audio Coding 3 Расширение режима : CM (complete main) Параметр Endianness формата : Big Идентификатор кодека : A_AC3 Продолжительность : 1 ч. 23 м. Вид битрейта : Постоянный Битрейт : 640 Кбит/сек Каналы : 2 канала Расположение каналов : Front: L R Частота : 48,0 КГц Битовая глубина : 16 бит Метод сжатия : С потерями Задержка видео : -83 мс. Размер потока : 384 Мбайт (7%) Язык : English Default : Нет Forced : Нет 5,57 Gb 3 2 24 июня 2016 12:17 Заражённая / Contracted (2013) BDRip 720p от CINEMANIA | L1 .torrent   [Информация о файле (нажмите для просмотра)] Формат: MKVКачество: BDRip 720p[PFa]Видео: 4940 kb/s, 1280x544Аудио: Russian: AC3, 192 kb/s (2 ch) / English: AC3, 640 kb/s (6 ch)Субтитры: EnglishВидео: Идентификатор : 1 Формат : AVC Формат/Информация : Advanced Video Codec Профиль формата : [email protected] Параметр CABAC формата : Да Параметр ReFrames формата : 5 кадров Идентификатор кодека : V_MPEG4/ISO/AVC Продолжительность : 1 ч. 23 м. Битрейт : 4940 Кбит/сек Ширина : 1280 пикселей Высота : 544 пикселя Соотношение сторон : 2,35:1 Режим частоты кадров : Постоянный Частота кадров : 24,000 кадра/сек Цветовое пространство : YUV Субдискретизация насыщенности : 4:2:0 Битовая глубина : 8 бит Тип развёртки : Прогрессивная Бит/(Пиксели*Кадры) : 0.296 Размер потока : 2,83 Гбайт (84%) Заголовок : Release Group CINEMANIA Библиотека кодирования : x264 core 142 r2389 956c8d8 Настройки программы : cabac=1 / ref=5 / deblock=1:0:0 / analyse=0x3:0x133 / me=umh / subme=8 / psy=1 / psy_rd=1.00:0.00 / mixed_ref=1 / me_range=16 / chroma_me=1 / trellis=1 / 8x8dct=1 / cqm=0 / deadzone=21,11 / fast_pskip=0 / chroma_qp_offset=-2 / threads=12 / lookahead_threads=2 / sliced_threads=0 / nr=0 / decimate=1 / interlaced=0 / bluray_compat=0 / constrained_intra=0 / bframes=3 / b_pyramid=2 / b_adapt=1 / b_bias=0 / direct=1 / weightb=1 / open_gop=0 / weightp=2 / keyint=250 / keyint_min=24 / scenecut=40 / intra_refresh=0 / rc_lookahead=40 / rc=2pass / mbtree=1 / bitrate=4940 / ratetol=1.0 / qcomp=0.60 / qpmin=0 / qpmax=69 / qpstep=4 / cplxblur=20.0 / qblur=0.5 / ip_ratio=1.40 / aq=1:1.00 Язык : English Default : Да Forced : Нет Аудио #1: Идентификатор : 2 Формат : AC-3 Формат/Информация : Audio Coding 3 Расширение режима : CM (complete main) Параметр Endianness формата : Big Идентификатор кодека : A_AC3 Продолжительность : 1 ч. 23 м. Вид битрейта : Постоянный Битрейт : 192 Кбит/сек Каналы : 2 канала Расположение каналов : Front: L R Частота : 48,0 КГц Битовая глубина : 16 бит Метод сжатия : С потерями Размер потока : 115 Мбайт (3%) Заголовок : ХиХиДок Язык : Russian Default : Да Forced : Да Аудио #2: Идентификатор : 3 Формат : AC-3 Формат/Информация : Audio Coding 3 Расширение режима : CM (complete main) Параметр Endianness формата : Big Идентификатор кодека : A_AC3 Продолжительность : 1 ч. 23 м. Вид битрейта : Постоянный Битрейт : 640 Кбит/сек Каналы : 2 канала Расположение каналов : Front: L R Частота : 48,0 КГц Битовая глубина : 16 бит Метод сжатия : С потерями Размер потока : 384 Мбайт (11%) Язык : English Default : Нет Forced : Нет 3,38 Gb 3 2 24 июня 2016 12:17 Заражённая / Contracted (2013) WEB-DLRip | L1 .torrent   [Информация о файле (нажмите для просмотра)] Формат: AVI (XviD)Качество: WEB-DLRipВидео: 1645 kb/s, 720x304Аудио: Russian: MP3, 192 kb/s (2 ch) / English: AC3, 384 kb/s (6 ch) 1,31 Gb 3 1 24 июня 2016 12:17 Заражённая / Contracted (2013) HDRip | L1 .torrent   [Информация о файле (нажмите для просмотра)] Перевод: Любительский (одноголосый, закадровый) - Хихикающий докторКодек: XviDФормат: AVIКачество: HDRipВидео: ~ 1022 kb/s, 640x272, 23,976 fpsСубтитры: нет 736,15 Mb 3 3

gig-torrent.net

Скачать фильм Инфекция через торрент в хорошем качестве бесплатно HDRip

Раздают: 1 [ 0 KB/s ]
Размер: 1.36 GB | Добавлен: 1 год 10 мес. назад | Торрент скачан:216 раз
Реклама Дарим 3000 рублей за регистрацию, не упусти свой шанс получить шикарный бонус!!!

16-12-2015 14:48 Инфекция Скачать торрент  

Инфекция / Заражённая / Contracted ««Надо было предохраняться»» ИНФОРМАЦИЯ: Год выпуска:2013 Страна: США Жанр: триллер, ужасы, драма Продолжительность: 01:23:53 Перевод: Дубляж - [Чистый звук] Режиссер: Эрик ИнглэндВ Ролях: Неджарра Таунсенд (Samantha), Кэролин Уильямс (Sam's Mom), Элис МакДональд (Alice), Кэти Стеджман (Nikki), Мэтт Мерсер (Riley), Чарли Кунц (Zain), Саймон Баррет (BJ), Рубен Пла (Doctor), Дэйв Холмс (Therapist), Селия Финкельштейн (Woman #1), Лаура Баггетт (Woman #2), Дэвид Бауман (Customer)Описание: Фильм рассказывает о страшной вирусной болезни, преследующей молодую женщину Саманту после того, как она провела «незащищенную» ночь любви со случайным незнакомцем после пьяной вечеринки. То, что поначалу кажется ей обычной половой инфекцией, оборачивается в итоге настоящим кошмаром...
  • Мировая премьера:7 июля 2013 ТЕХ.ДАННЫЕ: Качество: HDRip Формат: AVI Видео: XviD, 720x304 (2.35:1), 1902 kbps, 24 fps, 0,350 bpp Аудио №1: AC3 / 2.0 / 48 kHz / 192 kbps / Russian Аудио №2: AC3 / 2.0 / 48 kHz / 192 kbps / English Скриншоты: © Оформление by .::Ворон::.
  • Скачать Инфекция через торрент http://pic.pb.wtf/images/6/ordi9.jpg Скачать фильм Инфекция через торрент бесплантно в хорошем качестве Описание: Фильм рассказывает о страшной вирусной болезни, преследующей молодую женщину Саманту после того, как она провела «незащищенную» ... 2015-12-16 14:48 8.3 10 11

    Loading...

    Loading...

    Рекламный пират

    16-12-2015 15:14 Инфекция Скачать торрент  

    Мерзкий и нудный фильм....

    16-12-2015 15:27 Инфекция Скачать торрент  

    Serikmakogon, Да мерзкий, только скрины глянуть.. :jest3:

    16-12-2015 15:44 Инфекция Скачать торрент  

    Это фильм намёк про предновогодние корпоративы))) Девушкам надо бы быть поосторожнее в выборе случайного"собеседника" на вечеринке.))) я бы сказал : "На большой корпоратив, не забудь презерватив"...

    16-12-2015 21:52 Инфекция Скачать торрент  

    18-12-2015 17:12 Инфекция Скачать торрент  

    лицензия когда буде-то ато говорят здесь звук рассинхронизирован

    Дорогой пользователь! Огромная просьба, поблагодарите релизера, оцените раздачу и оставьте свои комментарий, если Вы скачали Инфекция через торрент бесплатно! Внесите свою лепту в развитие PiratBit!

    Комментировать посты могут только пользователи прошедшие не сложную регистрацию

    Инфекция через торрент Скачать бесплатно Инфекция Инфекция скачать торрент Инфекция смотреть онлайн Cкачать фильм Инфекция бесплатно Инфекция скачать торрент в хорошем качестве Инфекция смотреть онлайн бесплатно в хорошем качестве

    Вы не можете начинать темыВы не можете отвечать на сообщенияВы не можете редактировать свои сообщенияВы не можете удалять свои сообщенияВы не можете голосовать в опросахВы не можете прикреплять файлы к сообщениямВы можете скачивать файлы

    piratbit.ru

    Скачать торрент Инфекция: Дилогия / Contracted: Dilogy (2013-2015) BDRip от Twi7ter

    Инфекция / Заражённая: Дилогия

    Год выпуска: 2013-2015Название: Инфекция / Заражённая: ДилогияОригинальное название: Contracted: DilogyСтрана: СШАЖанр: ужасы, триллер, драмаПродолжительность: 01:23:57 / 01:18:25Перевод: Профессиональный (полное дублирование) [Чистый звук]

    Релиз: &

    Инфекция / Заражённая (2013)

    Инфекция / Заражённая / Contracted

    Год выпуска: 2013Страна: СШАЖанр: триллер, ужасы, драмаПродолжительность: 01:23:57Перевод: Профессиональный (полное дублирование) [Чистый звук]Субтитры: НетРежиссер: Эрик Инглэнд / Eric EnglandВ ролях: Неджарра Таунсенд (Samantha), Кэролин Уильямс (Sam's Mom), Элис МакДональд (Alice), Кэти Стеджман (Nikki), Мэтт Мерсер (Riley), Чарли Кунц (Zain), Саймон Баррет (BJ), Рубен Пла (Doctor), Дэйв Холмс (Therapist), Селия Финкельштейн (Woman #1), Лаура Баггетт (Woman #2), Дэвид Бауман (Customer)Описание: Фильм рассказывает о страшной вирусной болезни, преследующей молодую женщину Саманту после того, как она провела «незащищенную» ночь любви со случайным незнакомцем после пьяной вечеринки. То, что поначалу кажется ей обычной половой инфекцией, оборачивается в итоге настоящим кошмаром...Рейтинг: Качество: BDRip | исх. Contracted 2013 1080p BluRay Remux AVC DTS-HD MA 5.1-BOGUS |Формат: AVIВидео кодек: XviDАудио кодек: AC3Видео: 720x304 (2.37:1), 23.976 fps, XviD build 50 ~2034 kbps avg, 0.39 bit/pixelАудио №1: 48 kHz, AC3 Dolby Digital, 2/0 (L,R) ch, ~192 kbps - RUSАудио №2: 48 kHz, AC3 Dolby Digital, 2/0 (L,R) ch, ~256 kbps - ENG

    Инфекция: Фаза 2 / Заражённая 2 (2015)

    Инфекция: Фаза 2 / Заражённая 2 / Contracted: Phase II

    «Предохраняться поздно»

    Год выпуска: 2015Страна: СШАЖанр: ужасы, триллер, драмаПродолжительность: 01:18:25Перевод: Профессиональный (полное дублирование) [Чистый звук]Субтитры: НетРежиссер: Джош Форбс / Josh ForbesВ ролях: Мэтт Мерсер (Riley), Марианна Палка (Crystal Young), Морган Питер Браун (BJ), Анна Лоре (Harper), Лорел Вэйл (Brenda), Питер Силелла (James), Джон Эннис (Special Agent Dalton), Неджарра Таунсенд (Samantha England), Ричард Рили (Deuge Gelman), Сюзанн Восс (Margie), Чарли Кунц (Zain), Элис МакДональд (Alice Patrick, хроника)Описание: Райли, герой первой части, пытается найти лекарство от вируса, которым заразила его Саманта, до того, как он поразит его и весь остальной мир.Рейтинг: Качество: BDRip | исх. Contracted.Phase.II.2015.1080p.BluRay.AVC.DTS-HD.MA.5.1 |Формат: AVIВидео кодек: XviDАудио кодек: AC3Видео: 720x304 (2.37:1), 23.976 fps, XviD build 50 ~2210 kbps avg, 0.42 bit/pixelАудио №1: 48 kHz, AC3 Dolby Digital, 2/0 (L,R) ch, ~192 kbps - RUSАудио №2: 48 kHz, AC3 Dolby Digital, 2/0 (L,R) ch, ~256 kbps - ENG

    krutor.org

    Скачать фильм Инфекция через торрент в хорошем качестве бесплатно 720p

    GeneralUnique ID : 230626080357120243956491106506046115768 (0xAD80F7A84A1A81C6B269C0D653130FB8)Complete name : D:\Торенты\Infekciya.2013.D.BDRip.720p.Freerutor.mkvFormat : MatroskaFormat version : Version 4 / Version 2File size : 3.38 GiBDuration : 1h 23mnOverall bit rate : 5 774 KbpsEncoded date : UTC 2015-12-16 09:28:37Writing application : mkvmerge v8.2.0 ('World of Adventure') 64bitWriting library : libebml v1.3.1 + libmatroska v1.4.2

    VideoID : 1Format : AVCFormat/Info : Advanced Video CodecFormat profile : [email protected] settings, CABAC : YesFormat settings, ReFrames : 5 framesCodec ID : V_MPEG4/ISO/AVCDuration : 1h 23mnBit rate : 4 940 KbpsWidth : 1 280 pixelsHeight : 544 pixelsDisplay aspect ratio : 2.35:1Frame rate : 24.000 fpsColor space : YUVChroma subsampling : 4:2:0Bit depth : 8 bitsScan type : ProgressiveBits/(Pixel*Frame) : 0.296Stream size : 2.83 GiB (84%)Writing library : x264 core 142 r2389 956c8d8Encoding settings : cabac=1 / ref=5 / deblock=1:0:0 / analyse=0x3:0x133 / me=umh / subme=8 / psy=1 / psy_rd=1.00:0.00 / mixed_ref=1 / me_range=16 / chroma_me=1 / trellis=1 / 8x8dct=1 / cqm=0 / deadzone=21,11 / fast_pskip=0 / chroma_qp_offset=-2 / threads=12 / lookahead_threads=2 / sliced_threads=0 / nr=0 / decimate=1 / interlaced=0 / bluray_compat=0 / constrained_intra=0 / bframes=3 / b_pyramid=2 / b_adapt=1 / b_bias=0 / direct=1 / weightb=1 / open_gop=0 / weightp=2 / keyint=250 / keyint_min=24 / scenecut=40 / intra_refresh=0 / rc_lookahead=40 / rc=2pass / mbtree=1 / bitrate=4940 / ratetol=1.0 / qcomp=0.60 / qpmin=0 / qpmax=69 / qpstep=4 / cplxblur=20.0 / qblur=0.5 / ip_ratio=1.40 / aq=1:1.00Language : EnglishDefault : YesForced : No

    Audio #1ID : 2Format : AC-3Format/Info : Audio Coding 3Mode extension : CM (complete main)Codec ID : A_AC3Duration : 1h 23mnBit rate mode : ConstantBit rate : 192 KbpsChannel(s) : 2 channelsChannel positions : Front: L RSampling rate : 48.0 KHzBit depth : 16 bitsCompression mode : LossyStream size : 115 MiB (3%)Language : RussianDefault : YesForced : Yes

    Audio #2ID : 3Format : AC-3Format/Info : Audio Coding 3Mode extension : CM (complete main)Codec ID : A_AC3Duration : 1h 23mnBit rate mode : ConstantBit rate : 640 KbpsChannel(s) : 2 channelsChannel positions : Front: L RSampling rate : 48.0 KHzBit depth : 16 bitsCompression mode : LossyStream size : 384 MiB (11%)Language : EnglishDefault : NoForced : No

    TextID : 4Format : UTF-8Codec ID : S_TEXT/UTF8Codec ID/Info : UTF-8 Plain TextLanguage : EnglishDefault : NoForced : No

    piratbit.ru


    Смотрите также