Иллюзия обмана скачать торрент в хорошем качестве


Скачать торрент Иллюзия обмана / Now You See Me (2013) BDRip HEVC 720p | D

Название: Иллюзия обмана [Расширения версия]Оригинальное название: Now You See Me [Extended Cut]

Год выпуска: 2013Страна: Франция, СШАЖанр: триллер, криминал, детективПродолжительность: 02:04:48Перевод: Дублированный + авторский на расширенные сценыСубтитры: Русские (Full Notabenoid), английские (Full, SDH)В ролях: Марк Руффало, Джесси Айзенберг, Вуди Харрельсон, Айла Фишер, Дэйв Франко, Мелани Лоран, Морган Фриман, Майкл Кейн, Майкл КеллиРежиссёр: Луи ЛетерьеОписание: Команда лучших иллюзионистов мира проворачивает дерзкие ограбления прямо во время своих шоу, играя в кошки-мышки с агентами ФБР.Качество: BDRip, 720p, H.265Формат: MKVВидео кодек: x265Аудио кодек: AC3Видео: 1192x536, 23,976 fps, HEVC, ~3160 kbpsАудио 1: Rus, 48 kHz/16-bit, AC3 5.1, ~448 kbps | Дубляж + AVO Ю. Сербин (на расширенные сцены)Аудио 2: Eng, 48 kHz/16-bit, AC3 5.1, ~448 kbps | ОригиналНавигация по главам: ПрисутствуcетАвтор рипа: Alex_A

Внимание!

H.265/HEVC (High Efficiency Video Coding) - это новый стандарт кодирования видео. Стандарт H.265/HEVC является логическим продолжением стандарта H.264/AVC (Advanced Video Coding), и характеризуется более эффективными алгоритмами сжатия, а также поддержкой высокого разрешения вплоть до 8K UHD (8192x4320). Первая версия стандарта H.265 была опубликована в начале 2013 года. Рипы в фомате HEVC, в настоящее время не поддерживается большинством аппаратных проигрывателей. Для корректного воспроизведения может потребоваться обновление ПО. Владельцам несовместимого железа просьба не беспокоить, есть альтернативные релизы.

Медиаинфо

Общее Уникальный идентификатор : 230534123840276767013451950677136313233 (0xAD6F41D9DF1FAD47947B688824290B91) Полное имя : f:HEVCNow You See Me (2013)Now.You.See.Me.2013.Extended Cut.720p_HEVCCLUB.mkv Формат : Matroska Версия формата : Version 4 / Version 2 Размер файла : 3,61 Гбайт Продолжительность : 2 ч. 4 м. Общий поток : 4138 Кбит/сек Название фильма : Now You See Me (2013) Extended Cut - HEVC.CLUB Дата кодирования : UTC 2016-05-07 20:42:11 Программа кодирования : mkvmerge v9.1.0 ('Little Earthquakes') 64bit Библиотека кодирования : libebml v1.3.3 + libmatroska v1.4.4 Attachements : cover.jpg DURATION : 01:59:59.608000000 NUMBER_OF_FRAMES : 2081 NUMBER_OF_BYTES : 69909 _STATISTICS_WRITING_APP : mkvmerge v9.1.0 ('Little Earthquakes') 64bit _STATISTICS_WRITING_DATE_UTC : 2016-05-07 20:42:11 _STATISTICS_TAGS : BPS DURATION NUMBER_OF_FRAMES NUMBER_OF_BYTES

Видео Идентификатор : 1 Формат : HEVC Формат/Информация : High Efficiency Video Coding Профиль формата : [email protected]@Main Идентификатор кодека : V_MPEGH/ISO/HEVC Битрейт : 3160 Кбит/сек Ширина : 1280 пикселей Высота : 536 пикселей Соотношение сторон : 2,40:1 Соотношение сторон в оригинале : 2,40:1 Режим частоты кадров : Переменный Частота кадров в оригинале : 23,976 кадра/сек Цветовое пространство : YUV Субдискретизация насыщенности : 4:2:0 Битовая глубина : 8 бит Заголовок : HEVC.CLUB Библиотека кодирования : x265 1.9+87-9915f21db1c2:[Windows][GCC 5.3.0][64 bit] 8bit Настройки программы : wpp / ctu=64 / min-cu-size=8 / max-tu-size=32 / tu-intra-depth=1 / tu-inter-depth=1 / me=3 / subme=6 / merange=57 / no-rect / no-amp / max-merge=2 / temporal-mvp / no-early-skip / rdpenalty=0 / no-tskip / no-tskip-fast / strong-intra-smoothing / no-lossless / no-cu-lossless / no-constrained-intra / no-fast-intra / open-gop / no-temporal-layers / interlace=0 / keyint=230 / min-keyint=23 / scenecut=40 / rc-lookahead=40 / lookahead-slices=0 / bframes=8 / bframe-bias=0 / b-adapt=2 / ref=5 / limit-refs=3 / no-limit-modes / weightp / weightb / aq-mode=1 / qg-size=32 / aq-strength=1.00 / cbqpoffs=0 / crqpoffs=0 / rd=3 / psy-rd=2.00 / rdoq-level=0 / psy-rdoq=0.00 / no-rd-refine / signhide / deblock=-3:-3 / sao / no-sao-non-deblock / b-pyramid / cutree / no-intra-refresh / rc=2 / pass / bitrate=3242 / qcomp=0.60 / qpmin=0 / qpmax=51 / qpstep=4 / cplxblur=20.0 / qblur=0.5 / ipratio=1.40 / pbratio=1.30 Default : Да Forced : Нет DURATION : 02:04:48.153000000 NUMBER_OF_FRAMES : 179536 NUMBER_OF_BYTES : 3032150194 _STATISTICS_WRITING_APP : mkvmerge v9.1.0 ('Little Earthquakes') 64bit _STATISTICS_WRITING_DATE_UTC : 2016-05-07 20:42:11 _STATISTICS_TAGS : BPS DURATION NUMBER_OF_FRAMES NUMBER_OF_BYTES

Аудио #1 Идентификатор : 2 Формат : AC-3 Формат/Информация : Audio Coding 3 Расширение режима : CM (complete main) Параметр Endianness формата : Big Идентификатор кодека : A_AC3 Продолжительность : 2 ч. 4 м. Вид битрейта : Постоянный Битрейт : 448 Кбит/сек Каналы : 6 каналов Расположение каналов : Front: L C R, Side: L R, LFE Частота : 48,0 КГц Метод сжатия : С потерями Размер потока : 400 Мбайт (11%) Заголовок : DUB + AVO Ю. Сербин Язык : Russian Default : Да Forced : Нет

Аудио #2 Идентификатор : 3 Формат : AC-3 Формат/Информация : Audio Coding 3 Расширение режима : CM (complete main) Параметр Endianness формата : Big Идентификатор кодека : A_AC3 Продолжительность : 2 ч. 4 м. Вид битрейта : Постоянный Битрейт : 448 Кбит/сек Каналы : 6 каналов Расположение каналов : Front: L C R, Side: L R, LFE Частота : 48,0 КГц Метод сжатия : С потерями Размер потока : 400 Мбайт (11%) Заголовок : Original Язык : English Default : Нет Forced : Нет DURATION : 02:04:48.128000000 NUMBER_OF_FRAMES : 234004 NUMBER_OF_BYTES : 419335168 _STATISTICS_WRITING_APP : mkvmerge v9.1.0 ('Little Earthquakes') 64bit _STATISTICS_WRITING_DATE_UTC : 2016-05-07 20:42:11 _STATISTICS_TAGS : BPS DURATION NUMBER_OF_FRAMES NUMBER_OF_BYTES

Текст #1 Идентификатор : 4 Формат : UTF-8 Идентификатор кодека : S_TEXT/UTF8 Идентификатор кодека/Информация : UTF-8 Plain Text Заголовок : Full Notabenoid Язык : Russian Default : Нет Forced : Нет

Текст #2 Идентификатор : 5 Формат : UTF-8 Идентификатор кодека : S_TEXT/UTF8 Идентификатор кодека/Информация : UTF-8 Plain Text Заголовок : Full Язык : English Default : Нет Forced : Нет

Текст #3 Идентификатор : 6 Формат : UTF-8 Идентификатор кодека : S_TEXT/UTF8 Идентификатор кодека/Информация : UTF-8 Plain Text Заголовок : Full SDH Язык : English Default : Нет Forced : Нет

Меню 00:00:00.000 : en:00:00:00.000 00:08:26.548 : en:00:08:26.548 00:14:41.923 : en:00:14:41.923 00:21:25.868 : en:00:21:25.868 00:32:02.003 : en:00:32:02.003 00:39:29.158 : en:00:39:29.158 00:47:07.199 : en:00:47:07.199 00:56:43.441 : en:00:56:43.441 01:04:35.371 : en:01:04:35.371 01:10:23.135 : en:01:10:23.135 01:20:04.549 : en:01:20:04.549 01:29:01.002 : en:01:29:01.002 01:35:22.883 : en:01:35:22.883 01:44:06.281 : en:01:44:06.281 01:45:47.507 : en:01:45:47.507 01:54:24.607 : en:01:54:24.607

krutor.org

Скачать фильм Иллюзия обмана через торрент в хорошем качестве бесплатно BDRip

Раздают: 3 [ 0 KB/s ]
Размер: 2.18 GB | Добавлен: 4 года 1 мес. назад | Торрент скачан:2590 раз
Реклама Дарим 3000 рублей за регистрацию, не упусти свой шанс получить шикарный бонус!!!

15-09-2013 09:27 Иллюзия обмана Скачать торрент  

Иллюзия обмана / Now You See Me«Чем вы ближе, тем меньше вы видите.»
  • Год выпуска:2013
  • Страна:Франция, США
  • Жанр:триллер, криминал, детектив
  • Продолжительность: 01:55:21
  • Перевод:Профессиональный (полное дублирование) [лицензия]
  • Субтитры: Английские (внешние srt*) -отдельно
    • Режиссер:Луи Летерье / Louis Leterrier
    • Сценарий: Боаз Якин / Boaz Yakin, Эд Соломон / Ed Solomon
    • Продюсер: Бобби Коэн / Bobby Cohen, Алекс Куртцман / Alex Kurtzman, Роберто Орси / Roberto Orci, Майкл Шефер / Michael Schaefer, Юки Суга / Yuki Suga
  • В ролях:Марк Руффало (Dylan Rhodes), Джесси Айзенберг (J. Daniel Atlas), Вуди Харрельсон (Merritt McKinney), Айла Фишер (Henley Reeves), Дэйв Франко (Jack Wilder), Мелани Лоран (Alma Dray), Морган Фриман (Thaddeus Bradley), Майкл Кейн (Arthur Tressler), Майкл Келли (Agent Fuller), Коммон (Evans), Дэвид Уоршофски (Cowan), Хосе Гарсия (Etienne Forcier)
    • Описание:Команда лучших иллюзионистов мира проворачивает дерзкие ограбления прямо во время своих шоу, играя в кошки-мышки с агентами ФБР.
  • Рейтингkinopoisk.ru: 7.927 (66 619)imdb.com: 7.30 (136 602)MPAA: PG-13 - Детям до 13 лет просмотр не желателен
      Автор рипа: : kingsize87
    • Качество:BDRip
    • Формат:AVI
    • Видео кодек: XviD
    • Аудио кодек:AC3
    • Видео: XviD, 720x304 (2.35:1), 1797 kbps, 23,976 fps, 0,342 bpp
    • Аудио №1: AC3 / 5.1 / 48 kHz / 448 kbps / 16 bit(RUS)
    • Аудио №2: AC3 / 5.1 / 48 kHz / 448 kbps / 16 bit(ENG)
    GeneralComplete name : D:ТорентыIllyuziya.obmana.TC.2013.DUAL.BDRip.XviD.AC3.-HQCLUB.aviFormat : AVIFormat/Info : Audio Video InterleaveFormat profile : OpenDMLFile size : 2.18 GiBDuration : 1h 55mnOverall bit rate : 2 711 KbpsMovie name : Иллюзия обмана / Now You See Me [Theatrical Cut] (2013) BDRipDirector : kingsize87Writing application : VirtualDubMod 1.5.10.2 (build 2540/release)Copyright : HQCLUBComment : 15.09.2013

    VideoID : 0Format : MPEG-4 VisualFormat profile : Advanced [email protected] settings, BVOP : 1Format settings, QPel : NoFormat settings, GMC : No warppointsFormat settings, Matrix : CustomCodec ID : XVIDCodec ID/Hint : XviDDuration : 1h 55mnBit rate : 1 797 KbpsWidth : 720 pixelsHeight : 304 pixelsDisplay aspect ratio : 2.35:1Frame rate : 23.976 fpsColor space : YUVChroma subsampling : 4:2:0Bit depth : 8 bitsScan type : ProgressiveCompression mode : LossyBits/(Pixel*Frame) : 0.342Stream size : 1.45 GiB (66%)Writing library : XviD 65

    Audio #1ID : 1Format : AC-3Format/Info : Audio Coding 3Mode extension : CM (complete main)Codec ID : 2000Duration : 1h 55mnBit rate mode : ConstantBit rate : 448 KbpsChannel(s) : 6 channelsChannel positions : Front: L C R, Side: L R, LFESampling rate : 48.0 KHzBit depth : 16 bitsCompression mode : LossyStream size : 370 MiB (17%)Alignment : Split accross interleavesInterleave, duration : 42 ms (1.00 video frame)Interleave, preload duration : 500 ms

    Audio #2ID : 2Format : AC-3Format/Info : Audio Coding 3Mode extension : CM (complete main)Codec ID : 2000Duration : 1h 55mnBit rate mode : ConstantBit rate : 448 KbpsChannel(s) : 6 channelsChannel positions : Front: L C R, Side: L R, LFESampling rate : 48.0 KHzBit depth : 16 bitsCompression mode : LossyStream size : 370 MiB (17%)Alignment : Split accross interleavesInterleave, duration : 42 ms (1.00 video frame)Interleave, preload duration : 500 ms

    • Колода карт, используемая в фильме, реально существует, и ее можно купить в одном из американских интернет-магазинов фокусов и карт (theory11). Колода называется Monarchs.
    • В самом начале фильма, до того как герой Джесси Айзенберга показывает фокус с семеркой бубен, он крутит в руках карты. Это направление в магии называется cardistry. Человек должен наиболее красиво и сложно крутить карты в руках. Естественно, Джесси не сам делал этот сложный трюк. Дублерами для его рук выступили братья-близнецы Дэн и Дэйв Баки (Dan and Dave Buck). Также братья выступали в качестве консультантов для других актеров.
    • Фильм снимался в Нью-Йорке, Лас-Вегасе, Париже и Новом Орлеане, причем столица Луизианы попала в кадр в период праздника Марди Гра.
    • Чтобы освоить технику гипноза и внушения и правдоподобно воплотить менталиста, Вуди Харрельсон на протяжении нескольких недель занимался с настоящим психологом-манипулятором.
    • Джесси Айзенберг был первым актером, подписавшимся на проект.
    • Готовясь к роли, Айла Фишер смотрела документальные фильмы о фокусниках. В частности, она изучила работу Гарри Гудини.
    • Многие фокусы актеры выполняли сами. Создатели стремились минимизировать операторские трюки при съемках сценических номеров.
    • Джейк Джилленхол рассматривался на роль в фильме, но отказался. В итоге роль отошла Марку Руффало.
    • Филип Сеймур Хоффман, Джим Керри, Хью Грант, Саша Барон Коэн и Колин Фёрт рассматривались на главную роль в фильме, прежде чем было принято решение взять на нее более молодого актера.
    • Оливии Уайлд предлагали роль в этом фильме.
    • Аманда Сайфред рассматривалась на роль в фильме, но в итоге образ достался Айле Фишер.
    • Андреа Райзборо рассматривалась на роль Хенли.
    • Во время съемок фильма Майкл Кейн оказался запертым в раздевалке на целую ночь. Кейн заснул после съемок и не услышал, когда режиссер объявил об окончании рабочего дня. Все думали, что Кейн уже ушел, и съемочную площадку закрыли. Кейн проснулся в кромешной тьме и смог покинуть помещение только утром, когда кто-то услышал его крики о помощи.
    • В первоначальном варианте сценария среди «Четырех всадников» не было ни одной женщины.
    • еще 11 фактов
    • Когда француз находится в хранилище с деньгами, а его просят положить билет и карту между деньгами, он кладет правой рукой. Когда кадр переключается на камеру со шлема, то он кладет левой рукой.
    • Во время первого фокуса, когда француза ведут на сцену, параллельно происходит диалог с Артуром Тесслером. При этом за спиной фокусников видны белые штаны француза, который стоит в центре круга. Однако в следующей сцене он лишь поднимается в круг, а МакКини встречает его.
    • На шлеме телепортации отсутствует камера, которая транслирует лицо француза во время фокуса. Таковая должна была бы находиться прямо перед его лицом, но ничего подобного нет.
    © Оформление by Vetal
  • Скачать Иллюзия обмана через торрент http://pic.pb.wtf/images/3/kped3h6ejy.png Скачать фильм Иллюзия обмана через торрент бесплантно в хорошем качестве Описание:Команда лучших иллюзионистов мира проворачивает дерзкие ограбления прямо во время своих шоу, играя в кошки-мышки с агентами ... 2013-09-15 09:27 9.7 10 33

    Loading...

    Loading...

    % Раздел Тема Автор DL S | L
    Ultra HD (UHD: 2K, 4K, 8K) — видео сверхвысокой чёткости [ 57.67 GB ] Иллюзия обмана 2 / Now You See Me 2 [2016 UHD BDRemux 2160p] DUB [] bober100 Скачать
    Фильмы с авторской озвучкой [ 1.47 GB ] Иллюзия обмана 2 / Now You See Me 2 [2016 BDRip] [AVO] killermax2013 Скачать
    Фильмы (DVD фильмы) [ 7.53 GB ] Иллюзия обмана 2 / Now You See Me 2 [2016 DVD9] R5 voovaz Скачать
    Фильмы 2016 [DVDrip, WEB-DLRip, HDrip] (DUB, MVO) [ 2.18 GB ] Иллюзия обмана 2 / Now You See Me 2 [2016 HDRip ] coc900 Скачать
    Фильмы 2016 [DVDrip, WEB-DLRip, HDrip] (DUB, MVO) [ 1.46 GB ] Иллюзия обмана 2 / Now You See Me 2 [2016 Китай BDRip-AVC от sokol_ok] sokol_ok Скачать
    Фильмы (Blu-ray, BD-Remux, HDDVD) [ 21.48 GB ] Иллюзия обмана 2 / Now You See Me 2 [2016 Blu-ray disc 1080p] [RUS] Dub voovaz Скачать
    Фильмы 2016 [DVDrip, WEB-DLRip, HDrip] (DUB, MVO) [ 2.91 GB ] Иллюзия обмана 2 / Now You See Me 2 [2016 BDRip-AVC] [US-Transfer] potroks Скачать

    Рекламный пират

    21-09-2013 04:01 Иллюзия обмана Скачать торрент  

    Хороший фильм, смотрел с удовольствием!

    25-08-2016 16:09 Иллюзия обмана Скачать торрент  

    Пожалуйста раздачу))

    Дорогой пользователь! Огромная просьба, поблагодарите релизера, оцените раздачу и оставьте свои комментарий, если Вы скачали Иллюзия обмана через торрент бесплатно! Внесите свою лепту в развитие PiratBit!

    Комментировать посты могут только пользователи прошедшие не сложную регистрацию

    Иллюзия обмана через торрент Скачать бесплатно Иллюзия обмана Иллюзия обмана скачать торрент Иллюзия обмана смотреть онлайн Cкачать фильм Иллюзия обмана бесплатно Иллюзия обмана скачать торрент в хорошем качестве Иллюзия обмана смотреть онлайн бесплатно в хорошем качестве

    Вы не можете начинать темыВы не можете отвечать на сообщенияВы не можете редактировать свои сообщенияВы не можете удалять свои сообщенияВы не можете голосовать в опросахВы не можете прикреплять файлы к сообщениямВы можете скачивать файлы

    piratbit.ru

    Иллюзия обмана через торрент в хорошем качестве бесплатно HDRip

    Раздают: 1 [ 0 KB/s ]
    Размер: 1.34 GB | Добавлен: 1 год 1 мес. назад | Торрент скачан:122 раза
    Реклама Дарим 3000 рублей за регистрацию, не упусти свой шанс получить шикарный бонус!!!

    28-08-2016 17:02 Дилогия : Иллюзия обмана Скачать торрент  

    Иллюзия обмана / Now You See Me«Чем вы ближе, тем меньше вы видите» Год выпуска: 2013Страна: Франция, СШАЖанр: триллер, криминал, детективПродолжительность: 01:55:00Перевод: Дубляж лицензия + вставки Ю.СербинСубтитры: РусскиеРежиссер: Луи ЛетерьеВ ролях: Марк Руффало, Джесси Айзенберг, Вуди Харрельсон, Айла Фишер, Дэйв Франко, Мелани Лоран, Морган Фриман, Майкл Кейн, Майкл КеллиОписание: Команда лучших иллюзионистов мира проворачивает дерзкие ограбления прямо во время своих шоу, играя в кошки-мышки с агентами ФБР. Качество: HDRip by MeMoRiSeФормат: aviВидео кодек: XviDАудио кодек: AC3Видео: MPEG4, XviD, 720x304 (2.35:1), 23.976 fps, 563 Kbps (0.107 bit/pixel)Аудио: AC-3, 48.0 KHz, 2 ch, 192 Kbps, CBR Иллюзия обмана 2 / Now You See Me 2«Вы еще ничего не видели» Год выпуска: 2013Страна: Франция, СШАЖанр: боевик, триллер, комедия, криминал, детектив, приключенияПродолжительность 02:09:00Перевод: Дублированный Лицензия iTunesСубтитры: Английские Вшитые неотключаемыеРежиссер: Джон М. ЧуВ ролях: Марк Руффало, Джесси Айзенберг, Вуди Харрельсон, Айла Фишер, Дэйв Франко, Мелани Лоран, Морган Фриман, Майкл Кейн, Майкл КеллиОписание: «Четыре всадника», команда лучших иллюзионистов мира, снова в сборе! Их «магия» стала еще совершеннее, а враги — опаснее. На сей раз им предстоит спасти свою репутацию и вывести на чистую воду жестокого техномагната… Качество: HDRip by MeMoRiSeФормат: aviВидео кодек: XviDАудио кодек: AC3Видео: MPEG4, XviD, 720x400 (16:9), 24.000 fps, 525 Kbps (0.076 bit/pixel)Аудио: AC-3, 48.0 KHz, 2 ch, 192 Kbps, CBR Скачать Дилогия : Иллюзия обмана через торрент http://i77.fastpic.ru/big/2016/0417/a7/808a646271c761f7c7d87df3d366b3a7.png Скачать фильм Дилогия : Иллюзия обмана через торрент бесплантно в хорошем качестве Описание: Команда лучших иллюзионистов мира проворачивает дерзкие ограбления прямо во время своих шоу, играя в кошки-мышки с агентами ... 2016-08-28 17:34 8.6 10 9

    Loading...

    Loading...

    Последний раз редактировалось: MeMoRiSe (2016-08-29 09:07), всего редактировалось 1 раз

    Рекламный пират

    29-08-2016 04:17 Дилогия : Иллюзия обмана Скачать торрент  

    Первая часть по лучше,чем вторая)

    29-08-2016 04:56 Дилогия : Иллюзия обмана Скачать торрент  

    bober100 писал(а):

    Первая часть по лучше,чем вторая)

    это правда

    29-08-2016 17:03 Дилогия : Иллюзия обмана Скачать торрент  

    сюжет за хвост притянутый, да и много с первой частью не сходиться)

    29-08-2016 22:18 Дилогия : Иллюзия обмана Скачать торрент  

    мне 1 часть лучше кажется

    Дорогой пользователь! Огромная просьба, поблагодарите релизера, оцените раздачу и оставьте свои комментарий, если Вы скачали Дилогия : Иллюзия обмана через торрент бесплатно! Внесите свою лепту в развитие PiratBit!

    Комментировать посты могут только пользователи прошедшие не сложную регистрацию

    Дилогия : Иллюзия обмана через торрент Скачать бесплатно Дилогия : Иллюзия обмана Дилогия : Иллюзия обмана скачать торрент Дилогия : Иллюзия обмана смотреть онлайн Cкачать фильм Дилогия : Иллюзия обмана бесплатно Дилогия : Иллюзия обмана скачать торрент в хорошем качестве Дилогия : Иллюзия обмана смотреть онлайн бесплатно в хорошем качестве

    Вы не можете начинать темыВы не можете отвечать на сообщенияВы не можете редактировать свои сообщенияВы не можете удалять свои сообщенияВы не можете голосовать в опросахВы не можете прикреплять файлы к сообщениямВы можете скачивать файлы

    piratbit.ru

    Скачать фильм Иллюзия обмана через торрент в хорошем качестве бесплатно HDRip

    Раздают: 5 [ 0 KB/s ]
    Размер: 2.05 GB | Добавлен: 3 года 8 мес. назад | Торрент скачан:7516 раз
    Реклама Дарим 3000 рублей за регистрацию, не упусти свой шанс получить шикарный бонус!!!

    29-08-2013 19:56 Иллюзия обмана Скачать торрент  

    Иллюзия обмана / Now You See Me«Чем вы ближе, тем меньше вы видите.»
  • Год выпуска:2013
  • Страна:Франция, США
  • Жанр:триллер, криминал, детектив
  • Продолжительность: 01:55:21
  • Перевод:Профессиональный (полное дублирование) [лицензия]
  • Субтитры: Нет
    • Режиссер:Луи Летерье / Louis Leterrier
    • Сценарий: Боаз Якин / Boaz Yakin, Эд Соломон / Ed Solomon
    • Продюсер: Бобби Коэн / Bobby Cohen, Алекс Куртцман / Alex Kurtzman, Роберто Орси / Roberto Orci, Майкл Шефер / Michael Schaefer, Юки Суга / Yuki Suga
  • В ролях:Марк Руффало (Dylan Rhodes), Джесси Айзенберг (J. Daniel Atlas), Вуди Харрельсон (Merritt McKinney), Айла Фишер (Henley Reeves), Дэйв Франко (Jack Wilder), Морган Фриман (Thaddeus Bradley), Мелани Лоран (Alma Dray), Майкл Кейн (Arthur Tressler), Майкл Келли (Agent Fuller), Коммон (Evans), Дэвид Уоршофски (Cowan), Хосе Гарсия (Etienne Forcier)
    • Описание:Команда лучших иллюзионистов мира проворачивает дерзкие ограбления прямо во время своих шоу, играя в кошки-мышки с агентами ФБР.
  • Рейтингkinopoisk.ru: 7.974 (50 216)imdb.com: 7.30 (98 573)MPAA: PG-13 - Детям до 13 лет просмотр не желателен
    • Качество:HDRip
    • Формат:AVI
    • Видео кодек: XviD
    • Аудио кодек:AC3
    • Видео: XviD, 720x304 (2.35:1), 1695 kbps, 23,976 fps, 0,323 bpp
    • Аудио №1: AC3 / 5.1 / 48 kHz / 384 kbps / 16 bit-RussianАудио №2: AC3 / 5.1 / 48 kHz / 448 kbps / 16 bit-English
    GeneralComplete name : D:ТорентыIluzja.obmana.2013.D.HDRip.aviFormat : AVIFormat/Info : Audio Video InterleaveFormat profile : OpenDMLFile size : 2.05 GiBDuration : 1h 55mnOverall bit rate : 2 546 KbpsWriting application : VirtualDubMod 1.5.10.2 (build 2540/release)Writing library : VirtualDubMod build 2540/release

    VideoID : 0Format : MPEG-4 VisualFormat profile : Advanced [email protected] settings, BVOP : 2Format settings, QPel : NoFormat settings, GMC : No warppointsFormat settings, Matrix : Default (MPEG)Codec ID : XVIDCodec ID/Hint : XviDDuration : 1h 55mnBit rate : 1 696 KbpsWidth : 720 pixelsHeight : 304 pixelsDisplay aspect ratio : 2.35:1Frame rate : 23.976 fpsColor space : YUVChroma subsampling : 4:2:0Bit depth : 8 bitsScan type : ProgressiveCompression mode : LossyBits/(Pixel*Frame) : 0.323Stream size : 1.37 GiB (67%)Writing library : XviD 1.2.1 (UTC 2008-12-04)

    Audio #1ID : 1Format : AC-3Format/Info : Audio Coding 3Mode extension : CM (complete main)Codec ID : 2000Duration : 1h 55mnBit rate mode : ConstantBit rate : 384 KbpsChannel(s) : 6 channelsChannel positions : Front: L C R, Side: L R, LFESampling rate : 48.0 KHzBit depth : 16 bitsCompression mode : LossyStream size : 317 MiB (15%)Alignment : Split accross interleavesInterleave, duration : 42 ms (1.00 video frame)Interleave, preload duration : 500 ms

    Audio #2ID : 2Format : AC-3Format/Info : Audio Coding 3Mode extension : CM (complete main)Codec ID : 2000Duration : 1h 55mnBit rate mode : ConstantBit rate : 448 KbpsChannel(s) : 6 channelsChannel positions : Front: L C R, Side: L R, LFESampling rate : 48.0 KHzBit depth : 16 bitsCompression mode : LossyStream size : 370 MiB (18%)Alignment : Split accross interleavesInterleave, duration : 42 ms (1.00 video frame)Interleave, preload duration : 500 ms

    • Джейк Джилленхол рассматривался на роль в фильме, но отказался. В итоге роль отошла Марку Руффало.
    • Многие фокусы актеры выполняли сами. Создатели стремились минимизировать операторские трюки при съемках сценических номеров.
    • Чтобы освоить технику гипноза и внушения и правдоподобно воплотить менталиста, Вуди Харрельсон на протяжении нескольких недель занимался с настоящим психологом-манипулятором.
    • Фильм снимался в Нью-Йорке, Лас-Вегасе, Париже и Новом Орлеане, причем столица Луизианы попала в кадр в период праздника Марди Гра.
    • Джесси Айзенберг был первым актером, подписавшимся на проект.
    • Готовясь к роли, Айла Фишер смотрела документальные фильмы о фокусниках. В частности, она изучила работу Гарри Гудини.
    • Филип Сеймур Хоффман, Джим Керри, Хью Грант, Саша Барон Коэн и Колин Фёрт рассматривались на главную роль в фильме, прежде чем было принято решение взять на нее более молодого актера.
    • Оливии Уайлд предлагали роль в этом фильме.
    • Аманда Сайфред рассматривалась на роль в фильме, но в итоге образ достался Айле Фишер.
    • Андреа Райзборо рассматривалась на роль Хенли.
    • Во время съемок фильма Майкл Кейн оказался запертым в раздевалке на целую ночь. Кейн заснул после съемок и не услышал, когда режиссер объявил об окончании рабочего дня. Все думали, что Кейн уже ушел, и съемочную площадку закрыли. Кейн проснулся в кромешной тьме и смог покинуть помещение только утром, когда кто-то услышал его крики о помощи.
    • В первоначальном варианте сценария среди «Четырех всадников» не было ни одной женщины.
    • В самом начале фильма, до того как герой Джесси Айзенберга показывает фокус с семеркой бубен, он крутит в руках карты. Это направление в магии называется cardistry. Человек должен наиболее красиво и сложно крутить карты в руках. Естественно, Джесси не сам делал этот сложный трюк. Дублерами для его рук выступили братья-близнецы Дэн и Дэйв Баки (Dan and Dave Buck). Также братья выступали в качестве консультантов для других актеров.
    • Колода карт, используемая в фильме, реально существует, и ее можно купить в одном из американских интернет-магазинов фокусов и карт (theory11). Колода называется Monarchs.
    • еще 11 фактов
    • Когда француз находится в хранилище с деньгами, а его просят положить билет и карту между деньгами, он кладет правой рукой. Когда кадр переключается на камеру со шлема, то он кладет левой рукой.
    © Оформление by Vetal
  • Скачать Иллюзия обмана через торрент http://pic.pb.wtf/images/3/6rrmxzxkm4.jpg Скачать фильм Иллюзия обмана через торрент бесплантно в хорошем качестве Описание:Команда лучших иллюзионистов мира проворачивает дерзкие ограбления прямо во время своих шоу, играя в кошки-мышки с агентами ... 2014-01-30 13:55 9.7 10 585

    Loading...

    Loading...

    % Раздел Тема Автор DL S | L
    Ultra HD (UHD: 2K, 4K, 8K) — видео сверхвысокой чёткости [ 57.67 GB ] Иллюзия обмана 2 / Now You See Me 2 [2016 UHD BDRemux 2160p] DUB [] bober100 Скачать
    Фильмы с авторской озвучкой [ 1.47 GB ] Иллюзия обмана 2 / Now You See Me 2 [2016 BDRip] [AVO] killermax2013 Скачать
    Фильмы (DVD фильмы) [ 7.53 GB ] Иллюзия обмана 2 / Now You See Me 2 [2016 DVD9] R5 voovaz Скачать
    Фильмы 2016 [DVDrip, WEB-DLRip, HDrip] (DUB, MVO) [ 2.18 GB ] Иллюзия обмана 2 / Now You See Me 2 [2016 HDRip ] coc900 Скачать
    Фильмы 2016 [DVDrip, WEB-DLRip, HDrip] (DUB, MVO) [ 1.46 GB ] Иллюзия обмана 2 / Now You See Me 2 [2016 Китай BDRip-AVC от sokol_ok] sokol_ok Скачать
    Фильмы (Blu-ray, BD-Remux, HDDVD) [ 21.48 GB ] Иллюзия обмана 2 / Now You See Me 2 [2016 Blu-ray disc 1080p] [RUS] Dub voovaz Скачать
    Фильмы 2016 [DVDrip, WEB-DLRip, HDrip] (DUB, MVO) [ 2.91 GB ] Иллюзия обмана 2 / Now You See Me 2 [2016 BDRip-AVC] [US-Transfer] potroks Скачать

    Последний раз редактировалось: Ворон (2013-08-29 21:07), всего редактировалось 1 раз

    Рекламный пират

    29-08-2013 20:26 Иллюзия обмана Скачать торрент  

    29-08-2013 20:42 Иллюзия обмана Скачать торрент  

    Фильм супер, впечатлений масса, мне во всяком случае, напомнил "Шерлока Холмса" - всё запутано и не ожидаешь как повернётся сюжет, где то посмеялся, где то взгрустнулось, советую посмотреть большинству аудитории думаю понравится.

    29-08-2013 20:57 Иллюзия обмана Скачать торрент  

    Фильм бомба! Смотреть обязательно!!! Просто супер!!!

    30-08-2013 01:22 Иллюзия обмана Скачать торрент  

    не могу понять, почему у меня на аглийском? Хотя перевод написано "лицензия"...:( так хотел посмотреть, но увы..

    30-08-2013 04:55 Иллюзия обмана Скачать торрент  

    NikSolid писал(а):

    не могу понять, почему у меня на аглийском? Хотя перевод написано "лицензия"...:( так хотел посмотреть, но увы..

    две звуковые дорожки выбери в плеере любую :good:

    30-08-2013 12:15 Иллюзия обмана Скачать торрент  

    "две звуковые дорожки выбери в плеере любую" а как это сделать ?

    30-08-2013 12:21 Иллюзия обмана Скачать торрент  

    а все)разобрался

    30-08-2013 13:04 Иллюзия обмана Скачать торрент  

    фильм на один раз, но постоянно держит в напряжении. Слегка пустоват с точки зрения сюжета, но смотреть жутко любопытно!

    Pекламный агент PB

    30-08-2013 13:37 Иллюзия обмана Скачать торрент  

    Фильм зачетный

    30-08-2013 14:33 Иллюзия обмана Скачать торрент  

    Фильм просто зачет, сюжет развит на +5, самый лучшей фильм вышедшей в 2013 году!!!! советую всем посмотреть!

    30-08-2013 18:32 Иллюзия обмана Скачать торрент  

    ПОЧЕМУ У МЕНЯ не на русском языке???

    30-08-2013 19:00 Иллюзия обмана Скачать торрент  

    режиссерская это та самая полная версия фильма-так как задумал режиссер,остальные это укороченные с вырезаными сценами.

    30-08-2013 19:00 Иллюзия обмана Скачать торрент  

    Отличный фильм. Смотрится легко. Кстати, я тоже загадал бубновую 7 в начале фильма...или это сделали все?...

    30-08-2013 19:36 Иллюзия обмана Скачать торрент  

    Филь действительно неплох. Вот только вся разгадка есть в названии, смотря знаешь чем закончится)

    30-08-2013 20:14 Иллюзия обмана Скачать торрент  

    Посмотрим,что за новиночка

    30-08-2013 22:38 Иллюзия обмана Скачать торрент  

    Отличный фильм!Действительно лучший за последнее время!имхо........Автору благодарность!!!

    Pекламный агент PB

    31-08-2013 04:40 Иллюзия обмана Скачать торрент  

    Почему то две озвучки сразу идут,как выбрать русскую?

    31-08-2013 05:45 Иллюзия обмана Скачать торрент  

    ЧТО СО ЗВУКОМ НИ ГОЛОСА НЕ СЛЫШНО НИ ФОНА......Вы конечно скажите выберите в плеере...НО НЕТУ НАСТРОЕК В ПЛЕЕРЕ НА ТЕЛЕВИЗОРЕ. Потому что я качаю на комп а потом на флешку и с телевизора затем смотрю. Так что кто так смотрит звук ужасенЧто не качать полностью фильм в теме есть сэмпл, для ознакомления с качеством видео и звука.

    МИКЛУХА ДЖЕКС

    31-08-2013 07:59 Иллюзия обмана Скачать торрент  

    pashkaslv писал(а):

    ЧТО СО ЗВУКОМ НИ ГОЛОСА НЕ СЛЫШНО НИ ФОНА......Вы конечно скажите выберите в плеере...НО НЕТУ НАСТРОЕК В ПЛЕЕРЕ НА ТЕЛЕВИЗОРЕ. Потому что я качаю на комп а потом на флешку и с телевизора затем смотрю. Так что кто так смотрит звук ужасен

    Полностью согласен. Звук на телевизоре не айс!

    31-08-2013 12:07 Иллюзия обмана Скачать торрент  

    Фильм супер,очень интересный сюжет,никогда не поймёшь что же будет дальше,концовка супер,не ожидал такого суперского фильма...+10

    31-08-2013 13:21 Иллюзия обмана Скачать торрент  

    добавьте скорости...

    31-08-2013 15:09 Иллюзия обмана Скачать торрент  

    феноменально...всем обязательно смотреть-захватывает с первых минут-не сомневайтесь!!!

    31-08-2013 16:42 Иллюзия обмана Скачать торрент  

    Artlight писал(а):

    фильм на один раз, но постоянно держит в напряжении. Слегка пустоват с точки зрения сюжета, но смотреть жутко любопытно!

    Ну прям как шило в заднице! Сперва определись, потом уже пиши свой словарный понос!

    31-08-2013 16:51 Иллюзия обмана Скачать торрент  

    классный фильм

    Pекламный агент PB

    Дорогой пользователь! Огромная просьба, поблагодарите релизера, оцените раздачу и оставьте свои комментарий, если Вы скачали Иллюзия обмана через торрент бесплатно! Внесите свою лепту в развитие PiratBit!

    Комментировать посты могут только пользователи прошедшие не сложную регистрацию

    Иллюзия обмана через торрент Скачать бесплатно Иллюзия обмана Иллюзия обмана скачать торрент Иллюзия обмана смотреть онлайн Cкачать фильм Иллюзия обмана бесплатно Иллюзия обмана скачать торрент в хорошем качестве Иллюзия обмана смотреть онлайн бесплатно в хорошем качестве

    Вы не можете начинать темыВы не можете отвечать на сообщенияВы не можете редактировать свои сообщенияВы не можете удалять свои сообщенияВы не можете голосовать в опросахВы не можете прикреплять файлы к сообщениямВы можете скачивать файлы

    piratbit.ru


    Смотрите также