Хватай и беги скачать торрент в хорошем качестве hd 1080


Скачать фильм Хватай и беги через торрент в хорошем качестве бесплатно BDRip от Twi7ter

piratbit.ru

Размер: 1.42 GB | Добавлен: 1 год 8 мес. назад | Торрент скачан:765 раз
Реклама Дарим 3000 рублей за регистрацию, не упусти свой шанс получить шикарный бонус!!!

07-02-2016 20:39 Хватай и беги Скачать торрент  

Хватай и беги / Freaks of Nature

«Get out undead or alive»

Год выпуска: 2015Страна: СШАЖанр: ужасы, комедияПродолжительность: 01:32:35Перевод: Профессиональный (многоголосый) [iTunes]Субтитры: НетРежиссер: Робби Пикеринг / Robbie PickeringВ ролях: Николас Браун (Dag), Маккензи Дэвис (Petra), Джош Фэйдем (Ned), Дэнис Лири (Rick Wilson), Эд Вествик (Milan Pinache), Ванесса Энн Хадженс (Lorelei), Кигэн-Майкл Ки (Mr. Keller), Боб Оденкёрк (Shooter Parker), Джоан Кьюсак (Peg Parker), Крис Зилка (Chaz Jr.), Йен Робертс (Chaz Sr.), Рэйчел Харрис (Mrs. Mosely)Описание: Сюжет расскажет о группе учеников старших классов, атакованных зомби. Пока ничего необычного. Однако в то время как школьники спасаются бегством, зомби подвергаются нападению вампиров. Все становится еще веселее, когда на Землю высаживаются инопланетяне. Теперь школьникам придется объединиться с зомби и вампирами, чтобы остановить вторжение на нашу планету.Рейтинг:

MPAA: R - Лицам до 17 лет обязательно присутствие взрослого

Качество: BDRip | исх. Freaks.Of.Nature.2015.1080p.BluRay.AVC.DTS-HD.MA.5.1 |Формат: AVIВидео кодек: XviDАудио кодек: AC3Видео: 720x304 (2.37:1), 23.976 fps, XviD build 73 ~1800 kbps avg, 0.34 bit/pixelАудио: 48 kHz, AC3 Dolby Digital, 3/2 (L,C,R,l,r) + LFE ch, ~384 kbps

Релиз:

Скачать Хватай и беги через торрент http://s016.radikal.ru/i336/1602/fc/1d28ba70a77c.png Скачать фильм Хватай и беги через торрент бесплантно в хорошем качестве Описание: Сюжет расскажет о группе учеников старших классов, атакованных зомби. Пока ничего необычного. Однако в то время как школьники ... 2016-02-07 20:39 9 10 22

Loading...

Loading...

Рекламный пират

07-02-2016 22:09 Хватай и беги Скачать торрент  

Кто смотрел ? Чё , как?!

08-02-2016 00:45 Хватай и беги Скачать торрент  

и снова!загрузил 750 отдал 1450!как???????спасибо!

08-02-2016 02:27 Хватай и беги Скачать торрент  

PIXELINTERLAN писал(а):

Кто смотрел ? Чё , как?!

шедеврально.

08-02-2016 07:35 Хватай и беги Скачать торрент  

Когда не знают что снимать - снимают это.

08-02-2016 17:11 Хватай и беги Скачать торрент  

Теперь школьникам придется объединиться с зомби и вампирами - вау походу шедевр!

08-02-2016 17:43 Хватай и беги Скачать торрент  

Я даже боюсь представить, что употребил создатель сего шедевра???!!! Но смотреть такое думаю не стоит))) Мне хватило описания этого, рука не поднимается написать, фильма...

22-02-2016 20:14 Хватай и беги Скачать торрент  

Шедевр ещё тот)

04-03-2016 22:56 Хватай и беги Скачать торрент  

В теории смешно, на деле ну так... на любителя)

Pекламный агент PB

Дорогой пользователь! Огромная просьба, поблагодарите релизера, оцените раздачу и оставьте свои комментарий, если Вы скачали Хватай и беги через торрент бесплатно! Внесите свою лепту в развитие PiratBit!

Комментировать посты могут только пользователи прошедшие не сложную регистрацию

Хватай и беги через торрент Скачать бесплатно Хватай и беги Хватай и беги скачать торрент Хватай и беги смотреть онлайн Cкачать фильм Хватай и беги бесплатно Хватай и беги скачать торрент в хорошем качестве Хватай и беги смотреть онлайн бесплатно в хорошем качестве

Вы не можете начинать темыВы не можете отвечать на сообщенияВы не можете редактировать свои сообщенияВы не можете удалять свои сообщенияВы не можете голосовать в опросахВы не можете прикреплять файлы к сообщениямВы можете скачивать файлы

Хватай и беги через торрент

Общее Уникальный идентификатор : 227563472177023520895944920386829982015 (0xAB33216A82442FAE8701BDA228A2993F) Полное имя : Hvatay.i.Begi.2015.DUAL.BDRip.x264.by_potroks.mkv Формат : Matroska Версия формата : Version 4 / Version 2 Размер файла : 2,14 Гбайт Продолжительность : 1 ч. 32 м. Общий поток : 3315 Кбит/сек Название фильма : Freaks of Nature (2015) Дата кодирования : UTC 2016-04-04 06:05:08 Программа кодирования : mkvmerge v5.9.0 ('On The Loose') built on Dec 15 2012 16:39:58 Библиотека кодирования : libebml v1.3.0 + libmatroska v1.4.0

Видео Идентификатор : 1 Формат : AVC Формат/Информация : Advanced Video Codec Профиль формата : [email protected] Параметр CABAC формата : Да Параметр ReFrames формата : 10 кадров Идентификатор кодека : V_MPEG4/ISO/AVC Продолжительность : 1 ч. 32 м. Битрейт : 2481 Кбит/сек Ширина : 1056 пикселей Высота : 440 пикселей Соотношение сторон : 2,40:1 Режим частоты кадров : Постоянный Частота кадров : 23,976 кадра/сек Цветовое пространство : YUV Субдискретизация насыщенности : 4:2:0 Битовая глубина : 8 бит Тип развёртки : Прогрессивная Бит/(Пиксели*Кадры) : 0.223 Размер потока : 1,56 Гбайт (73%) Заголовок : potroks Библиотека кодирования : x264 core 148 r2665M a01e339 Настройки программы : cabac=1 / ref=10 / deblock=1:-2:-2 / analyse=0x3:0x133 / me=umh / subme=11 / psy=1 / psy_rd=1.05:0.10 / mixed_ref=1 / me_range=48 / chroma_me=1 / trellis=2 / 8x8dct=1 / cqm=0 / deadzone=21,11 / fast_pskip=0 / chroma_qp_offset=-3 / threads=9 / lookahead_threads=2 / sliced_threads=0 / nr=0 / decimate=1 / interlaced=0 / bluray_compat=0 / constrained_intra=0 / bframes=11 / b_pyramid=2 / b_adapt=2 / b_bias=0 / direct=3 / weightb=1 / open_gop=0 / weightp=2 / keyint=240 / keyint_min=23 / scenecut=40 / intra_refresh=0 / rc=2pass / mbtree=0 / bitrate=2481 / ratetol=1.0 / qcomp=0.70 / qpmin=0 / qpmax=69 / qpstep=4 / cplxblur=20.0 / qblur=0.5 / ip_ratio=1.40 / pb_ratio=1.30 / aq=1:0.80 Язык : English Default : Да Forced : Нет

Аудио #1 Идентификатор : 2 Формат : AC-3 Формат/Информация : Audio Coding 3 Расширение режима : CM (complete main) Параметр Endianness формата : Big Идентификатор кодека : A_AC3 Продолжительность : 1 ч. 32 м. Вид битрейта : Постоянный Битрейт : 384 Кбит/сек Каналы : 6 каналов Расположение каналов : Front: L C R, Side: L R, LFE Частота : 48,0 КГц Метод сжатия : С потерями Размер потока : 254 Мбайт (12%) Заголовок : MVO | DD 5.1 @ 384 kbps - iTunes Язык : Russian Default : Да Forced : Нет

Аудио #2 Идентификатор : 3 Формат : AC-3 Формат/Информация : Audio Coding 3 Расширение режима : CM (complete main) Параметр Endianness формата : Big Идентификатор кодека : A_AC3 Продолжительность : 1 ч. 32 м. Вид битрейта : Постоянный Битрейт : 448 Кбит/сек Каналы : 6 каналов Расположение каналов : Front: L C R, Side: L R, LFE Частота : 48,0 КГц Метод сжатия : С потерями Размер потока : 297 Мбайт (14%) Заголовок : Original | DD 5.1 @ 448 kbps Язык : English Default : Нет Forced : Нет

Текст #1 Идентификатор : 4 Формат : UTF-8 Идентификатор кодека : S_TEXT/UTF8 Идентификатор кодека/Информация : UTF-8 Plain Text Заголовок : Forced Язык : Russian Default : Да Forced : Нет

Текст #2 Идентификатор : 5 Формат : UTF-8 Идентификатор кодека : S_TEXT/UTF8 Идентификатор кодека/Информация : UTF-8 Plain Text Заголовок : iTunes Язык : Russian Default : Нет Forced : Нет

Текст #3 Идентификатор : 6 Формат : UTF-8 Идентификатор кодека : S_TEXT/UTF8 Идентификатор кодека/Информация : UTF-8 Plain Text Заголовок : Forced Язык : Ukrainian Default : Нет Forced : Нет

Текст #4 Идентификатор : 7 Формат : UTF-8 Идентификатор кодека : S_TEXT/UTF8 Идентификатор кодека/Информация : UTF-8 Plain Text Заголовок : iTunes Язык : Ukrainian Default : Нет Forced : Нет

Текст #5 Идентификатор : 8 Формат : UTF-8 Идентификатор кодека : S_TEXT/UTF8 Идентификатор кодека/Информация : UTF-8 Plain Text Заголовок : Full Язык : English Default : Нет Forced : Нет

Текст #6 Идентификатор : 9 Формат : UTF-8 Идентификатор кодека : S_TEXT/UTF8 Идентификатор кодека/Информация : UTF-8 Plain Text Заголовок : SDH Язык : English Default : Нет Forced : Нет

Меню 00:00:00.000 : :(01)00:00:00:000 00:02:47.917 : :(02)00:02:47:917 00:08:05.192 : :(03)00:08:05:192 00:16:22.898 : :(04)00:16:22:898 00:20:46.411 : :(05)00:20:46:411 00:26:36.885 : :(06)00:26:36:885 00:30:45.468 : :(07)00:30:45:468 00:34:58.137 : :(08)00:34:58:137 00:42:08.858 : :(09)00:42:08:858 00:48:36.914 : :(10)00:48:36:914 00:53:13.148 : :(11)00:53:13:148 00:58:32.132 : :(12)00:58:32:132 01:04:02.295 : :(13)01:04:02:295 01:08:30.395 : :(14)01:08:30:396 01:16:03.390 : :(15)01:16:03:390 01:23:48.273 : :(16)01:23:48:273

piratbit.ru

Скачать фильм Хватай и беги (2012) через торрент

gig-torrent.net

30 января 2016 06:18 Хватай и беги / Hit and Run (2012) BDRip 720p от Leonardo and Scarabey | Лицензия .torrent   [Информация о файле (нажмите для просмотра)] Перевод: Профессиональный (многоголосый, закадровый) ЛицензияФормат: MKVВидео кодек: MPEG-4 AVC Аудио кодек: AC3Видео: 1280x536 (2.40:1) at 24.000 fps, AVC at 3610 kbps avg, 0.219 bit/pixelАудио: 48 kHz, AC3 Dolby Digital, 3/2 (L,C,R,l,r) + LFE ch, 448 kbps avg 2,9 Gb 23 8
30 января 2016 06:18 Хватай и беги / Hit and Run (2012) HDRip-AVC от Stalker oK | P | Лицензия .torrent   [Информация о файле (нажмите для просмотра)] Перевод: Профессиональный (многоголосый закадровый) [Лицензия]Качество: HDRip-AVCФормат: MKVВидео: 967 Кбит/сек, 816*340 (2,40:1), в 23,976 кадр/сек, AVCАудио: Russian, 72,0 Кбит/сек, 48,0 КГц / 24,0 КГц, 2 канала(ов), AAC (HE-AAC / LC)Видео: Идентификатор : 1 Формат : AVC Формат/Информация : Advanced Video Codec Профиль формата : [email protected] Параметр CABAC формата : Да Параметр ReFrames формата : 10 кадры Идентификатор кодека : V_MPEG4/ISO/AVC Продолжительность : 1 ч. 39 м. Номинальный битрейт : 967 Кбит/сек Ширина : 816 пикс. Высота : 340 пикс. Соотношение сторон : 2,40:1 Частота кадров : 23,976 кадр/сек Цветовое пространство : YUV Подвыборка цветности : 4:2:0 Битовая глубина : 8 бит Тип развёртки : Прогрессивная Бит/(Пиксели*Кадры) : 0.145 Библиотека кодирования : x264 core 130 r2273 b3065e6 Настройки программы : cabac=1 / ref=10 / deblock=1:-2:-1 / analyse=0x3:0x133 / me=umh / subme=9 / psy=1 / psy_rd=1.00:0.05 / mixed_ref=1 / me_range=32 / chroma_me=1 / trellis=2 / 8x8dct=1 / cqm=0 / deadzone=21,11 / fast_pskip=0 / chroma_qp_offset=-3 / threads=6 / lookahead_threads=1 / sliced_threads=0 / nr=0 / decimate=0 / interlaced=0 / bluray_compat=0 / constrained_intra=0 / bframes=10 / b_pyramid=2 / b_adapt=2 / b_bias=0 / direct=1 / weightb=1 / open_gop=0 / weightp=2 / keyint=240 / keyint_min=23 / scenecut=45 / intra_refresh=0 / rc_lookahead=60 / rc=2pass / mbtree=1 / bitrate=967 / ratetol=1.0 / qcomp=0.60 / qpmin=0 / qpmax=69 / qpstep=4 / cplxblur=20.0 / qblur=0.5 / vbv_maxrate=50000 / vbv_bufsize=50000 / nal_hrd=none / ip_ratio=1.40 / aq=1:1.00 Язык : EnglishАудио: Идентификатор : 2 Формат : AAC Формат/Информация : Advanced Audio Codec Профиль формата : HE-AAC / LC Идентификатор кодека : A_AAC Продолжительность : 1 ч. 39 м. Канал(ы) : 2 канала(ов) Расположение каналов : Front: L R Частота : 48,0 КГц / 24,0 КГц Метод сжатия : С потерями Задержка видео : 31 мс. Язык : Russian 742,86 Mb 26 3
30 января 2016 06:18 Хватай и беги / Hit and Run (2012) BDRip от HQCLUB | Лицензия .torrent   [Информация о файле (нажмите для просмотра)] Перевод: Профессиональный (многоголосый, закадровый) R5Субтитры: английские (полные, SDH)Формат: AVIКачество: BDRip (источник:Видео: 720x304 (2.37:1), 23.976 fps, XviD build 65 ~1689 kbps avg, 0.32 bit/pixelАудио #1: 48 kHz, AC3 Dolby Digital, 3/2 (L,C,R,l,r) + LFE ch, ~384 kbps avg (MVO) R5Аудио #2: 48 kHz, AC3 Dolby Digital, 2/0 (L,R) ch, ~192 kbps avg (VO)(отдельно)Аудио #3: 48 kHz, AC3 Dolby Digital, 3/2 (L,C,R,l,r) + LFE ch, ~384 kbps avg (ENG)(отдельно) 1,45 Gb 47 4
30 января 2016 06:18 Хватай и беги / Hit and Run (2012) HDRip от Torrent-Xzona | КПК | Лицензия .torrent   [Информация о файле (нажмите для просмотра)] Перевод: Профессиональный (многоголосый закадровый) ЛицензияКодек: x264Качество: HDRip | КПКВидео: 480х200, 23,976 кадра/сек, 373 Кбит/секЗвук: AAC, 2 ch, 192 Кб/сек 359,69 Mb 8 4
30 января 2016 06:18 Хватай и беги / Hit and Run (2012) HDRip от Scarabey | Р | Лицензия .torrent   [Информация о файле (нажмите для просмотра)] Перевод: Профессиональный (многоголосый, закадровый) - Лицензия Видео: 720x304 (2.37:1), 23.976 fps, XviD build 73 ~1617 kbps avg, 0.31 bit/pixelАудио: 48 kHz, AC3 Dolby Digital, 3/2 (L,C,R,l,r) + LFE ch, ~448 kbps 1,45 Gb 13 1
30 января 2016 06:18 Хватай и беги / Hit and Run (2012) HDRip от New-Team | Лицензия .torrent   [Информация о файле (нажмите для просмотра)] Перевод: Профессиональный (многоголосый закадровый)Видео: 688x288, 23.976 fps, 1 624 Kbps, Bits/Pixel 0.342Аудио: AC3, 48 kHz, 6 ch, 448 kbps 1,45 Gb 1 2
30 января 2016 06:18 Хватай и беги / Hit and Run (2012) HDRip от Scarabey | Р | Лицензия .torrent   [Информация о файле (нажмите для просмотра)] Перевод: Профессиональный (многоголосый, закадровый) - Лицензия Видео: 688x288 (2.39:1), 23.976 fps, XviD build 73 ~906 kbps avg, 0.19 bit/pixelАудио: 48 kHz, MPEG Layer 3, 2 ch, ~128.00 kbps avg 745,63 Mb 1 9
30 января 2016 06:18 Хватай и беги / Побег / Hit and Run (2012) BDRip-AVC | Лицензия .torrent   [Информация о файле (нажмите для просмотра)] Субтитры: английскиеФормат: mkvКачество: BDRip-AVCВидео: 1693 kb/s, 1024 x 424, 24 fpsАудио: AC3, 384 Kb/s (6 ch)Видео: Идентификатор : 1 Формат : AVC Формат/Информация : Advanced Video Codec Профиль формата : [email protected] Параметр CABAC формата : Да Параметр ReFrames формата : 12 кадров Идентификатор кодека : V_MPEG4/ISO/AVC Продолжительность : 1 ч. 40 м. Битрейт : 1693 Кбит/сек Ширина : 1024 пикселя Высота : 424 пикселя Соотношение сторон : 2,40:1 Соотношение сторон в оригинале : 2,40:1 Режим частоты кадров : Постоянный Частота кадров : 24,000 кадра/сек Цветовое пространство : YUV Субдискретизация насыщенности : 4:2:0 Битовая глубина : 8 бит Тип развёртки : Прогрессивная Бит/(Пиксели*Кадры) : 0.162 Размер потока : 1,16 Гбайт (80%) Заголовок : Hvataj.i.begi.2012.L1.BDRip.h364.1.45GB Библиотека кодирования : x264 core 119 r2106 07efeb4 Настройки программы : cabac=1 / ref=12 / deblock=1:-3:-3 / analyse=0x3:0x113 / me=umh / subme=11 / psy=1 / psy_rd=1.00:0.00 / mixed_ref=1 / me_range=48 / chroma_me=1 / trellis=2 / 8x8dct=1 / cqm=0 / deadzone=21,11 / fast_pskip=1 / chroma_qp_offset=-2 / threads=12 / sliced_threads=0 / nr=0 / decimate=1 / interlaced=0 / bluray_compat=0 / constrained_intra=0 / bframes=7 / b_pyramid=2 / b_adapt=2 / b_bias=0 / direct=3 / weightb=1 / open_gop=0 / weightp=2 / keyint=250 / keyint_min=20 / scenecut=40 / intra_refresh=0 / rc_lookahead=40 / rc=2pass / mbtree=1 / bitrate=1693 / ratetol=1.0 / qcomp=0.70 / qpmin=0 / qpmax=51 / qpstep=4 / cplxblur=20.0 / qblur=0.5 / ip_ratio=1.40 / aq=1:1.00 Default : Нет Forced : НетАудио: Идентификатор : 2 Формат : AC-3 Формат/Информация : Audio Coding 3 Расширение режима : CM (complete main) Параметр Endianness формата : Big Идентификатор кодека : A_AC3 Продолжительность : 1 ч. 40 м. Вид битрейта : Постоянный Битрейт : 384 Кбит/сек Каналы : 6 каналов Расположение каналов : Front: L C R, Side: L R, LFE Частота : 48,0 КГц Битовая глубина : 16 бит Метод сжатия : С потерями Задержка видео : 23 с. Размер потока : 275 Мбайт (18%) Заголовок : AC3.384.Kbps (6 ch) Russian Язык : Russian Default : Да Forced : Нет 1,45 Gb 5 2
30 января 2016 06:18 Хватай и беги / Побег / Hit and Run (2012) DVD9 | Лицензия .torrent   [Информация о файле (нажмите для просмотра)] Формат: DVD VideoКачество: DVDВидео: PAL 16:9 (1024х576"720x576) VBRАудио: Russian / English (Dolby AC3, 6 ch)Субтитры: Нет 5,54 Gb 4 2
30 января 2016 06:18 Хватай и беги / Побег / Hit and Run (2012) HDRip | Лицензия .torrent   [Информация о файле (нажмите для просмотра)] Перевод: Профессиональный (многоголосый)[Лицензия]Кодек: XviDКачество: HDRipВидео: 720x304, 23.976 fps, 2026 KbpsАудио 1: AC3, 48 kHz, 6 ch, 448 kbps[Russian]Аудио 2: AC3, 48 kHz, 6 ch, 448 kbps[English] 2,05 Gb 9 9
30 января 2016 06:18 Хватай и беги / Hit and Run (2012) BDRip 1080p от IRONCLUB | P | Лицензия .torrent   [Информация о файле (нажмите для просмотра)] Качество: BDRip (1080p)Видео: MPEG-4 AVC, 11 Мбит/с, 1920x800Аудио: Русский (АС3, 6 ch, 448 Кбит/с), английский (DTS, 6 ch, 1510 Кбит/с)Перевод: Профессиональный многоголосый [лицензия]Субтитры: Английские 9,03 Gb 6 2
30 января 2016 06:18 Хватай и беги / Hit and Run (2012) BDRip 720p от IRONCLUB | P | Лицензия .torrent   [Информация о файле (нажмите для просмотра)] Качество: BDRip (720p)Видео: MPEG-4 AVC, 7388 Кбит/с, 1280x534Аудио: Русский (АС3, 6 ch, 448 Кбит/с), английский (DTS, 6 ch, 1510 Кбит/с)Перевод: Профессиональный многоголосый [лицензия]Субтитры: Английские 6,65 Gb 4 6

Скачать фильм Хватай и беги через торрент в хорошем качестве бесплатно 1080p

piratbit.ru

Размер: 9.03 GB | Добавлен: 4 года 4 мес. назад | Торрент скачан:101 раз
Реклама Дарим 3000 рублей за регистрацию, не упусти свой шанс получить шикарный бонус!!!

15-06-2013 08:24 Хватай и беги Скачать торрент  

Хватай и беги / Hit and Run
  • Год выпуска
  • :2012
  • Страна: США
  • Жанр:боевик, мелодрама, комедия
  • Продолжительность: 01:39:51
  • Перевод:Профессиональный (многоголосый, закадровый)Лицензия
  • Субтитры: Вшитые отключаемые
  • Язык субтитров: Английский
    • Режиссер
    • : Дэвид Палмер / David Palmer, Дэкс Шепард / Dax Shepard
    • Продюсер: Эндрю Панай / Andrew Panay, Нат Так / Nate Tuck, Ким Уалтрип / Kim Waltrip, Тобин Армруст / Tobin Armbrust, Ховард Янг / Howard Young
    • Сценарий:Дэкс Шепард / Dax Shepard
  • В ролях
  • :Кристен Белл (Annie Bean), Дэкс Шепард (Yul Perrkins a.k.a. Charles Bronson), Брэдли Купер (Alex Dmitri), Том Арнольд (Randy Anderson), Кристин Ченоуэт (Debby Kreeger), Майкл Розенбаум (Gil Rathbinn), Джой Брайант (Neve), Райан Хансен (Allen), Бо Бриджес (Clint Perrkins), Шон Хейс (Sandy Osterman), Джесс Роулэнд (Terry Rathbinn), Карли Хаттер (Angella Roth)
    • Описание
    • :Бывший грабитель банков Чарли, когда-то пошедший на сделку с правосудием, скрывается в маленьком калифорнийском городке: у него свой дом, налаженный быт и любимая девушка Энни. Когда Энни узнает, что у нее есть шанс получить работу мечты в Лос-Анджелесе, она уговаривает Чарли нарушить правила, высунуть нос из городка и отвезти ее на собеседование.Программа по защите свидетелей дает сбой, и на след Чарли выходят его бывшие подельники, во главе с мстительным психопатом Алексом. К погоне также присоединяются неуравновешенный федеральный маршал, приставленный для охраны Чарли, и ревнивый бывший парень Энни. Вместо увеселительной прогулки Чарли ждет непрекращающаяся череда столкновений, ловушек и подстав - не говоря уже о встречах с колоритными жителями Южной Калифорнии, которые вносят дополнительные нотки сумасшествия в и без того безумную гонку.
  • Рейтингkinopoisk.ru: 5.665 (1209)imdb.com: 6.00 (16 383)MPAA: R - Лицам до 17 лет обязательно присутствие взрослого
    • Качество
    • : BDRip 1080p
    • Формат
    : MKV
  • Видео кодек
  • : AVC
  • Аудио кодек
  • : DTS /AC3
  • Видео: 1920x800 (2.40:1), 11000 kbps, 23,976 fps, 0,299 bpp
  • Аудио №1: русский / AC3 / 5.1 / 48 kHz / 448 kbps / 16 bit || , 48 kHz Аудио №2: английский / DTS / 5.1 / 48 kHz / 1510 kbps / 24 bit GeneralUnique ID : 209195993455792848191272203644769599307 (0x9D61AECC4221E59F8570F8FBD6AAFF4B)Complete name : D:ТорентыHvataj.i.begi.2012.P.BDRip.1080p.mkvFormat : MatroskaFormat version : Version 2File size : 9.03 GiBDuration : 1h 39mnOverall bit rate : 13.0 MbpsMovie name : IRONCLUBEncoded date : UTC 2013-06-13 09:13:43Writing application : mkvmerge v5.2.0 ('I can't explain') built on Dec 18 2011 18:12:03Writing library : libebml v1.2.3 + libmatroska v1.3.0

    VideoID : 1Format : AVCFormat/Info : Advanced Video CodecFormat profile : [email protected] settings, CABAC : YesFormat settings, ReFrames : 5 framesCodec ID : V_MPEG4/ISO/AVCDuration : 1h 39mnBit rate : 11.0 MbpsWidth : 1 920 pixelsHeight : 800 pixelsDisplay aspect ratio : 2.40:1Frame rate : 23.976 fpsColor space : YUVChroma subsampling : 4:2:0Bit depth : 8 bitsScan type : ProgressiveBits/(Pixel*Frame) : 0.299Stream size : 7.49 GiB (83%)Title : Hit.and.Run.2012.1080p.BluRay.DTS.x264-HDMaNiAcSWriting library : x264 core 129 r2245 bc13772Encoding settings : cabac=1 / ref=5 / deblock=1:-3:-3 / analyse=0x3:0x113 / me=tesa / subme=11 / psy=1 / psy_rd=1.05:0.00 / mixed_ref=1 / me_range=24 / chroma_me=1 / trellis=2 / 8x8dct=1 / cqm=0 / deadzone=21,11 / fast_pskip=1 / chroma_qp_offset=-2 / threads=12 / lookahead_threads=2 / sliced_threads=0 / nr=0 / decimate=1 / interlaced=0 / bluray_compat=0 / constrained_intra=0 / bframes=8 / b_pyramid=2 / b_adapt=2 / b_bias=0 / direct=3 / weightb=1 / open_gop=0 / weightp=2 / keyint=240 / keyint_min=23 / scenecut=40 / intra_refresh=0 / rc=2pass / mbtree=0 / bitrate=11000 / ratetol=1.0 / qcomp=0.60 / qpmin=10 / qpmax=69 / qpstep=4 / cplxblur=20.0 / qblur=0.5 / ip_ratio=1.40 / pb_ratio=1.30 / aq=2:0.80Language : EnglishDefault : YesForced : Yes

    Audio #1ID : 2Format : AC-3Format/Info : Audio Coding 3Mode extension : CM (complete main)Codec ID : A_AC3Duration : 1h 39mnBit rate mode : ConstantBit rate : 448 KbpsChannel(s) : 6 channelsChannel positions : Front: L C R, Side: L R, LFESampling rate : 48.0 KHzBit depth : 16 bitsCompression mode : LossyStream size : 320 MiB (3%)Title : DD 5.1 @ 448 kbps - MVO, R5Language : RussianDefault : YesForced : Yes

    Audio #2ID : 3Format : DTSFormat/Info : Digital Theater SystemsCodec ID : A_DTSDuration : 1h 39mnBit rate mode : ConstantBit rate : 1 510 KbpsChannel(s) : 6 channelsChannel positions : Front: L C R, Side: L R, LFESampling rate : 48.0 KHzBit depth : 24 bitsCompression mode : LossyStream size : 1.05 GiB (12%)Title : DTS 5.1 @ 1510 kbpsLanguage : EnglishDefault : NoForced : No

    TextID : 4Format : UTF-8Codec ID : S_TEXT/UTF8Codec ID/Info : UTF-8 Plain TextTitle : SDHLanguage : EnglishDefault : NoForced : No

    Menu00:00:00.000 : en:00:00:00.00000:06:00.026 : en:00:06:00.02600:11:58.801 : en:00:11:58.80100:18:55.217 : en:00:18:55.21700:24:01.481 : en:00:24:01.48100:29:59.672 : en:00:29:59.67200:36:58.007 : en:00:36:58.00700:42:28.379 : en:00:42:28.37900:49:15.202 : en:00:49:15.20200:55:00.297 : en:00:55:00.29701:00:24.537 : en:01:00:24.53701:05:34.221 : en:01:05:34.22101:11:59.314 : en:01:11:59.31401:17:44.910 : en:01:17:44.91001:24:29.272 : en:01:24:29.27201:33:00.783 : en:01:33:00.783

    • Автомобили, «сыгравшие» в фильме главные роли, - это Chevrolet Corvette, Cadillac CTS sport wagon, Pontiac Soltice, Lincoln Continental и кастомный багги. Они принадлежат автору фильма Дэксу Шепарду. Кроме того, поскольку фильм снимался без контроля студии и имел очень скромный бюджет, Дэкс и многие другие актеры самостоятельно исполняли свои автомобильные трюки.
    • Бюджет фильма составил около 2 млн долларов. Из них 1 млн пошел правообладателям за песни, использованные в картине.
    • Дэкс Шепард снимал этот фильм с кучей своих друзей. И его подружка по фильму, Кристен Белл - это его жена в реальной жизни.
    • Брэдли Купер на протяжении всего фильма носит очки Oakley Plaintiff.
    • В начале фильма Рэнди едет на встречу с Чарли. В дороге он разговаривает с Чарли по телефону. При этом он держит свой iPhone вверх ногами. Кнопка блокировки и разъем для наушников расположены у его рта.
    • На самом деле вытащить мотор сложнее, чем просто подрезать его крепления, как описывает Чарли, когда разговаривает с Энни.
    • Когда Чарли получает удар клюшкой для гольфа, он падает в открытый дверной проем. В следующем кадре дверь закрыта.
    • В сцене, когда Чарли едет вместе с Энни и замечает, что Гил следует за ними, Гил то пристегнут ремнем, то нет.
    • Во время одной сцены, где Клинт Перкинс бьет по лицу друга Дмитрия, заметно, что его кулак проходит в дюйме от носа.
    Сценарий: Дэкс Шепард / Dax ShepardПродюсер: Эндрю Панай / Andrew Panay, Нат Так / Nate Tuck, Ким Уалтрип / Kim Waltrip, Тобин Армруст / Tobin Armbrust, Ховард Янг / Howard YoungОператор: Брэдли Стоунсайфер / Bradley StonesiferКомпозитор: Роберт Мервак / Robert Mervak, Джулиан Уасс / Julian Wass

    Бюджет: $2 000 000Сборы в США: $13 749 300Сборы в России: $289 584Сборы в мире: $14 453 354

    Мировая премьера: 2 августа 2012Релиз на DVD: 17 июня 2013, «Новый Диск»

  • Скриншоты © Оформление by Vetal Скачать Хватай и беги через торрент http://i4.imageban.ru/out/2013/06/15/acb833ad94d8896f6d3bf49cfdfe3922.jpg Скачать фильм Хватай и беги через торрент бесплантно в хорошем качестве Описание:Бывший грабитель банков Чарли, когда-то пошедший на сделку с правосудием, скрывается в маленьком калифорнийском городке: у него ... 2013-06-15 08:24 10 10 3

    Loading...

    Loading...

    Рекламный пират

    Дорогой пользователь! Огромная просьба, поблагодарите релизера, оцените раздачу и оставьте свои комментарий, если Вы скачали Хватай и беги через торрент бесплатно! Внесите свою лепту в развитие PiratBit!

    Комментировать посты могут только пользователи прошедшие не сложную регистрацию

    Хватай и беги через торрент Скачать бесплатно Хватай и беги Хватай и беги скачать торрент Хватай и беги смотреть онлайн Cкачать фильм Хватай и беги бесплатно Хватай и беги скачать торрент в хорошем качестве Хватай и беги смотреть онлайн бесплатно в хорошем качестве

    Вы не можете начинать темыВы не можете отвечать на сообщенияВы не можете редактировать свои сообщенияВы не можете удалять свои сообщенияВы не можете голосовать в опросахВы не можете прикреплять файлы к сообщениямВы можете скачивать файлы

    Скачать фильм Хватай и беги через торрент в хорошем качестве бесплатно BDRip от Twi7ter

    piratbit.ru

    Размер: 1.46 GB | Добавлен: 1 год 8 мес. назад | Торрент скачан:317 раз
    Реклама Дарим 3000 рублей за регистрацию, не упусти свой шанс получить шикарный бонус!!!

    03-02-2016 10:15 Хватай и беги Скачать торрент  

    Хватай и беги / Freaks of Nature

    «Get out undead or alive»

    Год выпуска: 2015Страна: СШАЖанр: ужасы, комедияПродолжительность: 01:32:35Перевод: Любительский (двухголосый) [Parovoz Production]Субтитры: НетРежиссер: Робби Пикеринг / Robbie PickeringВ ролях: Николас Браун (Dag), Маккензи Дэвис (Petra), Джош Фэйдем (Ned), Дэнис Лири (Rick Wilson), Эд Вествик (Milan Pinache), Ванесса Энн Хадженс (Lorelei), Кигэн-Майкл Ки (Mr. Keller), Боб Оденкёрк (Shooter Parker), Джоан Кьюсак (Peg Parker), Крис Зилка (Chaz Jr.), Йен Робертс (Chaz Sr.), Рэйчел Харрис (Mrs. Mosely)Описание: Сюжет расскажет о группе учеников старших классов, атакованных зомби. Пока ничего необычного. Однако в то время как школьники спасаются бегством, зомби подвергаются нападению вампиров. Все становится еще веселее, когда на Землю высаживаются инопланетяне. Теперь школьникам придется объединиться с зомби и вампирами, чтобы остановить вторжение на нашу планету.Рейтинг:

    MPAA: R - Лицам до 17 лет обязательно присутствие взрослого

    Качество: BDRip | исх. Freaks.Of.Nature.2015.1080p.BluRay.AVC.DTS-HD.MA.5.1 |Формат: AVIВидео кодек: XviDАудио кодек: AC3Видео: 720x304 (2.37:1), 23.976 fps, XviD build 73 ~1800 kbps avg, 0.34 bit/pixelАудио №1: 48 kHz, AC3 Dolby Digital, 2/0 (L,R) ch, ~192 kbps - RUSАудио №2: 48 kHz, AC3 Dolby Digital, 2/0 (L,R) ch, ~256 kbps - ENG

    Релиз:

    Скачать Хватай и беги через торрент http://s016.radikal.ru/i336/1602/fc/1d28ba70a77c.png Скачать фильм Хватай и беги через торрент бесплантно в хорошем качестве Описание: Сюжет расскажет о группе учеников старших классов, атакованных зомби. Пока ничего необычного. Однако в то время как школьники ... 2016-02-04 11:10 8.8 10 21

    Loading...

    Loading...

    Последний раз редактировалось: Twi7ter (2016-02-04 11:10), всего редактировалось 1 раз

    Рекламный пират

    03-02-2016 10:19 Хватай и беги Скачать торрент  

    Рип без всякой рекламы и прочей гадости!

    03-02-2016 10:37 Хватай и беги Скачать торрент  

    Twi7ter писал(а):

    Рип без всякой рекламы и прочей гадости!

    Вот за это - Огромное благодарю! Фильм понравился, хотел в коллекцию без рекламы гадской.) Особенно, в фильме понравился парень-зомби, один из главных героев. Ржачно сыграл, особенно, когда его с лестницы скинули) И аватары у нас схожие))

    03-02-2016 11:03 Хватай и беги Скачать торрент  

    Перевод стоит ожидать по-лучше)?

    04-02-2016 11:16 Хватай и беги Скачать торрент  

    Перезалито, про*бал рекламу)

    04-02-2016 11:29 Хватай и беги Скачать торрент  

    Twi7ter писал(а):

    про*бал )

    04-02-2016 11:44 Хватай и беги Скачать торрент  

    Блин, обещали ещё в январе лицуху

    04-02-2016 12:46 Хватай и беги Скачать торрент  

    04-02-2016 13:07 Хватай и беги Скачать торрент  

    какое аццкое описание! )) надо глянуть обязвтельно! спасибо за раздачу!

    Pекламный агент PB

    06-02-2016 15:12 Хватай и беги Скачать торрент  

    Зомби, вампиры и инопланетяне это нечто

    Дорогой пользователь! Огромная просьба, поблагодарите релизера, оцените раздачу и оставьте свои комментарий, если Вы скачали Хватай и беги через торрент бесплатно! Внесите свою лепту в развитие PiratBit!

    Комментировать посты могут только пользователи прошедшие не сложную регистрацию

    Хватай и беги через торрент Скачать бесплатно Хватай и беги Хватай и беги скачать торрент Хватай и беги смотреть онлайн Cкачать фильм Хватай и беги бесплатно Хватай и беги скачать торрент в хорошем качестве Хватай и беги смотреть онлайн бесплатно в хорошем качестве

    Вы можете начинать темыВы можете отвечать на сообщенияВы не можете редактировать свои сообщенияВы не можете удалять свои сообщенияВы не можете голосовать в опросахВы не можете прикреплять файлы к сообщениямВы можете скачивать файлы


    Смотрите также