Хулиганы зеленой улицы скачать торрент в хорошем качестве


Хулиганы (2005) смотреть онлайн или скачать фильм через торрент. Трейлеры, правдивые оценки, рецензии, комментарии, похожие фильмы, саундтрек, новости и интересные факты на Fast-torrent

Стенка на стенку или брат за брата.

Фильмы на околофутбольную тематику интересны далеко не каждому зрителю, но посмотреть парочку всё же следует, чтобы иметь представление о фанатах и о том, что происходит за пределами футбольного стадиона.

Все мы знаем, что футбол зародился в Англии и поэтому этот вид спорта, надо полагать, наиболее популярен в этой стране и, признаюсь честно, даже смотреть за игрой родоначальников футбола намного приятнее. Так же в Англии существуют группировки фанатов, которые называют «фирмами» и так уж сложись с давних пор, что перед матчами или после них фанаты из различных клубов устраивают драки между группировками, таким образом определяя, какая «фирма» сильнее и авторитетнее.

Сюжет фильма закручен вокруг одного американского студента — Мэтта, который был отчислен из Гарварда за преступление, которого он не совершал, после чего он приезжает в Англию. Стоит сказать сразу, что сами футбольные матчи тут отходят на второй план, а основное действие разворачивается между фанатами английского клуба «Вест Хэм Юнайтед» и фанатами других клубов. По стечению обстоятельств Мэтт встречает свою сестру и затем попадает на футбольный матч, после которого первый раз вступает в драку с фанатами другого футбольного клуба.

Хотелось бы отдельно отметить игру актёров! Элайджа Вуд — Мэтт, его персонаж является студентом, который был отчислен по ошибке и отправился в Англию. Честно сказать, в начале просмотра фильма закрадывались сомнения относительно него, сможет ли он сыграть одного из фанатов, которые не переставая дерутся, при том, что у него добрые глаза и внешне он создаёт впечатление далеко не драчуна. Нужно отдать должное, Элайджа справился отлично со своей ролью, был виден блеск в глазах и полная отдача в каждом действии с его участием и что самое главное — интерес, он передал эту очень яркую и бросающуюся в глаза эмоцию и мне надолго запомнятся его слова в конце фильма о том, что насилие опьяняет! Чарли Ханнэм — Пит, его персонаж является лидером группировки футбольного клуба «Вест Хэм Юнайтед» после ухода из неё прежнего главаря, его брата. Нужно сказать сразу, что он показательно сыграл лидера, человека, который может повести за собой толпу, очень уверенный в себе, отчаянный — он шёл до последнего ради того, чтобы прославить свою «фирму» и ему это нравилось, он этим жил! Чарли сыграл отлично, просто превосходно и можно смело сказать, что это одна из наиболее ярких его ролей в кино и запомнится на долгие годы!

Лекси Александр потрудилась на славу, фильм смотрится на одном дыхании, несмотря на массу сцен с насилием он захватывает, нужно отдать должное. Отлично передана атмосфера околофутбольный жизни — стадион, бар, станции метро, улицы и сами драки — всё это придаёт фильму не только атмосферности, но и невероятного шарма! Хотелось бы отдельно отметить и отличный саундтрек, который просто разбавляет этот фильм!

В заключении хотелось бы сказать, что этот фильм может многому научить, и показать как отрицательные стороны околофутбола, так и положительные. Главный урок, который всё же следует извлечь — это то, что всегда нужно уметь останавливаться! Этот фильм определённо является одной из лучших спортивных драм с великолепной актёрской игрой в главных ролях, которые заставляют сопереживать им на протяжении всего фильма, который смотрится на одном дыхании, а это показатель качества фильма!

Я посвятил далеко не один год своей жизни футболу, играл, являюсь болельщиком + так же хожу на матчи на стадион и хотел бы отдельно отметить фанатов — это те люди, которые в любые минуты поддержат любимый клуб во чтобы то ни стало! И так же не стоит забывать, что сам футбол — это шоу, которое сделано как раз таки для фанатов, которые отдают зачастую всего себя ради любимого клуба, посвящая этому часть своей жизни, как, например, в этом фильме!

10 из 10

www.fast-torrent.ru

Хулиганы Зеленой Улицы через торрент

piratbit.ru

Раздают: 1 [ 0 KB/s ]
Размер: 2.19 GB | Добавлен: 4 года 7 мес. назад | Торрент скачан:440 раз
Реклама Дарим 3000 рублей за регистрацию, не упусти свой шанс получить шикарный бонус!!!

03-03-2013 17:49 Хулиганы Зеленой Улицы Скачать торрент  

Хулиганы Зеленой Улицы / Green Street Hooligans

Год выпуска: 2005Страна: США, ВеликобританияЖанр: драма, криминалПродолжительность: 01:48:33Перевод: Профессиональный многоголосыйТип релиза: Пиратка

Режиссер: Лекси АлександрПродюссер: Дебора Дель Прете, Гиги Притцкер, Дональд ЦуккерманСценарий: Лекси Александр, Дуги Бримсон, Джош Шелов

Бюджет: $3 154 346Премьера в мире: 12 марта 2005

В ролях: Элайджа Вуд, Чарли Ханнэм, Дэвид Александр, Оливер Эллисон, Джеймс Эллисон, Джоэль Бекетт, Джофф Белл, Киран Бью, Эндрю Блэр, Дэвид Карр

Описание: Студент факультета журналистики Мэтт Бакнер отчислен из Гарварда за преступление, которого он не совершал. Его многообещающая карьера пошла коту под хвост, его будущее выглядит суровым, и он в поисках убежища бежит в Лондон к своей замужней сестре Шэннон. Её муж Стив знакомит Мэтта со своим младшим братом Питом. Сдружившись с Питом, Мэтт открывает для себя мир футбольного фанатизма, а также узнаёт тайны и интриги футбольной фирмы. Пит Данхам и его верные друзья создали Элиту Зелёной улицы, группу ярых фанатов клуба Вэст-Хэм Юнайтед, одну из самых жестоких лондонских футбольных фирм… Здесь он находит новых друзей, новые неприятности и оказывается в компании безумных футбольных фанатов, готовых на алтарь своей страсти бросить любую жертву…

Качество: BDRip 720pФормат: MKVВидео кодек: h364Аудио кодек: AC3Видео: 1280x544, 2436 Кбит/сек, 23,976 кадр/сек, AVC, x264, 2,35:1, 0.146 Бит/[Пиксели*Кадры], 2passАудио: Dolby AC3 48000Hz 6ch

[/URL]

[/URL]

[/URL]

[/URL]

[/URL]

[/URL]

GeneralUnique ID : 214198896194064372407243430485477667598 (0xA12534F262448E4CAC6C506F4EE1B30E)Format : MatroskaFormat version : Version 2File size : 2.19 GiBDuration : 1h 48mnOverall bit rate : 2 884 KbpsEncoded date : UTC 2012-01-11 18:14:45Writing application : mkvmerge v3.2.0 ('Beginnings') built on Feb 12 2010 16:46:17Writing library : libebml v0.7.9 + libmatroska v0.8.1Attachment : Yes / Yes / Yes

VideoID : 1Format : AVCFormat/Info : Advanced Video CodecFormat profile : [email protected] settings, CABAC : YesFormat settings, ReFrames : 4 framesCodec ID : V_MPEG4/ISO/AVCDuration : 1h 48mnBit rate : 2 436 KbpsWidth : 1 280 pixelsHeight : 544 pixelsDisplay aspect ratio : 2.35:1Original display aspect ratio : 2.35:1Frame rate mode : ConstantFrame rate : 23.976 fpsColor space : YUVChroma subsampling : 4:2:0Bit depth : 8 bitsScan type : ProgressiveBits/(Pixel*Frame) : 0.146Stream size : 1.80 GiB (82%)Title : Хулиганы Зеленой улицыWriting library : x264 core 116 r2074 2641b9eEncoding settings : cabac=1 / ref=4 / deblock=1:0:0 / analyse=0x3:0x133 / me=hex / subme=6 / psy=1 / psy_rd=1.00:0.00 / mixed_ref=1 / me_range=16 / chroma_me=1 / trellis=1 / 8x8dct=1 / cqm=0 / deadzone=21,11 / fast_pskip=1 / chroma_qp_offset=-2 / threads=6 / sliced_threads=0 / nr=0 / decimate=1 / interlaced=0 / bluray_compat=0 / constrained_intra=0 / bframes=3 / b_pyramid=2 / b_adapt=2 / b_bias=0 / direct=1 / weightb=1 / open_gop=0 / weightp=2 / keyint=250 / keyint_min=23 / scenecut=40 / intra_refresh=0 / rc_lookahead=40 / rc=2pass / mbtree=1 / bitrate=2436 / ratetol=1.0 / qcomp=0.60 / qpmin=0 / qpmax=69 / qpstep=4 / cplxblur=20.0 / qblur=0.5 / ip_ratio=1.40 / aq=1:1.00Language : EnglishDefault : YesForced : No

AudioID : 2Format : AC-3Format/Info : Audio Coding 3Mode extension : CM (complete main)Format settings, Endianness : BigCodec ID : A_AC3Duration : 1h 48mnBit rate mode : ConstantBit rate : 448 KbpsChannel(s) : 6 channelsChannel positions : Front: L C R, Side: L R, LFESampling rate : 48.0 KHzBit depth : 16 bitsCompression mode : LossyStream size : 348 MiB (16%)Title : AC3 5.1 448 Kbps [Многоголосый, Tycoon-Studio]Language : RussianDefault : YesForced : No

Скачать Хулиганы Зеленой Улицы через торрент http://i31.fastpic.ru/big/2012/0111/d3/65e3ca06b6ce5ff002ec724123ef78d3.png Скачать фильм Хулиганы Зеленой Улицы через торрент бесплантно в хорошем качестве Описание: Студент факультета журналистики Мэтт Бакнер отчислен из Гарварда за преступление, которого он не совершал. Его многообещающая ... 2013-03-03 17:49 10 10 18

Loading...

Loading...

Последний раз редактировалось: Jack_orsk (2013-03-04 06:39), всего редактировалось 2 раз(а)

Рекламный пират

03-03-2013 17:54 Хулиганы Зеленой Улицы Скачать торрент  

Jack_orsk

Раздельчиком ошиблись, это не HD т.к. Битрейд Видео маловат для HD!

03-03-2013 18:05 Хулиганы Зеленой Улицы Скачать торрент  

Jack_orskУкажи битрейт видео

03-03-2013 18:22 Хулиганы Зеленой Улицы Скачать торрент  

зачётный фильмец,советую :good2: :good2: :good2: :good2:

Дорогой пользователь! Огромная просьба, поблагодарите релизера, оцените раздачу и оставьте свои комментарий, если Вы скачали Хулиганы Зеленой Улицы через торрент бесплатно! Внесите свою лепту в развитие PiratBit!

Комментировать посты могут только пользователи прошедшие не сложную регистрацию

Хулиганы Зеленой Улицы через торрент Скачать бесплатно Хулиганы Зеленой Улицы Хулиганы Зеленой Улицы скачать торрент Хулиганы Зеленой Улицы смотреть онлайн Cкачать фильм Хулиганы Зеленой Улицы бесплатно Хулиганы Зеленой Улицы скачать торрент в хорошем качестве Хулиганы Зеленой Улицы смотреть онлайн бесплатно в хорошем качестве

Вы не можете начинать темыВы не можете отвечать на сообщенияВы не можете редактировать свои сообщенияВы не можете удалять свои сообщенияВы не можете голосовать в опросахВы не можете прикреплять файлы к сообщениямВы можете скачивать файлы

Хулиганы Зеленой улицы через торрент

piratbit.ru

Раздают: 2 [ 0 KB/s ]
Размер: 1.45 GB | Добавлен: 5 лет 9 мес. назад | Торрент скачан:1726 раз
Реклама Дарим 3000 рублей за регистрацию, не упусти свой шанс получить шикарный бонус!!!

27-12-2011 15:16 Хулиганы Зеленой улицы Скачать торрент  

Хулиганы Зеленой улицы / Green Street HooligansГод выпуска: 2005Страна: США, Великобритания, Baker Street, Odd Lot EntertainmentЖанр: Драма, криминал, спортПродолжительность: 01:48:33Перевод: Профессиональный (многоголосый, закадровый)

Режиссер: Лекси Александр

В ролях: Элайджа Вуд, Клэр Форлани, Чарли Ханнэм, Дэвид Александр, Оливер Эллисон, Джеймс Эллисон, Джоэль Бекетт, Джофф Белл, Киран Бью, Эндрю Блэр, Дэвид Карр

Описание: Студент факультета журналистики Мэтт Бакнер (Элайджа Вуд) отчислен из Гарварда за преступление, которого он не совершал. Его многообещающая карьера пошла коту под хвост, его будущее выглядит суровым, и он в поисках убежища бежит в Лондон к своей замужней сестре Шэннон. Её муж Стив знакомит Мэтта со своим младшим братом Питом. Сдружившись с Питом, Мэтт открывает для себя мир футбольного фанатизма, а также узнаёт тайны и интриги футбольной фирмы. Пит Данхам и его верные друзья создали Элиту Зелёной улицы, группу ярых фанатов клуба Уэст-Хэм Юнайтед, одну из самых жестоких лондонских футбольных фирм... Здесь он находит новых друзей, новые неприятности и оказывается в компании безумных футбольных фанатов, готовых на алтарь своей страсти бросить любую жертву...

Качество: BDRipФормат: MKVВидео кодек: AVCАудио кодек: AC3Видео: MPEG-4 AVC, 1316 Кбит/с, 1024х432 (2.370) , 23.976 fpsАудио: AAC at 192 Кбит/сек, 2 канала(ов), 48,0 КГц русский AAC at 192 Кбит/сек, 2 канала(ов), 48,0 КГц русский AAC at 192 Кбит/сек, 2 канала(ов), 48,0 КГц английский

Скачать Хулиганы Зеленой улицы через торрент http://ulanovka.ru/forum/images/users/33958/kinopoisk.ru-Hooligans-905428.jpg Скачать фильм Хулиганы Зеленой улицы через торрент бесплантно в хорошем качестве Описание: Студент факультета журналистики Мэтт Бакнер (Элайджа Вуд) отчислен из Гарварда за преступление, которого он не совершал. Его ... 2011-12-27 15:16 10 10 22

Loading...

Loading...

Рекламный пират

27-12-2011 19:14 Хулиганы Зеленой улицы Скачать торрент  

отличный фильм! советую к просмотру! :good:

27-12-2011 19:18 Хулиганы Зеленой улицы Скачать торрент  

Отличный фильм!

16-02-2012 09:15 Хулиганы Зеленой улицы Скачать торрент  

03-04-2012 11:37 Хулиганы Зеленой улицы Скачать торрент  

качать без вариантов!!!

20-10-2013 09:24 Хулиганы Зеленой улицы Скачать торрент  

Спасибо, отличный фильм

Дорогой пользователь! Огромная просьба, поблагодарите релизера, оцените раздачу и оставьте свои комментарий, если Вы скачали Хулиганы Зеленой улицы через торрент бесплатно! Внесите свою лепту в развитие PiratBit!

Комментировать посты могут только пользователи прошедшие не сложную регистрацию

Хулиганы Зеленой улицы через торрент Скачать бесплатно Хулиганы Зеленой улицы Хулиганы Зеленой улицы скачать торрент Хулиганы Зеленой улицы смотреть онлайн Cкачать фильм Хулиганы Зеленой улицы бесплатно Хулиганы Зеленой улицы скачать торрент в хорошем качестве Хулиганы Зеленой улицы смотреть онлайн бесплатно в хорошем качестве

Вы не можете начинать темыВы не можете отвечать на сообщенияВы не можете редактировать свои сообщенияВы не можете удалять свои сообщенияВы не можете голосовать в опросахВы не можете прикреплять файлы к сообщениямВы можете скачивать файлы

/ / Hooligans / Green Street Hooligans ( / Lexi Alexander) [2005, , , , , , BDRip-AVC] [Open Matte] MVO + 2xDVO + AVO + Original + Sub (Rus, Eng)

General Unique ID : 229150602580098960570532487339682022956 (0xAC64CCFC884DA983AE7B4F6B57CBC62C) Format : Matroska Format version : Version 4 / Version 2 File size : 2.91 GiB Duration : 1h 48mn Overall bit rate : 3 824 Kbps Encoded date : UTC 2016-12-25 07:31:14 Writing application : mkvmerge v9.6.0 ('Slave To Your Mind') 64bit Writing library : libebml v1.3.4 + libmatroska v1.4.5 Video #1 ID : 1 Format : AVC Format/Info : Advanced Video Codec Format profile : [email protected] Format settings, CABAC : Yes Format settings, ReFrames : 11 frames Codec ID : V_MPEG4/ISO/AVC Duration : 1h 48mn Bit rate : 2 990 Kbps Width : 1 088 pixels Height : 612 pixels Display aspect ratio : 16:9 Frame rate mode : Constant Frame rate : 23.976 (24000/1001) fps Color space : YUV Chroma subsampling : 4:2:0 Bit depth : 8 bits Scan type : Progressive Bits/(Pixel*Frame) : 0.187 Stream size : 2.27 GiB (78%) Writing library : x264 core 146 r2538 121396c Encoding settings : cabac=1 / ref=11 / deblock=1:-3:-2 / analyse=0x3:0x113 / me=umh / subme=10 / psy=1 / psy_rd=1.00:0.00 / mixed_ref=1 / me_range=32 / chroma_me=1 / trellis=2 / 8x8dct=1 / cqm=0 / deadzone=21,11 / fast_pskip=1 / chroma_qp_offset=-2 / threads=6 / lookahead_threads=1 / sliced_threads=0 / nr=0 / decimate=1 / interlaced=0 / bluray_compat=0 / constrained_intra=0 / bframes=10 / b_pyramid=2 / b_adapt=2 / b_bias=0 / direct=1 / weightb=1 / open_gop=0 / weightp=2 / keyint=250 / keyint_min=23 / scenecut=40 / intra_refresh=0 / rc_lookahead=50 / rc=2pass / mbtree=1 / bitrate=2990 / ratetol=1.0 / qcomp=0.60 / qpmin=0 / qpmax=69 / qpstep=4 / cplxblur=20.0 / qblur=0.5 / ip_ratio=1.40 / aq=3:1.00 Language : English Default : Yes Forced : No Audio #2 ID : 2 Format : AC-3 Format/Info : Audio Coding 3 Mode extension : CM (complete main) Format settings, Endianness : Big Codec ID : A_AC3 Duration : 1h 48mn Bit rate mode : Constant Bit rate : 192 Kbps Channel(s) : 2 channels Channel positions : Front: L R Sampling rate : 48.0 KHz Frame rate : 31.250 fps (1536 spf) Compression mode : Lossy Stream size : 149 MiB (5%) Title : R5 Language : Russian Default : Yes Forced : No Audio #3 ID : 3 Format : AC-3 Format/Info : Audio Coding 3 Mode extension : CM (complete main) Format settings, Endianness : Big Codec ID : A_AC3 Duration : 1h 48mn Bit rate mode : Constant Bit rate : 192 Kbps Channel(s) : 2 channels Channel positions : Front: L R Sampling rate : 48.0 KHz Frame rate : 31.250 fps (1536 spf) Compression mode : Lossy Stream size : 150 MiB (5%) Title : Language : Russian Default : No Forced : No Audio #4 ID : 4 Format : AC-3 Format/Info : Audio Coding 3 Mode extension : CM (complete main) Format settings, Endianness : Big Codec ID : A_AC3 Duration : 1h 48mn Bit rate mode : Constant Bit rate : 448 Kbps Channel(s) : 6 channels Channel positions : Front: L C R, Side: L R, LFE Sampling rate : 48.0 KHz Frame rate : 31.250 fps (1536 spf) Compression mode : Lossy Stream size : 349 MiB (12%) Language : English Default : No Forced : No Text #5 ID : 5 Format : UTF-8 Codec ID : S_TEXT/UTF8 Codec ID/Info : UTF-8 Plain Text Duration : 1h 42mn Bit rate : 95 bps Count of elements : 1062 Stream size : 72.2 KiB (0%) Title : Tycoon Studio Language : Russian Default : No Forced : No Text #6 ID : 6 Format : UTF-8 Codec ID : S_TEXT/UTF8 Codec ID/Info : UTF-8 Plain Text Duration : 1h 41mn Bit rate : 90 bps Count of elements : 1005 Stream size : 67.4 KiB (0%) Title : R5 Language : Russian Default : No Forced : No Text #7 ID : 7 Format : UTF-8 Codec ID : S_TEXT/UTF8 Codec ID/Info : UTF-8 Plain Text Duration : 1h 41mn Bit rate : 92 bps Count of elements : 1005 Stream size : 68.5 KiB (0%) Title : Language : Russian Default : No Forced : No Text #8 ID : 8 Format : UTF-8 Codec ID : S_TEXT/UTF8 Codec ID/Info : UTF-8 Plain Text Duration : 1h 47mn Bit rate : 65 bps Count of elements : 1195 Stream size : 51.9 KiB (0%) Language : English Default : No Forced : No Text #9 ID : 9 Format : UTF-8 Codec ID : S_TEXT/UTF8 Codec ID/Info : UTF-8 Plain Text Duration : 1h 47mn Bit rate : 67 bps Count of elements : 1228 Stream size : 53.4 KiB (0%) Title : SDH Language : English Default : No Forced : No

unionpeer.com


Смотрите также