Грязь скачать через торрент в хорошем качестве


rutor.org :: Грязь / Filth (2013) BDRip 1080p ::: Скачать торрент

main-rutor.org

Информация о фильмеНазвание: ГрязьОригинальное название: FilthГод выхода: 2013Жанр: драма, комедия, криминалРежиссер: Джон С. БейрдВ ролях: Джеймс МакЭвой, Джейми Белл, Эдди Марсан, Джим Бродбент, Имоджен Путс, Шона МакДональд, Ширли Хендерсон, Джон Сессионс, Гари Льюис, Иман Эллиотт

О фильме: Главный герой — продажный шотландский полицейский Брюс Робертсон, помешанный на сексе и кокаине. Ему бы надо расследовать убийство, но ему сильно мешают собственные странности, привычка разыгрывать коллег и беготня за девушками. За Робертсоном присматривают его напарник Рэй Леннокс и начальник Боб Тоал.

Выпущено: ВеликобританияСтудия: LionsgateПродолжительность: 01:37:22Перевод: Дублированный (лицензия) + Украинский + Оригинал

ФайлКодек: x264Качество: BDRip (источник: Blu-ray Disc)Видео: 1920x816 (2,35:1), 24.000 fps (True24p), 7261 kbpsАудио #1: AC-3, 6 ch, 384 kbps (Rus) R5Аудио #2: AC-3, 2 ch, 192 kbps (Ukr) Двухголосый закадровыйАудио #3: AC-3, 6 ch, 640 kbps (Eng) ОригиналСубтитры: Английские (SDH), Английские

MI

Общее Уникальный идентификатор : 206045137254684350965081535474128949703 (0x9B02D997DB9E76E7ADC30D27E2C091C7) Полное имя : F:Filth.2013.BDRip.1080p.Rus.Ukr.Eng.mkv Формат : Matroska Версия формата : Version 2 Размер файла : 5,76 Гбайт Продолжительность : 1 ч. 37 м. Общий поток : 8470 Кбит/сек Название фильма : Грязь / Filth (2013) Дата кодирования : UTC 2014-02-02 20:52:58 Программа кодирования : mkvmerge v5.8.0 ('No Sleep / Pillow') built on Sep 2 2012 15:37:04 Библиотека кодирования : libebml v1.2.3 + libmatroska v1.3.0 Attachment : Yes

Видео Идентификатор : 1 Формат : AVC Формат/Информация : Advanced Video Codec Профиль формата : [email protected] Параметр CABAC формата : Да Параметр ReFrames формата : 5 кадров Идентификатор кодека : V_MPEG4/ISO/AVC Продолжительность : 1 ч. 37 м. Битрейт : 7261 Кбит/сек Ширина : 1920 пикселей Высота : 816 пикселей Соотношение сторон : 2,35:1 Режим частоты кадров : Постоянный Частота кадров : 24,000 кадра/сек Цветовое пространство : YUV Субдискретизация насыщенности : 4:2:0 Битовая глубина : 8 бит Тип развёртки : Прогрессивная Бит/(Пиксели*Кадры) : 0.193 Размер потока : 4,82 Гбайт (84%) Заголовок : Release by N1NT3NDO Библиотека кодирования : x264 core 140 r2377 1ca7bb9 Настройки программы : cabac=1 / ref=5 / deblock=1:-3:-3 / analyse=0x3:0x133 / me=umh / subme=11 / psy=1 / psy_rd=1.00:0.00 / mixed_ref=1 / me_range=32 / chroma_me=1 / trellis=2 / 8x8dct=1 / cqm=0 / deadzone=21,11 / fast_pskip=0 / chroma_qp_offset=-2 / threads=12 / lookahead_threads=1 / sliced_threads=0 / nr=0 / decimate=0 / interlaced=0 / bluray_compat=0 / constrained_intra=0 / bframes=6 / b_pyramid=2 / b_adapt=2 / b_bias=0 / direct=3 / weightb=1 / open_gop=0 / weightp=2 / keyint=240 / keyint_min=24 / scenecut=40 / intra_refresh=0 / rc=2pass / mbtree=0 / bitrate=7261 / ratetol=1.0 / qcomp=0.60 / qpmin=0 / qpmax=69 / qpstep=4 / cplxblur=20.0 / qblur=0.5 / ip_ratio=1.40 / pb_ratio=1.30 / aq=1:1.00 Язык : English Default : Да Forced : Нет

Аудио #1 Идентификатор : 2 Формат : AC-3 Формат/Информация : Audio Coding 3 Расширение режима : CM (complete main) Параметр Endianness формата : Big Идентификатор кодека : A_AC3 Продолжительность : 1 ч. 37 м. Вид битрейта : Постоянный Битрейт : 384 Кбит/сек Каналы : 6 каналов Расположение каналов : Front: L C R, Side: L R, LFE Частота : 48,0 КГц Битовая глубина : 16 бит Метод сжатия : С потерями Размер потока : 267 Мбайт (5%) Заголовок : Дубляж, R5 Язык : Russian Default : Да Forced : Нет

Аудио #2 Идентификатор : 3 Формат : AC-3 Формат/Информация : Audio Coding 3 Расширение режима : CM (complete main) Параметр Endianness формата : Big Идентификатор кодека : A_AC3 Продолжительность : 1 ч. 37 м. Вид битрейта : Постоянный Битрейт : 192 Кбит/сек Каналы : 2 канала Расположение каналов : Front: L R Частота : 48,0 КГц Битовая глубина : 16 бит Метод сжатия : С потерями Размер потока : 134 Мбайт (2%) Заголовок : Двухголосый закадровый, Украинский Язык : Ukrainian Default : Нет Forced : Нет

Аудио #3 Идентификатор : 4 Формат : AC-3 Формат/Информация : Audio Coding 3 Расширение режима : CM (complete main) Параметр Endianness формата : Big Идентификатор кодека : A_AC3 Продолжительность : 1 ч. 37 м. Вид битрейта : Постоянный Битрейт : 640 Кбит/сек Каналы : 6 каналов Расположение каналов : Front: L C R, Side: L R, LFE Частота : 48,0 КГц Битовая глубина : 16 бит Метод сжатия : С потерями Размер потока : 446 Мбайт (8%) Заголовок : English Язык : English Default : Нет Forced : Нет

Текст #1 Идентификатор : 5 Формат : UTF-8 Идентификатор кодека : S_TEXT/UTF8 Идентификатор кодека/Информация : UTF-8 Plain Text Заголовок : English (SDH) Язык : English Default : Нет Forced : Нет

Текст #2 Идентификатор : 6 Формат : UTF-8 Идентификатор кодека : S_TEXT/UTF8 Идентификатор кодека/Информация : UTF-8 Plain Text Заголовок : English Язык : English Default : Нет Forced : Нет

Меню 00:00:00.000 : :Chapter 01 00:08:15.500 : :Chapter 02 00:15:56.790 : :Chapter 03 00:24:38.665 : :Chapter 04 00:32:36.125 : :Chapter 05 00:40:55.916 : :Chapter 06 00:48:00.457 : :Chapter 07 00:56:09.000 : :Chapter 08 01:03:43.833 : :Chapter 09 01:14:07.707 : :Chapter 10 01:19:14.957 : :Chapter 11 01:28:19.165 : :Chapter 12

Скачать фильм Грязь через торрент в хорошем качестве бесплатно 720p] DUB

frame I:1408 Avg QP:17.33 size:100163frame P:26258 Avg QP:18.66 size: 50018frame B:112550 Avg QP:20.45 size: 21839

ОбщееУникальный идентификатор : 209284464684812986907564728012820709330 (0x9D72B8C428C818319DFAA3F2C66FFFD2)Полное имя : D:VideoGrjaz.2013.BDRip.720pGrjaz.2013.BDRip.720p.mkvФормат : MatroskaВерсия формата : Version 4 / Version 2Размер файла : 4,47 ГбайтПродолжительность : 1 ч. 37 м.Общий поток : 6576 Кбит/секДата кодирования : UTC 2014-11-07 16:22:02Программа кодирования : mkvmerge v7.3.0 ('Nouages') 64bit built on Oct 22 2014 18:53:34Библиотека кодирования : libebml v1.3.0 + libmatroska v1.4.1DURATION : 01:37:22.560000000NUMBER_OF_FRAMES : 182580NUMBER_OF_BYTES : 327183360_STATISTICS_WRITING_APP : mkvmerge v7.3.0 ('Nouages') 64bit built on Oct 22 2014 18:53:34_STATISTICS_WRITING_DATE_UTC : 2014-11-07 16:22:02_STATISTICS_TAGS : BPS DURATION NUMBER_OF_FRAMES NUMBER_OF_BYTES

ВидеоИдентификатор : 1Формат : AVCФормат/Информация : Advanced Video CodecПрофиль формата : [email protected]Параметр CABAC формата : ДаПараметр ReFrames формата : 9 кадровИдентификатор кодека : V_MPEG4/ISO/AVCПродолжительность : 1 ч. 37 м.Битрейт : 5229 Кбит/секШирина : 1280 пикселейВысота : 544 пикселяСоотношение сторон : 2,35:1Режим частоты кадров : ПостоянныйЧастота кадров : 24,000 кадра/секЦветовое пространство : YUVСубдискретизация насыщенности : 4:2:0Битовая глубина : 8 битТип развёртки : ПрогрессивнаяБит/(Пиксели*Кадры) : 0.313Размер потока : 3,56 Гбайт (80%)Заголовок : BDRip -- STarankovБиблиотека кодирования : x264 core 142 r2431 ac76440Настройки программы : cabac=1 / ref=9 / deblock=1:-1:-1 / analyse=0x3:0x113 / me=umh / subme=10 / psy=1 / psy_rd=1.00:0.15 / mixed_ref=1 / me_range=32 / chroma_me=1 / trellis=2 / 8x8dct=1 / cqm=0 / deadzone=21,11 / fast_pskip=1 / chroma_qp_offset=-3 / threads=6 / lookahead_threads=1 / sliced_threads=0 / nr=0 / decimate=1 / interlaced=0 / bluray_compat=0 / constrained_intra=0 / bframes=8 / b_pyramid=2 / b_adapt=2 / b_bias=0 / direct=3 / weightb=1 / open_gop=0 / weightp=2 / keyint=230 / keyint_min=23 / scenecut=40 / intra_refresh=0 / rc_lookahead=40 / rc=crf / mbtree=0 / crf=19.0 / qcomp=0.60 / qpmin=0 / qpmax=69 / qpstep=4 / vbv_maxrate=50000 / vbv_bufsize=62500 / crf_max=0.0 / nal_hrd=none / filler=0 / ip_ratio=1.40 / pb_ratio=1.30 / aq=1:1.00Язык : EnglishDefault : ДаForced : НетDURATION : 01:37:22.334000000NUMBER_OF_FRAMES : 140216NUMBER_OF_BYTES : 3912413207_STATISTICS_WRITING_APP : mkvmerge v7.3.0 ('Nouages') 64bit built on Oct 22 2014 18:53:34_STATISTICS_WRITING_DATE_UTC : 2014-11-07 16:22:02_STATISTICS_TAGS : BPS DURATION NUMBER_OF_FRAMES NUMBER_OF_BYTES

Аудио #1Идентификатор : 2Формат : AC-3Формат/Информация : Audio Coding 3Расширение режима : CM (complete main)Параметр Endianness формата : BigИдентификатор кодека : A_AC3Продолжительность : 1 ч. 37 м.Вид битрейта : ПостоянныйБитрейт : 384 Кбит/секКаналы : 6 каналовРасположение каналов : Front: L C R, Side: L R, LFEЧастота : 48,0 КГцБитовая глубина : 16 битМетод сжатия : С потерямиРазмер потока : 267 Мбайт (6%)Заголовок : DUB (R5)Язык : RussianDefault : ДаForced : Нет

Аудио #2Идентификатор : 3Формат : AC-3Формат/Информация : Audio Coding 3Расширение режима : CM (complete main)Параметр Endianness формата : BigИдентификатор кодека : A_AC3Продолжительность : 1 ч. 37 м.Вид битрейта : ПостоянныйБитрейт : 384 Кбит/секКаналы : 6 каналовРасположение каналов : Front: L C R, Side: L R, LFEЧастота : 48,0 КГцБитовая глубина : 16 битМетод сжатия : С потерямиРазмер потока : 267 Мбайт (6%)Заголовок : AVO (Дмитрий Пучков (Гоблин), с ненормативной лексикой)Язык : RussianDefault : НетForced : Нет

Аудио #3Идентификатор : 4Формат : AC-3Формат/Информация : Audio Coding 3Расширение режима : CM (complete main)Параметр Endianness формата : BigИдентификатор кодека : A_AC3Продолжительность : 1 ч. 37 м.Вид битрейта : ПостоянныйБитрейт : 448 Кбит/секКаналы : 6 каналовРасположение каналов : Front: L C R, Side: L R, LFEЧастота : 48,0 КГцБитовая глубина : 16 битМетод сжатия : С потерямиРазмер потока : 312 Мбайт (7%)Заголовок : AVO (Юрий Сербин)Язык : RussianDefault : НетForced : Нет

Меню00:00:00.000 : :Chapter 0100:08:15.500 : :Chapter 0200:15:56.790 : :Chapter 0300:24:38.665 : :Chapter 0400:32:36.125 : :Chapter 0500:40:55.916 : :Chapter 0600:48:00.457 : :Chapter 0700:56:09.000 : :Chapter 0801:03:43.833 : :Chapter 0901:14:07.707 : :Chapter 1001:19:14.957 : :Chapter 1101:28:19.165 : :Chapter 12

ОбщееПолное имя : D:VideoGrjaz.2013.BDRip.720pGrjaz.2013.Commentary.eng.ac3Формат : AC-3Формат/Информация : Audio Coding 3Размер файла : 134 МбайтПродолжительность : 1 ч. 37 м.Режим общего битрейта : ПостоянныйОбщий поток : 192 Кбит/сек

АудиоФормат : AC-3Формат/Информация : Audio Coding 3Расширение режима : CM (complete main)Параметр Endianness формата : BigПродолжительность : 1 ч. 37 м.Вид битрейта : ПостоянныйБитрейт : 192 Кбит/секКаналы : 2 каналаРасположение каналов : Front: L RЧастота : 48,0 КГцБитовая глубина : 16 битМетод сжатия : С потерямиРазмер потока : 134 Мбайт (100%)

ОбщееПолное имя : D:VideoGrjaz.2013.BDRip.720pGrjaz.2013.DVO.ukr.ac3Формат : AC-3Формат/Информация : Audio Coding 3Размер файла : 134 МбайтПродолжительность : 1 ч. 37 м.Режим общего битрейта : ПостоянныйОбщий поток : 192 Кбит/сек

АудиоФормат : AC-3Формат/Информация : Audio Coding 3Расширение режима : CM (complete main)Параметр Endianness формата : BigПродолжительность : 1 ч. 37 м.Вид битрейта : ПостоянныйБитрейт : 192 Кбит/секКаналы : 2 каналаРасположение каналов : Front: L RЧастота : 48,0 КГцБитовая глубина : 16 битМетод сжатия : С потерямиРазмер потока : 134 Мбайт (100%)

ОбщееПолное имя : D:VideoGrjaz.2013.BDRip.720pGrjaz.2013.eng.SDH.srtФормат : SubRipРазмер файла : 105 Кбайт

ТекстФормат : SubRipМетод сжатия : Без потерь

ОбщееПолное имя : D:VideoGrjaz.2013.BDRip.720pGrjaz.2013.eng.srtФормат : SubRipРазмер файла : 96,8 Кбайт

ТекстФормат : SubRipМетод сжатия : Без потерь

ОбщееПолное имя : D:VideoGrjaz.2013.BDRip.720pGrjaz.2013.Original.eng.ac3Формат : AC-3Формат/Информация : Audio Coding 3Размер файла : 312 МбайтПродолжительность : 1 ч. 37 м.Режим общего битрейта : ПостоянныйОбщий поток : 448 Кбит/сек

АудиоФормат : AC-3Формат/Информация : Audio Coding 3Расширение режима : CM (complete main)Параметр Endianness формата : BigПродолжительность : 1 ч. 37 м.Вид битрейта : ПостоянныйБитрейт : 448 Кбит/секКаналы : 6 каналовРасположение каналов : Front: L C R, Side: L R, LFEЧастота : 48,0 КГцБитовая глубина : 16 битМетод сжатия : С потерямиРазмер потока : 312 Мбайт (100%)

ОбщееПолное имя : D:VideoGrjaz.2013.BDRip.720pGrjaz.2013.rus1.srtФормат : SubRipРазмер файла : 126 Кбайт

ТекстФормат : SubRipМетод сжатия : Без потерь

ОбщееПолное имя : D:VideoGrjaz.2013.BDRip.720pGrjaz.2013.rus2.srtФормат : SubRipРазмер файла : 132 Кбайт

ТекстФормат : SubRipМетод сжатия : Без потерь

ОбщееПолное имя : D:VideoGrjaz.2013.BDRip.720pGrjaz.2013.SDH.colored.eng.srtФормат : SubRipРазмер файла : 110 Кбайт

ТекстФормат : SubRipМетод сжатия : Без потерь

piratbit.ru

Скачать фильм Грязь через торрент в хорошем качестве бесплатно 720p

GeneralUnique ID : 206039466391199150482734913865669231347 (0x9B01C1FF7F73125D91D3DC02FAC142F3)Complete name : /etc/seedbox/home/kep/data/Грязь.2013.720p.BluRay.DTS.x264.mkvFormat : MatroskaFormat version : Version 4 / Version 2File size : 4.43 GiBDuration : 1h 37mnOverall bit rate : 6 514 KbpsEncoded date : UTC 2010-02-22 21:41:31Writing application : mkvmerge v5.9.0 ('On The Loose') built on Dec 9 2012 15:37:01Writing library : libebml v1.3.0 + libmatroska v1.4.0

VideoID : 1Format : AVCFormat/Info : Advanced Video CodecFormat profile : [email protected] settings, CABAC : YesFormat settings, ReFrames : 5 framesMuxing mode : Header strippingCodec ID : V_MPEG4/ISO/AVCDuration : 1h 37mnBit rate : 5 232 KbpsWidth : 1 280 pixelsHeight : 544 pixelsDisplay aspect ratio : 2.35:1Frame rate mode : ConstantFrame rate : 24.000 fpsColor space : YUVChroma subsampling : 4:2:0Bit depth : 8 bitsScan type : ProgressiveBits/(Pixel*Frame) : 0.313Stream size : 3.56 GiB (80%)Language : EnglishDefault : YesForced : No

Audio #1ID : 2Format : DTSFormat/Info : Digital Theater SystemsMode : 16Format settings, Endianness : BigMuxing mode : Header strippingCodec ID : A_DTSDuration : 1h 37mnBit rate mode : ConstantBit rate : 768 KbpsChannel count : 6 channelsChannel positions : Front: L C R, Side: L R, LFESampling rate : 48.0 KHzBit depth : 24 bitsCompression mode : LossyStream size : 535 MiB (12%)Language : EnglishDefault : NoForced : No

Audio #2ID : 4Format : AC-3Format/Info : Audio Coding 3Mode extension : CM (complete main)Format settings, Endianness : BigMuxing mode : Header strippingCodec ID : A_AC3Duration : 1h 37mnBit rate mode : ConstantBit rate : 384 KbpsChannel count : 6 channelsChannel positions : Front: L C R, Side: L R, LFESampling rate : 48.0 KHzBit depth : 16 bitsCompression mode : LossyStream size : 267 MiB (6%)Language : RussianDefault : YesForced : Yes

TextID : 3Format : PGSMuxing mode : zlibCodec ID : S_HDMV/PGSCodec ID/Info : The same subtitle format used on BDs/HD-DVDsLanguage : EnglishDefault : NoForced : No

Menu00:00:00.000 : en:00:00:00.00000:08:15.500 : en:00:08:15.50000:15:56.792 : en:00:15:56.79200:24:38.667 : en:00:24:38.66700:32:36.125 : en:00:32:36.12500:40:55.917 : en:00:40:55.91700:48:00.458 : en:00:48:00.45800:56:09.000 : en:00:56:09.00001:03:43.833 : en:01:03:43.83301:14:07.708 : en:01:14:07.70801:19:14.958 : en:01:19:14.95801:28:19.167 : en:01:28:19.167

piratbit.ru

Скачать фильм Грязь (2013) через торрент

gig-torrent.net

10 февраля 2016 15:51 Грязь / Filth (2013) HDRip-AVC | iPhone | D .torrent   [Информация о файле (нажмите для просмотра)] Перевод: Русский дублированныйКодек: H.264Качество: HDRip-AVC [480p] | iPhoneВидео: [email protected] (2.35:1) at 24.000 fps, AVC at 1800 kbpsЗвук: 1: ААС 2.0 180 kbps - Русский дублированный 2: ААС 2.0 192 kbps - АнглийскийСубтитры: Английские 1,48 Gb 20 2
10 февраля 2016 15:50 Грязь / Filth (2013) BDRip от New-Team | D | Лицензия .torrent   [Информация о файле (нажмите для просмотра)] Перевод: Профессиональный (дублированный)|Лицензия|Видео: 720x304 (2.35:1), 24.000 fps, XviD 65 ~933 kbps avg, 0.178 bit/pixelАудио: 48 kHz, MPEG Layer 3, 2 ch, 128.00 kbps Constant |Дубляж| 745,12 Mb 22 2
10 февраля 2016 15:50 Грязь / Filth (2013) BDRip от New-Team | D | Лицензия .torrent   [Информация о файле (нажмите для просмотра)] Перевод: Профессиональный (дублированный)|Лицензия|Видео: 720x304 (2.35:1), 24.000 fps, XviD 65 ~1738 kbps avg, 0.331 bit/pixelАудио: 48 kHz, AC3 Dolby Digital, 3/2 (L,C,R,l,r) + LFE ch, 384.00 kbps Constant |Дубляж| 1,45 Gb 95 5
10 февраля 2016 15:50 Грязь / Filth (2013) HDRip от Scarabey | D | Лицензия .torrent   [Информация о файле (нажмите для просмотра)] Перевод: Профессиональный (дублированный) |Лицензия|Качество: HDRipФормат: AVIВидео: 720x304 (2.37:1), 24 fps, XviD build 50 ~931 kbps avg, 0.18 bit/pixelАудио: 48 kHz, MPEG Layer 3, 2 ch, ~128.00 kbps avg 744,59 Mb 35 4
10 февраля 2016 15:50 Грязь / Filth (2013) BDRip от HQCLUB | Лицензия .torrent   [Информация о файле (нажмите для просмотра)] Перевод: Профессиональный (полное дублирование) R5Субтитры: русские (2 вида), английские (обычные, SDH-Colored)Формат: AVIКачество: BDRip (источник:Видео: 720x304 (2.37:1), 24 fps, XviD build 65 ~1741 kbps avg, 0.33 bit/pixelАудио #1: 48 kHz, AC3 Dolby Digital, 3/2 (L,C,R,l,r) + LFE ch, ~384 kbps avg (DUB) R5Аудио #2: 48 kHz, AC3 Dolby Digital, 2/0 (L,R) ch, ~192 kbps avg (UKR)(отдельно)Аудио #3: 48 kHz, AC3 Dolby Digital, 3/2 (L,C,R,l,r) + LFE ch, ~384 kbps avg (AVO.SERBIN)(отдельно)Аудио #4: 48 kHz, AC3 Dolby Digital, 3/2 (L,C,R,l,r) + LFE ch, ~384 kbps avg (AVO.GOBLIN)(отдельно)Аудио #5: 48 kHz, AC3 Dolby Digital, 3/2 (L,C,R,l,r) + LFE ch, ~384 kbps avg (ENG)(отдельно) 1,45 Gb 109 2
10 февраля 2016 15:50 Грязь / Filth (2013) BDRip 720p D, 2xA, DVO .torrent   [Информация о файле (нажмите для просмотра)] Перевод: 1: Русский: Дубляж [R5] 2: Русский: [профессиональный одноголосый закадровый авторский, Дмитрий Пучков (Гоблин), с ненормативной лексикой] 3: Русский: [профессиональный одноголосый закадровый авторский, Юрий Сербин] 4: Украинский: Профессиональный двухголосый закадровый Line inКодек: x.264Качество: BDRip 720pВидео: Video: 1280x546 (2.35:1), 24.000 fps, AVC, ~8254 Kbps, 0.492 bits/pixelЗвук: Audio #1: Russian, 48.0 KHz, AC3, 6 ch, 384 Kbps - AC3 5.1 @ 384 kbps - DUB, R5 Audio #2: Russian, 48.0 KHz, AC3, 6 ch, 384 Kbps - Aвторский Дмитрий Пучков (Гоблин) - 384 кб/с Audio #3: Russian, 48.0 KHz, AC3, 6 ch, 448 Kbps - Aвторский [Юрий Сербин] - 448 кб/с Audio #4: Ukrainian, 48.0 KHz, AC3, 2 ch, 192 Kbps - Профессиональный (двухголосый) - AC3 2.0 192 кб/с Line In Audio #5: English, 48.0 KHz, DTS, 6 ch, 755 Kbps - DTS 5.1 @ 768 kbps Audio #6: English, 48.0 KHz, DTS, 2 ch, 755 Kbps - DTS 2.0 @ 768 kbps - Commentary with Writer/Director Jon S. Baird and Author Irvine WelshСубтитры: Русские, Английские 7,75 Gb 93 14
10 февраля 2016 15:50 Грязь / Filth (2013) BDRip 720p by msltel | D, A .torrent   [Информация о файле (нажмите для просмотра)] Перевод: дублированный, авторскийСубтитры: русские (2 варианта), английские, английские (для слабослышащих, черные и цветные) (все отдельно)Качество: BDRip 720pСравнение с исходникомФормат: MKVВидео: 5229 Kбит/с, 1280x544, 24 кадра/с, 0.313 bppАудио 1: русский, AC3, 384 kbps, 6 ch, 48 kHz [дублированный, R5]Аудио 2: русский, AC3, 384 kbps, 6 ch, 48 kHz [авторский, Дмитрий Пучков (Гоблин), с ненормативной лексикой]Аудио 3: русский, AC3, 448 kbps, 6 ch, 48 kHz [авторский, Юрий Сербин]Аудио: украинский, AC3, 192 kbps, 2 ch, 48 kHz [профессиональный двухголосый]Аудио: английский, AC3, 448 kbps, 6 ch, 48 kHz [оригинал]Аудио: английский, AC3, 192 kbps, 2 ch, 48 kHz [комментарий]Видео: Идентификатор : 1 Формат : AVC Формат/Информация : Advanced Video Codec Профиль формата : [email protected] Параметр CABAC формата : Да Параметр ReFrames формата : 9 кадров Идентификатор кодека : V_MPEG4/ISO/AVC Продолжительность : 1 ч. 37 м. Битрейт : 5229 Кбит/сек Ширина : 1280 пикселей Высота : 544 пикселя Соотношение сторон : 2,35:1 Режим частоты кадров : Постоянный Частота кадров : 24,000 кадра/сек Цветовое пространство : YUV Субдискретизация насыщенности : 4:2:0 Битовая глубина : 8 бит Тип развёртки : Прогрессивная Бит/(Пиксели*Кадры) : 0.313 Размер потока : 3,56 Гбайт (80%) Заголовок : BDRip -- STarankov Библиотека кодирования : x264 core 142 r2431 ac76440 Настройки программы : cabac=1 / ref=9 / deblock=1:-1:-1 / analyse=0x3:0x113 / me=umh / subme=10 / psy=1 / psy_rd=1.00:0.15 / mixed_ref=1 / me_range=32 / chroma_me=1 / trellis=2 / 8x8dct=1 / cqm=0 / deadzone=21,11 / fast_pskip=1 / chroma_qp_offset=-3 / threads=6 / lookahead_threads=1 / sliced_threads=0 / nr=0 / decimate=1 / interlaced=0 / bluray_compat=0 / constrained_intra=0 / bframes=8 / b_pyramid=2 / b_adapt=2 / b_bias=0 / direct=3 / weightb=1 / open_gop=0 / weightp=2 / keyint=230 / keyint_min=23 / scenecut=40 / intra_refresh=0 / rc_lookahead=40 / rc=crf / mbtree=0 / crf=19.0 / qcomp=0.60 / qpmin=0 / qpmax=69 / qpstep=4 / vbv_maxrate=50000 / vbv_bufsize=62500 / crf_max=0.0 / nal_hrd=none / filler=0 / ip_ratio=1.40 / pb_ratio=1.30 / aq=1:1.00 Язык : English Default : Да Forced : Нет DURATION : 01:37:22.334000000 NUMBER_OF_FRAMES : 140216 NUMBER_OF_BYTES : 3912413207 _STATISTICS_WRITING_APP : mkvmerge v7.3.0 ('Nouages') 64bit built on Oct 22 2014 18:53:34 _STATISTICS_WRITING_DATE_UTC : 2014-11-07 16:22:02 _STATISTICS_TAGS : BPS DURATION NUMBER_OF_FRAMES NUMBER_OF_BYTESАудио #1: Идентификатор : 2 Формат : AC-3 Формат/Информация : Audio Coding 3 Расширение режима : CM (complete main) Параметр Endianness формата : Big Идентификатор кодека : A_AC3 Продолжительность : 1 ч. 37 м. Вид битрейта : Постоянный Битрейт : 384 Кбит/сек Каналы : 6 каналов Расположение каналов : Front: L C R, Side: L R, LFE Частота : 48,0 КГц Битовая глубина : 16 бит Метод сжатия : С потерями Размер потока : 267 Мбайт (6%) Заголовок : DUB (R5) Язык : Russian Default : Да Forced : НетАудио #2: Идентификатор : 3 Формат : AC-3 Формат/Информация : Audio Coding 3 Расширение режима : CM (complete main) Параметр Endianness формата : Big Идентификатор кодека : A_AC3 Продолжительность : 1 ч. 37 м. Вид битрейта : Постоянный Битрейт : 384 Кбит/сек Каналы : 6 каналов Расположение каналов : Front: L C R, Side: L R, LFE Частота : 48,0 КГц Битовая глубина : 16 бит Метод сжатия : С потерями Размер потока : 267 Мбайт (6%) Заголовок : AVO (Дмитрий Пучков (Гоблин), с ненормативной лексикой) Язык : Russian Default : Нет Forced : НетАудио #3: Идентификатор : 4 Формат : AC-3 Формат/Информация : Audio Coding 3 Расширение режима : CM (complete main) Параметр Endianness формата : Big Идентификатор кодека : A_AC3 Продолжительность : 1 ч. 37 м. Вид битрейта : Постоянный Битрейт : 448 Кбит/сек Каналы : 6 каналов Расположение каналов : Front: L C R, Side: L R, LFE Частота : 48,0 КГц Битовая глубина : 16 бит Метод сжатия : С потерями Размер потока : 312 Мбайт (7%) Заголовок : AVO (Юрий Сербин) Язык : Russian Default : Нет Forced : НетАудио: Формат : AC-3 Формат/Информация : Audio Coding 3 Расширение режима : CM (complete main) Параметр Endianness формата : Big Продолжительность : 1 ч. 37 м. Вид битрейта : Постоянный Битрейт : 192 Кбит/сек Каналы : 2 канала Расположение каналов : Front: L R Частота : 48,0 КГц Битовая глубина : 16 бит Метод сжатия : С потерями Размер потока : 134 Мбайт (100%)Аудио: Формат : AC-3 Формат/Информация : Audio Coding 3 Расширение режима : CM (complete main) Параметр Endianness формата : Big Продолжительность : 1 ч. 37 м. Вид битрейта : Постоянный Битрейт : 192 Кбит/сек Каналы : 2 канала Расположение каналов : Front: L R Частота : 48,0 КГц Битовая глубина : 16 бит Метод сжатия : С потерями Размер потока : 134 Мбайт (100%)Аудио: Формат : AC-3 Формат/Информация : Audio Coding 3 Расширение режима : CM (complete main) Параметр Endianness формата : Big Продолжительность : 1 ч. 37 м. Вид битрейта : Постоянный Битрейт : 448 Кбит/сек Каналы : 6 каналов Расположение каналов : Front: L C R, Side: L R, LFE Частота : 48,0 КГц Битовая глубина : 16 бит Метод сжатия : С потерями Размер потока : 312 Мбайт (100%) 5,04 Gb 144 34
10 февраля 2016 15:50 Грязь / Filth (2013) BDRip 1080p by msltel | D, A .torrent   [Информация о файле (нажмите для просмотра)] Перевод: дублированный, авторскийСубтитры: русские (2 варианта), английские, английские (для слабослышащих, черные и цветные) (все отдельно)Качество: BDRip 1080pСравнение с исходникомФормат: MKVВидео: 12.2 Mbps,1920x816, 24 кадра/с, 0.324 bppАудио 1: русский, AC3, 384 kbps, 6 ch, 48 kHz [дублированный, R5]Аудио 2: русский, AC3, 384 kbps, 6 ch, 48 kHz [авторский, Дмитрий Пучков (Гоблин), с ненормативной лексикой]Аудио 3: русский, AC3, 448 kbps, 6 ch, 48 kHz [авторский, Юрий Сербин]Аудио: украинский, AC3, 192 kbps, 2 ch, 48 kHz [профессиональный двухголосый]Аудио: английский, DTS, 768 kbps, 6 ch, 48 kHz [оригинал]Аудио: английский, AC3, 192 kbps, 2 ch, 48 kHz [комментарий]Видео: Идентификатор : 1 Формат : AVC Формат/Информация : Advanced Video Codec Профиль формата : [email protected] Параметр CABAC формата : Да Параметр ReFrames формата : 4 кадра Идентификатор кодека : V_MPEG4/ISO/AVC Продолжительность : 1 ч. 37 м. Битрейт : 12,2 Мбит/сек Ширина : 1920 пикселей Высота : 816 пикселей Соотношение сторон : 2,35:1 Режим частоты кадров : Постоянный Частота кадров : 24,000 кадра/сек Цветовое пространство : YUV Субдискретизация насыщенности : 4:2:0 Битовая глубина : 8 бит Тип развёртки : Прогрессивная Бит/(Пиксели*Кадры) : 0.324 Размер потока : 8,29 Гбайт (89%) Заголовок : BDRip -- STarankov Библиотека кодирования : x264 core 142 r2431 ac76440 Настройки программы : cabac=1 / ref=4 / deblock=1:-1:-1 / analyse=0x3:0x113 / me=umh / subme=10 / psy=1 / psy_rd=1.00:0.15 / mixed_ref=1 / me_range=32 / chroma_me=1 / trellis=2 / 8x8dct=1 / cqm=0 / deadzone=21,11 / fast_pskip=1 / chroma_qp_offset=-3 / threads=6 / lookahead_threads=1 / sliced_threads=0 / nr=0 / decimate=1 / interlaced=0 / bluray_compat=0 / constrained_intra=0 / bframes=8 / b_pyramid=2 / b_adapt=2 / b_bias=0 / direct=3 / weightb=1 / open_gop=0 / weightp=2 / keyint=230 / keyint_min=23 / scenecut=40 / intra_refresh=0 / rc_lookahead=40 / rc=crf / mbtree=0 / crf=20.0 / qcomp=0.60 / qpmin=0 / qpmax=69 / qpstep=4 / vbv_maxrate=50000 / vbv_bufsize=62500 / crf_max=0.0 / nal_hrd=none / filler=0 / ip_ratio=1.40 / pb_ratio=1.30 / aq=1:1.00 Язык : English Default : Да Forced : Нет DURATION : 01:37:22.334000000 NUMBER_OF_FRAMES : 140216 NUMBER_OF_BYTES : 9095431461 _STATISTICS_WRITING_APP : mkvmerge v7.3.0 ('Nouages') 64bit built on Oct 22 2014 18:53:34 _STATISTICS_WRITING_DATE_UTC : 2014-11-07 07:50:37 _STATISTICS_TAGS : BPS DURATION NUMBER_OF_FRAMES NUMBER_OF_BYTESАудио #1: Идентификатор : 2 Формат : AC-3 Формат/Информация : Audio Coding 3 Расширение режима : CM (complete main) Параметр Endianness формата : Big Идентификатор кодека : A_AC3 Продолжительность : 1 ч. 37 м. Вид битрейта : Постоянный Битрейт : 384 Кбит/сек Каналы : 6 каналов Расположение каналов : Front: L C R, Side: L R, LFE Частота : 48,0 КГц Битовая глубина : 16 бит Метод сжатия : С потерями Размер потока : 267 Мбайт (3%) Заголовок : DUB (R5) Язык : Russian Default : Да Forced : НетАудио #2: Идентификатор : 3 Формат : AC-3 Формат/Информация : Audio Coding 3 Расширение режима : CM (complete main) Параметр Endianness формата : Big Идентификатор кодека : A_AC3 Продолжительность : 1 ч. 37 м. Вид битрейта : Постоянный Битрейт : 384 Кбит/сек Каналы : 6 каналов Расположение каналов : Front: L C R, Side: L R, LFE Частота : 48,0 КГц Битовая глубина : 16 бит Метод сжатия : С потерями Размер потока : 267 Мбайт (3%) Заголовок : AVO (Дмитрий Пучков (Гоблин)) Язык : Russian Default : Нет Forced : НетАудио #3: Идентификатор : 4 Формат : AC-3 Формат/Информация : Audio Coding 3 Расширение режима : CM (complete main) Параметр Endianness формата : Big Идентификатор кодека : A_AC3 Продолжительность : 1 ч. 37 м. Вид битрейта : Постоянный Битрейт : 448 Кбит/сек Каналы : 6 каналов Расположение каналов : Front: L C R, Side: L R, LFE Частота : 48,0 КГц Битовая глубина : 16 бит Метод сжатия : С потерями Размер потока : 312 Мбайт (3%) Заголовок : AVO (Юрий Сербин) Язык : Russian Default : Нет Forced : НетАудио: Формат : AC-3 Формат/Информация : Audio Coding 3 Расширение режима : CM (complete main) Параметр Endianness формата : Big Продолжительность : 1 ч. 37 м. Вид битрейта : Постоянный Битрейт : 192 Кбит/сек Каналы : 2 канала Расположение каналов : Front: L R Частота : 48,0 КГц Битовая глубина : 16 бит Метод сжатия : С потерями Размер потока : 134 Мбайт (100%)Аудио: Формат : AC-3 Формат/Информация : Audio Coding 3 Расширение режима : CM (complete main) Параметр Endianness формата : Big Продолжительность : 1 ч. 37 м. Вид битрейта : Постоянный Битрейт : 192 Кбит/сек Каналы : 2 канала Расположение каналов : Front: L R Частота : 48,0 КГц Битовая глубина : 16 бит Метод сжатия : С потерями Размер потока : 134 Мбайт (100%)Аудио: Формат : DTS Формат/Информация : Digital Theater Systems Режим : 16 Параметр Endianness формата : Big Продолжительность : 1 ч. 37 м. Вид битрейта : Постоянный Битрейт : 768 Кбит/сек Каналы : 6 каналов Расположение каналов : Front: L C R, Side: L R, LFE Частота : 48,0 КГц Битовая глубина : 24 бит Метод сжатия : С потерями Размер потока : 535 Мбайт (100%) 10,08 Gb 68 17
10 февраля 2016 15:50 Грязь / Filth (2013) BDRip от ivandubskoj | D, A .torrent   [Информация о файле (нажмите для просмотра)] Перевод: Дублированный (R5),авторский одноголосый [Ю. Сербин], авторский одноголосый [Д. Пучков aka Гоблин]Кодек: XviDКачество: BDRip (Исходник: Blu-ray [Custom] (1080p) от АДМин@BlueBird)Видео: XviD, 720x304 (2.35:1), 1978 Кбит/с, 24 кадр/сАудио #1: Русский, 48000 Гц, 384 Кбит/с, 6 каналов (5.1) - Дубляж, R5Аудио #2: Русский, 48000 Гц, 448 Кбит/с, 6 каналов (5.1) -Авторский одноголосый [Ю. Сербин]Аудио #3: Русский, 48000 Гц, 384 Кбит/с, 6 каналов (5.1) - Авторский одноголосый [Д. Пучков aka Гоблин]Субтитры: Нет 2,18 Gb 237 10
10 февраля 2016 15:50 Грязь / Filth (2013) Blu-Ray Remux 1080p от ivandubskoj | D, P2, A .torrent   [Информация о файле (нажмите для просмотра)] Перевод: Дублированный, авторский одноголосый (Ю. Сербин), авторский одноголосый (Д. Пучков aka Гоблин), профессиональный двухголосый (украинский)Кодек: MPEG-4 AVCКачество: Blu-Ray Remux (1080p)Видео: MPEG-4 AVC, 28997 Кбит/с, 1920x1080 (16:9), 24 кадр/сАудио #1: Русский, Dolby AC3, 48000 Гц, 384 Кбит/с, 6 каналов (5.1) - DUB, R5Аудио #2: Русский, Dolby AC3, 48000 Гц, 448 Кбит/с, 6 каналов (5.1) - AVO [Ю. Сербин]Аудио #3: Русский, Dolby AC3, 48000 Гц, 384 Кбит/с, 6 каналов (5.1) - AVO [Д. Пучков aka Гоблин]Аудио #4: Украинский, Dolby AC3, 48000 Гц, 192 Кбит/с, 2 канала (Стерео) - DVOАудио #5: Английский, DTS-HD MA, 48000 Гц, 3939 Кбит/с, 6 каналов (5.1) - ОригиналАудио #6: Английский, DTS-HD MA, 48000 Гц, 1663 Кбит/с , 2 канала (Стерео) - Оригинал [Комментарии режиссёра и сценариста]Субтитры: Русские, английские (Полные, SDH, SDH-Colored) - SRT 24,49 Gb 18 6
10 февраля 2016 15:50 Грязь / Filth (2013) BDRip 1080p | D, A .torrent   [Информация о файле (нажмите для просмотра)] Перевод: Дублированный (лицензия), Авторский (одноголосый закадровый) Дмитрий Пучков aka Гоблин [Лицензия R5]Кодек: MPEG-4 AVC (h364)Качество: BDRip 1080pВидео: 1920x816, 24fps, 13.2 MbpsСубтитры: Русские(notabenoid), Английские, вшитые, отключаемыеЗвук: Аудио #1: Русский - Dolby AC3, 48000Hz, 6 ch,384kbps - (Дубляж)Аудио #2: Русский - Dolby AC3, 48000Hz, 6ch, 384kbps - Авторский одноголосый (Гоблин)Аудио #3: Английский - DTS, 48000Hz, 6ch, 768kbps - (оригинал) 10 Gb 52 1
10 февраля 2016 15:50 Грязь / Filth (2013) BDRip 1080p .torrent   [Информация о файле (нажмите для просмотра)] Перевод: Дублированный (лицензия) + Украинский + ОригиналКодек: x264Качество: BDRip (источник: Blu-ray Disc)Видео: 1920x816 (2,35:1), 24.000 fps (True24p), 7261 kbpsАудио #1: AC-3, 6 ch, 384 kbps (Rus) R5Аудио #2: AC-3, 2 ch, 192 kbps (Ukr) Двухголосый закадровыйАудио #3: AC-3, 6 ch, 640 kbps (Eng) ОригиналСубтитры: Английские (SDH), АнглийскиеВидео: Идентификатор : 1 Формат : AVC Формат/Информация : Advanced Video Codec Профиль формата : [email protected] Параметр CABAC формата : Да Параметр ReFrames формата : 5 кадров Идентификатор кодека : V_MPEG4/ISO/AVC Продолжительность : 1 ч. 37 м. Битрейт : 7261 Кбит/сек Ширина : 1920 пикселей Высота : 816 пикселей Соотношение сторон : 2,35:1 Режим частоты кадров : Постоянный Частота кадров : 24,000 кадра/сек Цветовое пространство : YUV Субдискретизация насыщенности : 4:2:0 Битовая глубина : 8 бит Тип развёртки : Прогрессивная Бит/(Пиксели*Кадры) : 0.193 Размер потока : 4,82 Гбайт (84%) Заголовок : Release by N1NT3NDO Библиотека кодирования : x264 core 140 r2377 1ca7bb9 Настройки программы : cabac=1 / ref=5 / deblock=1:-3:-3 / analyse=0x3:0x133 / me=umh / subme=11 / psy=1 / psy_rd=1.00:0.00 / mixed_ref=1 / me_range=32 / chroma_me=1 / trellis=2 / 8x8dct=1 / cqm=0 / deadzone=21,11 / fast_pskip=0 / chroma_qp_offset=-2 / threads=12 / lookahead_threads=1 / sliced_threads=0 / nr=0 / decimate=0 / interlaced=0 / bluray_compat=0 / constrained_intra=0 / bframes=6 / b_pyramid=2 / b_adapt=2 / b_bias=0 / direct=3 / weightb=1 / open_gop=0 / weightp=2 / keyint=240 / keyint_min=24 / scenecut=40 / intra_refresh=0 / rc=2pass / mbtree=0 / bitrate=7261 / ratetol=1.0 / qcomp=0.60 / qpmin=0 / qpmax=69 / qpstep=4 / cplxblur=20.0 / qblur=0.5 / ip_ratio=1.40 / pb_ratio=1.30 / aq=1:1.00 Язык : English Default : Да Forced : НетАудио #1: Идентификатор : 2 Формат : AC-3 Формат/Информация : Audio Coding 3 Расширение режима : CM (complete main) Параметр Endianness формата : Big Идентификатор кодека : A_AC3 Продолжительность : 1 ч. 37 м. Вид битрейта : Постоянный Битрейт : 384 Кбит/сек Каналы : 6 каналов Расположение каналов : Front: L C R, Side: L R, LFE Частота : 48,0 КГц Битовая глубина : 16 бит Метод сжатия : С потерями Размер потока : 267 Мбайт (5%) Заголовок : Дубляж, R5 Язык : Russian Default : Да Forced : НетАудио #2: Идентификатор : 3 Формат : AC-3 Формат/Информация : Audio Coding 3 Расширение режима : CM (complete main) Параметр Endianness формата : Big Идентификатор кодека : A_AC3 Продолжительность : 1 ч. 37 м. Вид битрейта : Постоянный Битрейт : 192 Кбит/сек Каналы : 2 канала Расположение каналов : Front: L R Частота : 48,0 КГц Битовая глубина : 16 бит Метод сжатия : С потерями Размер потока : 134 Мбайт (2%) Заголовок : Двухголосый закадровый, Украинский Язык : Ukrainian Default : Нет Forced : НетАудио #3: Идентификатор : 4 Формат : AC-3 Формат/Информация : Audio Coding 3 Расширение режима : CM (complete main) Параметр Endianness формата : Big Идентификатор кодека : A_AC3 Продолжительность : 1 ч. 37 м. Вид битрейта : Постоянный Битрейт : 640 Кбит/сек Каналы : 6 каналов Расположение каналов : Front: L C R, Side: L R, LFE Частота : 48,0 КГц Битовая глубина : 16 бит Метод сжатия : С потерями Размер потока : 446 Мбайт (8%) Заголовок : English Язык : English Default : Нет Forced : Нет 5,76 Gb 91 11
10 февраля 2016 15:50 Грязь / Filth (2013) BDRip 720p от MediaClub | D, A .torrent   [Информация о файле (нажмите для просмотра)] Перевод: Дублированный, авторский одноголосыйКодек: MPEG-4 AVCКачество: BDRip 720pВидео: 6710 Кбит/с, 1280x544, 24.000 кадр/сЗвук: Аудио #1: Русский (AC3, 6 ch, 384 Кбит/с) / Дублированный Аудио #2: Русский (AC3, 6 ch, 384 Кбит/с) / Авторский одноголосый (Гоблин) Аудио #3: Украинский (AC3, 2 ch, 192 Кбит/с) / Дублированный Аудио #4: Английский (AC3, 6 ch, 384 Кбит/с)Субтитры: Русские, английские 5,59 Gb 42 6
10 февраля 2016 15:50 Грязь / Filth (2013) HDRip от Scarabey | Гоблин | Лицензия .torrent   [Информация о файле (нажмите для просмотра)] Перевод: Авторский (одноголосый, закадровый) Дмитрий Пучков aka GoblinКачество: HDRipФормат: AVIВидео: 720x304 (2.37:1), 24 fps, XviD build 50 ~1735 kbps avg, 0.33 bit/pixelАудио: 48 kHz, AC3 Dolby Digital, 3/2 (L,C,R,l,r) + LFE ch, ~384.00 kbps avg 1,45 Gb 425 16
10 февраля 2016 15:50 Грязь / Filth (2013) BDRip | Гоблин | Лицензия .torrent   [Информация о файле (нажмите для просмотра)] Перевод: Авторский (одноголосый закадровый) Дмитрий Пучков aka Гоблин [Лицензия R5]Кодек: XviDКачество: BDRipВидео: 720x304, 24 fps, XviD build 65 ~1742 kbps avg, 0.33 bit/pixelЗвук: 48 kHz, AC3 Dolby Digital, 3/2 (L,C,R,l,r) + LFE ch, ~384 kbps avg 1,45 Gb 799 23
10 февраля 2016 15:50 Грязь / Filth (2013) BDRip-AVC от HELLYWOOD | Лицензия .torrent   [Информация о файле (нажмите для просмотра)] Перевод: Профессиональный (полное дублирование)Субтитры: Aнглийские (SDH + SDH-Colored)Качество: BDRip-AVC [BDRemux]Формат: MKVВидео: х.264, 1040x442 (2,35:1), 23,976 fps, 2444 Кbps, 0.222 bit/pixelАудио#1: 48 kHz, AC3 Dolby Digital, 3/2 (L,C,R,l,r) + LFE ch, 384.00 kbps |RUSАудио#2: 48 kHz, AC3 Dolby Digital, 3/2 (L,C,R,l,r) + LFE ch, 384.00 kbps |ENG 2,18 Gb 38 1
10 февраля 2016 15:49 Грязь / Filth (2013) BDRip 720p от Leonardo and Scarabey | Лицензия .torrent   [Информация о файле (нажмите для просмотра)] Перевод: Профессиональный (полное дублирование) ЛицензияФормат: MKVВидео кодек: MPEG-4 AVC Аудио кодек: AC3Видео: AVC, 1280x544 (2.35:1) at 24.000 fps, AVC at 5371 kbps avg, 0.315 bit/pixelАудио: 48 kHz, AC3 Dolby Digital, 3/2 (L,C,R,l,r) + LFE ch, 384.00 kbps - Russian 3,92 Gb 58 7
10 февраля 2016 15:49 Грязь / Filth (2013) BDRip-AVC от MediaClub | Лицензия .torrent   [Информация о файле (нажмите для просмотра)] Перевод: Дублированный(Лицензия)Качество: BDRip-AVC[ Filth.2013.1080p.BluRay.AVC.DTS-HD.MA.5.1-PublicHD]Видео: MPEG-4 AVC, 2310 Кбит/с, 1024x436, 24.000 кадр/сАудио #1: Русский (AC3, 384 ch, 384 Кбит/с) / ДублированныйАудио #2: Английский (AC3, 6 ch, 448 Кбит/с)Субтитры: Английские 2,13 Gb 19 1
10 февраля 2016 15:49 Грязь / Filth (2013) HDRip-AVC от New-Team | Лицензия .torrent   [Информация о файле (нажмите для просмотра)] Перевод: Профессиональный (дублированный) | ЛицензияКачество: HDRip-AVC [Исходник BDRip 1080p]Формат: MKVВидео: 944x400 (2:35:1), 23.976 fps, h364, 1 757 Kbps, 0.194 bit/pixelАудио: 48 kHz, AC3 Dolby Digital, 3/2 (L,C,R,l,r) + LFE ch, ~384 kbps 1,45 Gb 14 3
10 февраля 2016 15:49 Грязь / Filth (2013) HDRip-AVC | D .torrent   [Информация о файле (нажмите для просмотра)] Перевод: Профессиональный (полное дублирование)Кодек: x264Качество: HDRip-AVC[BDRip 720p]Видео: 800x336 (2.40:1), 24.000 fps, 997 Кbps, 0.155 bit/pixelЗвук: 48.0 KHz / 24.0 KHz, AAC-HE, 2 ch, ~72 kbps avg 744,73 Mb 9 1
10 февраля 2016 15:49 Грязь / Filth (2013) BDRip 720p | Лицензия .torrent   [Информация о файле (нажмите для просмотра)] Формат: MKVКачество: BDRip 720pВидео: 5249 Kb/s, 1280x544Аудио: Russian: AC3, 384 kb/s (6 ch) / English: DTS, 1509 kb/s (6 ch)Субтитры: English 4,43 Gb 77 6
10 февраля 2016 15:49 Грязь / Filth (2013) DVDRip-AVC | Гоблин, D .torrent   [Информация о файле (нажмите для просмотра)] Формат: MKVКачество: DVDRip-AVC [Рип с DVD9]Видео: 1842 kb/s, 1024x440Аудио: Russian [Гоблин]: AC3, 192 kb/s (2 ch) / Russain [Dub]: AC3, 384 kb/s (6 ch) 1,58 Gb 6 4
10 февраля 2016 15:49 Грязь / Filth (2013) DVDRip от Scarabey | D | Лицензия .torrent   [Информация о файле (нажмите для просмотра)] Перевод: Профессиональный (дублированный) |Лицензия|Качество: DVDRipФормат: AVIВидео: 720x304 (2.37:1), 25 fps, XviD build 73 ~977 kbps avg, 0.18 bit/pixelАудио: 48 kHz, MPEG Layer 3, 2 ch, ~128.00 kbps avg 746,63 Mb 12 1
10 февраля 2016 15:49 Грязь / Filth (2013) DVDRip-AVC | Лицензия .torrent   [Информация о файле (нажмите для просмотра)] Формат: MKVКачество: DVDRip-AVC [Рип с DVD9]Видео: 1842 kb/s, 1024x440Аудио: AC3, 384 kb/s (6 ch) 1,46 Gb 610 10

Скачать фильм Грязь через торрент в хорошем качестве бесплатно 1080p

piratbit.ru

Размер: 25.14 GB | Добавлен: 3 года 9 мес. назад | Торрент скачан:90 раз
Реклама Дарим 3000 рублей за регистрацию, не упусти свой шанс получить шикарный бонус!!!

26-01-2014 10:37 Грязь Скачать торрент  

Грязь / Filth«This Little Piggy went to town!»Год выпуска: 2013Страна: ВеликобританияЖанр: криминал, драма, комедияПродолжительность: 01:04:47Перевод: |Профессиональный (полное дублирование)|Субтитры: English (SDH)Режиссер: Джон С. Бейрд / Jon S. BairdВ ролях: Джеймс МакЭвой (Bruce Robertson), Джейми Белл (Ray Lennox), Эдди Марсан (Bladesey), Джим Бродбент (Dr. Rossi), Имоджен Путс (Amanda Drummond), Шона МакДональд (Carole Robertson), Ширли Хендерсон (Bunty), Джон Сессионс (Bob Toal), Гари Льюис (Gus Bain), Иман Эллиотт (Peter Inglis), Джоанн Фроггатт (Mary), Йен де Кестекер (Ocky)Описание: Главный герой - продажный шотландский полицейский Брюс Робертсон, помешанный на сексе и кокаине. Ему бы надо расследовать убийство, но ему сильно мешают собственные странности, привычка разыгрывать коллег и беготня за девушками. За Робертсоном присматривают его напарник Рэй Леннокс и начальник Боб Тоал.Рейтинг Качество: BD RemuxФормат: BDAVВидео кодек: AVCАудио кодек: AC3 / DTSВидео: AVC, 1920x1080p / 24 fps / 16:9 / ~ 28997 kbpsAудио#1: Russian: 48 kHz, AC3, 3/2 (L,C,R,l,r) + LFE ch, ~384.00 kbps avg |Дубляж, R5|Aудио#2: English: 48 kHz/24-bit, DTS-HD MA 5.1, ~3939.00 kbps avgAудио#3: English: 48 kHz/24-bit, DTS-HD MA 2.0, ~1663.00 kbps avg |Commentary with Writer/Director Jon S. Baird and Author Irvine Welsh|Оформление: Messa-fan DISC INFO:

Disc Title: FILTH_HDCLUBDisc Size: 44 565 162 628 bytesProtection: AACSBD-Java: NoExtras: 50Hz ContentBDInfo: 0.5.8

PLAYLIST REPORT:

Name: 00000.MPLSLength: 1:37:22.333 (h:m:s.ms)Size: 26 988 969 984 bytesTotal Bitrate: 36,96 Mbps

VIDEO:

Codec Bitrate Description ----- ------- ----------- MPEG-4 AVC Video 28997 kbps 1080p / 24 fps / 16:9 / High Profile 4.1

AUDIO:

Codec Language Bitrate Description ----- -------- ------- ----------- Dolby Digital Audio Russian 384 kbps 5.1 / 48 kHz / 384 kbps / DN -4dBDTS-HD Master Audio English 1663 kbps 2.0 / 48 kHz / 1663 kbps / 24-bit (DTS Core: 2.0 / 48 kHz / 768 kbps / 24-bit)DTS-HD Master Audio English 3939 kbps 5.1 / 48 kHz / 3939 kbps / 24-bit (DTS Core: 5.1 / 48 kHz / 768 kbps / 24-bit)

SUBTITLES:

Codec Language Bitrate Description ----- -------- ------- ----------- Presentation Graphics English 45,848 kbps

FILES:

Name Time In Length Size Total Bitrate ---- ------- ------ ---- ------------- 00000.M2TS 0:00:00.000 1:37:22.333 26 988 969 984 36 956

CHAPTERS:

Number Time In Length Avg Video Rate Max 1-Sec Rate Max 1-Sec Time Max 5-Sec Rate Max 5-Sec Time Max 10Sec Rate Max 10Sec Time Avg Frame Size Max Frame Size Max Frame Time ------ ------- ------ -------------- -------------- -------------- -------------- -------------- -------------- -------------- -------------- -------------- -------------- 1 0:00:00.000 0:08:15.500 27 449 kbps 48 670 kbps 00:01:41.333 36 846 kbps 00:01:40.416 33 517 kbps 00:01:50.583 142 953 bytes 471 901 bytes 00:01:50.625 2 0:08:15.500 0:07:41.291 30 281 kbps 35 616 kbps 00:14:58.875 33 300 kbps 00:09:22.125 32 424 kbps 00:12:59.208 157 715 bytes 362 680 bytes 00:08:43.083 3 0:15:56.791 0:08:41.875 30 172 kbps 35 834 kbps 00:18:30.208 33 102 kbps 00:20:17.875 32 465 kbps 00:20:12.875 157 143 bytes 361 548 bytes 00:16:00.500 4 0:24:38.666 0:07:57.458 30 081 kbps 35 707 kbps 00:28:14.833 32 690 kbps 00:29:21.458 32 131 kbps 00:24:41.291 156 670 bytes 391 940 bytes 00:27:28.458 5 0:32:36.125 0:08:19.791 30 453 kbps 36 099 kbps 00:40:12.500 33 147 kbps 00:39:21.041 32 164 kbps 00:40:44.000 158 610 bytes 391 868 bytes 00:39:44.666 6 0:40:55.916 0:07:04.541 30 815 kbps 36 977 kbps 00:43:48.583 34 459 kbps 00:47:14.000 34 156 kbps 00:47:12.708 160 493 bytes 397 219 bytes 00:43:48.625 7 0:48:00.458 0:08:08.541 30 561 kbps 37 157 kbps 00:49:01.458 34 342 kbps 00:48:19.583 34 209 kbps 00:48:34.291 159 174 bytes 408 965 bytes 00:49:01.500 8 0:56:09.000 0:07:34.833 30 438 kbps 36 396 kbps 00:59:38.208 34 009 kbps 00:59:36.333 33 066 kbps 00:59:36.375 158 531 bytes 426 659 bytes 01:01:02.000 9 1:03:43.833 0:10:23.875 30 699 kbps 35 745 kbps 01:04:36.666 34 433 kbps 01:09:02.333 33 551 kbps 01:09:02.958 159 893 bytes 402 410 bytes 01:04:37.625 10 1:14:07.708 0:05:07.250 30 344 kbps 39 452 kbps 01:16:31.999 34 037 kbps 01:15:33.541 32 978 kbps 01:15:26.291 158 043 bytes 619 223 bytes 01:16:32.041 11 1:19:14.958 0:09:04.208 30 440 kbps 36 006 kbps 01:22:16.374 33 363 kbps 01:19:41.541 32 356 kbps 01:27:07.333 158 539 bytes 396 648 bytes 01:23:51.375 12 1:28:19.166 0:09:03.166 17 705 kbps 45 840 kbps 01:32:00.166 34 631 kbps 01:32:08.041 33 041 kbps 01:32:08.041 92 222 bytes 829 803 bytes 01:32:46.875

  • Фильм снят по мотивам романа Ирвина Уэлша «Дерьмо» (Filth, 1998).
  • В ранних версиях сценария в машине должны были петь песню «I Wanna Know What Love Is» группы Foreigner. Но Ирвин Уэлш выбрал «Silver Lady».
  • Одна из певиц в машине Дэвида Соула во время исполнения песни «Silver Lady» - это его дочь Хина Соул.
  • Комната, в которой проходит консультация Брюса с доктором, очень похожа на комнату из фильма «2001 год: Космическая одиссея» (1968).
  • В сцене, где больного Брюса тошнит, исполняющего его роль Джеймса МакЭвоя рвало по-настоящему.
  • еще 2 факта
  • Во время отпуска в Гамбурге Блейдси читает из путеводителя Брюсу о том, что современная Германия существует уже с 1865 года. Объединение Германии фактически произошло только в 1871 году.
  • В преддверии Рождества Брюс Робертсон днем читает футбольные результаты в витрине магазина. Это происходит около 16 часов 45 минут, в такое время года на улице должно быть уже темно.
  • Скачать Грязь через торрент http://i1.imageban.ru/out/2014/01/26/1254f9af6cb67d1d0b953a5829fb4c79.png Скачать фильм Грязь через торрент бесплантно в хорошем качестве Описание: Главный герой - продажный шотландский полицейский Брюс Робертсон, помешанный на сексе и кокаине. Ему бы надо расследовать ... 2014-01-26 10:37 9.3 10 6

    Loading...

    Loading...

    % Раздел Тема Автор DL S | L
    Фильмы 2013 [DVDrip, WEB-DLRip, HDrip] [ 1.35 GB ] Грязь / Filth [2013 BDRip Ворон Скачать
    Фильмы 2013 [DVDrip, WEB-DLRip, HDrip] [ 1.37 GB ] Грязь / Filth [2013 DVDRip] () VintMosina Скачать
    Фильмы [HD 720p, 1080p] (Хороший звук DUB, MVO) [ 8.03 GB ] Грязь / Filth [2013 BDRip 1080p Ворон Скачать
    Фильмы [HD 720p, 1080p] (Хороший звук DUB, MVO) [ 4.43 GB ] Грязь / Filth [2013 BDRip 720p ] Neftannik Скачать
    Фильмы 2013 [DVDrip, WEB-DLRip, HDrip] [ 1008 MB ] Грязь / Filth [2013 DVDRip] VintMosina Скачать

    Рекламный пират

    22-08-2016 20:44 Грязь Скачать торрент  

    спасибо! раздайтеё!

    Дорогой пользователь! Огромная просьба, поблагодарите релизера, оцените раздачу и оставьте свои комментарий, если Вы скачали Грязь через торрент бесплатно! Внесите свою лепту в развитие PiratBit!

    Комментировать посты могут только пользователи прошедшие не сложную регистрацию

    Грязь через торрент Скачать бесплатно Грязь Грязь скачать торрент Грязь смотреть онлайн Cкачать фильм Грязь бесплатно Грязь скачать торрент в хорошем качестве Грязь смотреть онлайн бесплатно в хорошем качестве

    Вы не можете начинать темыВы не можете отвечать на сообщенияВы не можете редактировать свои сообщенияВы не можете удалять свои сообщенияВы не можете голосовать в опросахВы не можете прикреплять файлы к сообщениямВы можете скачивать файлы

    Скачать фильм Грязь через торрент в хорошем качестве бесплатно 1080p

    GeneralUnique ID                                : 236150280754476813639760936894656619904 (0xB1A8E3C3E82197D783793BF2773B2580)Complete name                            : C:UsersВетальDownloadsFilth.2013.D.BDRip.1080p.mkvFormat                                   : MatroskaFormat version                           : Version 2File size                                : 8.03 GiBDuration                                 : 1h 37mnOverall bit rate                         : 11.8 MbpsEncoded date                             : UTC 2014-01-22 21:43:34Writing application                      : mkvmerge v6.7.0 ('Back to the Ground') 32bit built on Jan  8 2014 15:03:17Writing library                          : libebml v1.3.0 + libmatroska v1.4.1

    VideoID                                       : 2Format                                   : AVCFormat/Info                              : Advanced Video CodecFormat profile                           : [email protected] settings, CABAC                   : YesFormat settings, ReFrames                : 5 framesCodec ID                                 : V_MPEG4/ISO/AVCDuration                                 : 1h 37mnWidth                                    : 1 920 pixelsHeight                                   : 816 pixelsDisplay aspect ratio                     : 2.35:1Frame rate                               : 24.000 fpsColor space                              : YUVChroma subsampling                       : 4:2:0Bit depth                                : 8 bitsScan type                                : ProgressiveLanguage                                 : EnglishDefault                                  : YesForced                                   : No

    Audio #1ID                                       : 1Format                                   : AC-3Format/Info                              : Audio Coding 3Mode extension                           : CM (complete main)Codec ID                                 : A_AC3Duration                                 : 1h 37mnBit rate mode                            : ConstantBit rate                                 : 384 KbpsChannel(s)                               : 6 channelsChannel positions                        : Front: L C R, Side: L R, LFESampling rate                            : 48.0 KHzBit depth                                : 16 bitsCompression mode                         : LossyStream size                              : 267 MiB (3%)Language                                 : RussianDefault                                  : YesForced                                   : No

    Audio #2ID                                       : 3Format                                   : DTSFormat/Info                              : Digital Theater SystemsCodec ID                                 : A_DTSDuration                                 : 1h 37mnBit rate mode                            : ConstantBit rate                                 : 755 KbpsChannel(s)                               : 6 channelsChannel positions                        : Front: L C R, Side: L R, LFESampling rate                            : 48.0 KHzBit depth                                : 24 bitsCompression mode                         : LossyStream size                              : 525 MiB (6%)Language                                 : EnglishDefault                                  : NoForced                                   : No

    Audio #3ID                                       : 4Format                                   : AACFormat/Info                              : Advanced Audio CodecFormat profile                           : LCCodec ID                                 : A_AACDuration                                 : 1h 37mnChannel(s)                               : 2 channelsChannel positions                        : Front: L RSampling rate                            : 48.0 KHzCompression mode                         : LossyDelay relative to video                  : 9msLanguage                                 : EnglishDefault                                  : NoForced                                   : No

    TextID                                       : 5Format                                   : PGSMuxing mode                              : zlibCodec ID                                 : S_HDMV/PGSCodec ID/Info                            : The same subtitle format used on BDs/HD-DVDsLanguage                                 : EnglishDefault                                  : NoForced                                   : No

    Menu00:00:00.000                             : en:00:00:00.00000:08:15.500                             : en:00:08:15.50000:15:56.792                             : en:00:15:56.79200:24:38.667                             : en:00:24:38.66700:32:36.125                             : en:00:32:36.12500:40:55.917                             : en:00:40:55.91700:48:00.458                             : en:00:48:00.45800:56:09.000                             : en:00:56:09.00001:03:43.833                             : en:01:03:43.83301:14:07.708                             : en:01:14:07.70801:19:14.958                             : en:01:19:14.95801:28:19.167                             : en:01:28:19.167

    piratbit.ru

    Скачать фильм Грязь через торрент в хорошем качестве бесплатно 1080p] DUB

    frame I:1189 Avg QP:18.46 size:185712frame P:25906 Avg QP:19.47 size:106621frame B:113121 Avg QP:21.52 size: 54035

    ОбщееУникальный идентификатор : 178414201471877320428885955693372143941 (0x86395347A362C6118D3AD20C1E5E7945)Полное имя : D:\Video\Grjaz.2013.BDRip.1080p\Grjaz.2013.BDRip.1080p.mkvФормат : MatroskaВерсия формата : Version 4 / Version 2Размер файла : 9,30 ГбайтПродолжительность : 1 ч. 37 м.Общий поток : 13,7 Мбит/секДата кодирования : UTC 2014-11-07 07:50:37Программа кодирования : mkvmerge v7.3.0 ('Nouages') 64bit built on Oct 22 2014 18:53:34Библиотека кодирования : libebml v1.3.0 + libmatroska v1.4.1DURATION : 01:37:22.560000000NUMBER_OF_FRAMES : 182580NUMBER_OF_BYTES : 327183360_STATISTICS_WRITING_APP : mkvmerge v7.3.0 ('Nouages') 64bit built on Oct 22 2014 18:53:34_STATISTICS_WRITING_DATE_UTC : 2014-11-07 07:50:37_STATISTICS_TAGS : BPS DURATION NUMBER_OF_FRAMES NUMBER_OF_BYTES

    ВидеоИдентификатор : 1Формат : AVCФормат/Информация : Advanced Video CodecПрофиль формата : [email protected]Параметр CABAC формата : ДаПараметр ReFrames формата : 4 кадраИдентификатор кодека : V_MPEG4/ISO/AVCПродолжительность : 1 ч. 37 м.Битрейт : 12,2 Мбит/секШирина : 1920 пикселейВысота : 816 пикселейСоотношение сторон : 2,35:1Режим частоты кадров : ПостоянныйЧастота кадров : 24,000 кадра/секЦветовое пространство : YUVСубдискретизация насыщенности : 4:2:0Битовая глубина : 8 битТип развёртки : ПрогрессивнаяБит/(Пиксели*Кадры) : 0.324Размер потока : 8,29 Гбайт (89%)Заголовок : BDRip -- STarankovБиблиотека кодирования : x264 core 142 r2431 ac76440Настройки программы : cabac=1 / ref=4 / deblock=1:-1:-1 / analyse=0x3:0x113 / me=umh / subme=10 / psy=1 / psy_rd=1.00:0.15 / mixed_ref=1 / me_range=32 / chroma_me=1 / trellis=2 / 8x8dct=1 / cqm=0 / deadzone=21,11 / fast_pskip=1 / chroma_qp_offset=-3 / threads=6 / lookahead_threads=1 / sliced_threads=0 / nr=0 / decimate=1 / interlaced=0 / bluray_compat=0 / constrained_intra=0 / bframes=8 / b_pyramid=2 / b_adapt=2 / b_bias=0 / direct=3 / weightb=1 / open_gop=0 / weightp=2 / keyint=230 / keyint_min=23 / scenecut=40 / intra_refresh=0 / rc_lookahead=40 / rc=crf / mbtree=0 / crf=20.0 / qcomp=0.60 / qpmin=0 / qpmax=69 / qpstep=4 / vbv_maxrate=50000 / vbv_bufsize=62500 / crf_max=0.0 / nal_hrd=none / filler=0 / ip_ratio=1.40 / pb_ratio=1.30 / aq=1:1.00Язык : EnglishDefault : ДаForced : НетDURATION : 01:37:22.334000000NUMBER_OF_FRAMES : 140216NUMBER_OF_BYTES : 9095431461_STATISTICS_WRITING_APP : mkvmerge v7.3.0 ('Nouages') 64bit built on Oct 22 2014 18:53:34_STATISTICS_WRITING_DATE_UTC : 2014-11-07 07:50:37_STATISTICS_TAGS : BPS DURATION NUMBER_OF_FRAMES NUMBER_OF_BYTES

    Аудио #1Идентификатор : 2Формат : AC-3Формат/Информация : Audio Coding 3Расширение режима : CM (complete main)Параметр Endianness формата : BigИдентификатор кодека : A_AC3Продолжительность : 1 ч. 37 м.Вид битрейта : ПостоянныйБитрейт : 384 Кбит/секКаналы : 6 каналовРасположение каналов : Front: L C R, Side: L R, LFEЧастота : 48,0 КГцБитовая глубина : 16 битМетод сжатия : С потерямиРазмер потока : 267 Мбайт (3%)Заголовок : DUB (R5)Язык : RussianDefault : ДаForced : Нет

    Аудио #2Идентификатор : 3Формат : AC-3Формат/Информация : Audio Coding 3Расширение режима : CM (complete main)Параметр Endianness формата : BigИдентификатор кодека : A_AC3Продолжительность : 1 ч. 37 м.Вид битрейта : ПостоянныйБитрейт : 384 Кбит/секКаналы : 6 каналовРасположение каналов : Front: L C R, Side: L R, LFEЧастота : 48,0 КГцБитовая глубина : 16 битМетод сжатия : С потерямиРазмер потока : 267 Мбайт (3%)Заголовок : AVO (Дмитрий Пучков (Гоблин))Язык : RussianDefault : НетForced : Нет

    Аудио #3Идентификатор : 4Формат : AC-3Формат/Информация : Audio Coding 3Расширение режима : CM (complete main)Параметр Endianness формата : BigИдентификатор кодека : A_AC3Продолжительность : 1 ч. 37 м.Вид битрейта : ПостоянныйБитрейт : 448 Кбит/секКаналы : 6 каналовРасположение каналов : Front: L C R, Side: L R, LFEЧастота : 48,0 КГцБитовая глубина : 16 битМетод сжатия : С потерямиРазмер потока : 312 Мбайт (3%)Заголовок : AVO (Юрий Сербин)Язык : RussianDefault : НетForced : Нет

    Меню00:00:00.000 : :Chapter 0100:08:15.500 : :Chapter 0200:15:56.790 : :Chapter 0300:24:38.665 : :Chapter 0400:32:36.125 : :Chapter 0500:40:55.916 : :Chapter 0600:48:00.457 : :Chapter 0700:56:09.000 : :Chapter 0801:03:43.833 : :Chapter 0901:14:07.707 : :Chapter 1001:19:14.957 : :Chapter 1101:28:19.165 : :Chapter 12

    ОбщееПолное имя : D:\Video\Grjaz.2013.BDRip.1080p\Grjaz.2013.Commentary.eng.ac3Формат : AC-3Формат/Информация : Audio Coding 3Размер файла : 134 МбайтПродолжительность : 1 ч. 37 м.Режим общего битрейта : ПостоянныйОбщий поток : 192 Кбит/сек

    АудиоФормат : AC-3Формат/Информация : Audio Coding 3Расширение режима : CM (complete main)Параметр Endianness формата : BigПродолжительность : 1 ч. 37 м.Вид битрейта : ПостоянныйБитрейт : 192 Кбит/секКаналы : 2 каналаРасположение каналов : Front: L RЧастота : 48,0 КГцБитовая глубина : 16 битМетод сжатия : С потерямиРазмер потока : 134 Мбайт (100%)

    ОбщееПолное имя : D:\Video\Grjaz.2013.BDRip.1080p\Grjaz.2013.DVO.ukr.ac3Формат : AC-3Формат/Информация : Audio Coding 3Размер файла : 134 МбайтПродолжительность : 1 ч. 37 м.Режим общего битрейта : ПостоянныйОбщий поток : 192 Кбит/сек

    АудиоФормат : AC-3Формат/Информация : Audio Coding 3Расширение режима : CM (complete main)Параметр Endianness формата : BigПродолжительность : 1 ч. 37 м.Вид битрейта : ПостоянныйБитрейт : 192 Кбит/секКаналы : 2 каналаРасположение каналов : Front: L RЧастота : 48,0 КГцБитовая глубина : 16 битМетод сжатия : С потерямиРазмер потока : 134 Мбайт (100%)

    ОбщееПолное имя : D:\Video\Grjaz.2013.BDRip.1080p\Grjaz.2013.eng.SDH.srtФормат : SubRipРазмер файла : 105 Кбайт

    ТекстФормат : SubRipМетод сжатия : Без потерь

    ОбщееПолное имя : D:\Video\Grjaz.2013.BDRip.1080p\Grjaz.2013.eng.srtФормат : SubRipРазмер файла : 96,8 Кбайт

    ТекстФормат : SubRipМетод сжатия : Без потерь

    ОбщееПолное имя : D:\Video\Grjaz.2013.BDRip.1080p\Grjaz.2013.Original.eng.dtsФормат : DTSФормат/Информация : Digital Theater SystemsРазмер файла : 535 МбайтПродолжительность : 1 ч. 37 м.Режим общего битрейта : ПостоянныйОбщий поток : 768 Кбит/сек

    АудиоФормат : DTSФормат/Информация : Digital Theater SystemsРежим : 16Параметр Endianness формата : BigПродолжительность : 1 ч. 37 м.Вид битрейта : ПостоянныйБитрейт : 768 Кбит/секКаналы : 6 каналовРасположение каналов : Front: L C R, Side: L R, LFEЧастота : 48,0 КГцБитовая глубина : 24 битМетод сжатия : С потерямиРазмер потока : 535 Мбайт (100%)

    ОбщееПолное имя : D:\Video\Grjaz.2013.BDRip.1080p\Grjaz.2013.rus1.srtФормат : SubRipРазмер файла : 126 Кбайт

    ТекстФормат : SubRipМетод сжатия : Без потерь

    ОбщееПолное имя : D:\Video\Grjaz.2013.BDRip.1080p\Grjaz.2013.rus2.srtФормат : SubRipРазмер файла : 132 Кбайт

    ТекстФормат : SubRipМетод сжатия : Без потерь

    ОбщееПолное имя : D:\Video\Grjaz.2013.BDRip.1080p\Grjaz.2013.SDH.colored.eng.srtФормат : SubRipРазмер файла : 110 Кбайт

    ТекстФормат : SubRipМетод сжатия : Без потерь

    piratbit.ru


    Смотрите также