Горькая луна скачать торрент в хорошем качестве


Горькая луна 1992 - скачать бесплатно через торрент в хорошем качестве. Без регистрации

www.kinovit.net

Название: Горькая луна / Bitter Moon (1992) BDRip от HQ-ViDEO
Качество видео: BDRip (источник: HDCLUB / BD-Remux / 1080p)
Перевод: Профессиональный (многоголосый, закадровый) + Оригинал (Английский)
Формат видео: AVI
Видео: XviD, build 67 codec 720 x 384; 23.976 fps; 1836 kbps; 0.277 bit/pixel
Аудио: AC3 Dolby Digital; 192 Kbps; 2 channels; 48 KHz |все дорожки|
Скачать

Загрузка начнется в течение 5 сек.

2.18 GB

Название: Горькая луна / Bitter Moon (1992) HDRip от Scarabey | D
Качество видео: HDRip
Перевод: Професиональный (полное дублирование)
Видео: 608x320 (1.90:1), 23.976 fps, XviD build 73 ~661 kbps avg, 0.14 bit/pixel
Аудио: 48 kHz, MPEG Layer 3, 2 ch, ~128.00 kbps avg
Скачать

Загрузка начнется в течение 5 сек.

798.02 MB

Название: Горькая луна / Bitter Moon (1992) HDRip от Scarabey | D
Качество видео: HDRip
Перевод: Дубляж
Видео: 704x368 (1.91:1), 23.976 fps, XviD build 73 ~2034 kbps avg, 0.33 bit/pixel
Аудио: 48 kHz, AC3 Dolby Digital, 2/0 (L,R) ch, ~192.00 kbps avg
Скачать

Загрузка начнется в течение 5 сек.

2.18 GB

Название: Горькая луна / Bitter Moon (1992) BDRip от HQCLUB
Качество видео: BDRip (источник: HDCLUB / Blu-Ray Remux / 1080i)
Перевод: Профессиональный (полное дублирование) Хлопушка + Оригинал (английский)
Формат видео: AVI
Видео: 720x384 (1.88:1), 23.976 fps, XviD build 65 ~1846 kbps avg, 0.28 bit/pixel
Аудио: + Профессиональный (многоголосый, закадровый)48 kHz, AC3 Dolby Digital, 2/0 (L,R) ch, ~192 kbps avg (DUB)48 kHz, AC3 Dolby Digital, 2/0 (L,R) ch, ~192 kbps avg (ENG)48 kHz, AC3 Dolby Digital, 2/0 (L,R) ch, ~192 kbps avg (MVO) (отдельно)48 kHz, AC3 Dolby Digital, 2/0 (L,R) ch, ~192 kbps avg (DVO.SOUZ-VIDEO) (отдельно)48 kHz, AC3 Dolby Digital, 2/0 (L,R) ch, ~192 kbps avg (VO) (отдельно)
Скачать

Загрузка начнется в течение 5 сек.

2.18 GB

Название: Горькая луна / Bitter Moon (1992) HDRip от Scarabey | D
Качество видео: HDRip
Перевод: Професиональный (полное дублирование)
Видео: 704x368 (1.91:1), 23.976 fps, XviD build 73 ~1283 kbps avg, 0.21 bit/pixel
Аудио: 48 kHz, AC3 Dolby Digital, 2/0 (L,R) ch, ~192.00 kbps avg
Скачать

Загрузка начнется в течение 5 сек.

1.45 GB

Название: Горькая луна / Bitter Moon (1992) BDRip-AVC | D, P, P2, P1
Качество видео: BDRip-AVC (Blu-Ray Remux (1080р))
Перевод: Дублированный, профессиональный многоголосый, профессиональный двухголосый, профессиональный одноголосый
Формат видео: MKV
Видео: H.264 MPEG-4 AVC, 2020 Кбит/с, 1024х536
Аудио: Русский, английский (АС3, 2 ch, 192 Кбит/с)
Скачать

Загрузка начнется в течение 5 сек.

2.91 GB

Название: Горькая луна / Bitter Moon (1992) BDRip 1080p by msltel | D, P, P2, L1
Качество видео: BDRip 1080p Сравнение с исходником
Перевод: дублированный, профессиональный многоголосый, профессиональный двухголосый, одноголосый закадровый
Формат видео: MKV
Видео: H.264 15.7 Mбит/с, 1920x1014, 23.976 кадра/с, 0.337 bpp
Аудио: AC3 AC3русский, AC3, 192 kbps, 2 ch, 48 kHz [дублированный, Хлопушка]русский, AC3, 192 kbps, 2 ch, 48 kHz [профессиональный многоголосый]русский, AC3, 192 kbps, 2 ch, 48 kHz [профессиональный двухголосый, Союз видео]русский, AC3, 192 kbps, 2 ch, 48 kHz [одноголосый закадровый]английский, AC3, 192 kbps, 2 ch, 48 kHz [оригинал]
Скачать

Загрузка начнется в течение 5 сек.

16.60 GB

Название: Горькая луна / Bitter Moon (1992) BDRip 720p от HDClub
Перевод: Профессиональный (полное дублирование) студия "Синхрон" - "Хлопушка&quot
Формат видео: Matroska
Видео: 1280x676 at 23.976 fps, [email protected], ~12906 kbps avg
Аудио: Russian: 48 kHz, AC3, 2/0 (L,R) ch, ~192.00 kbps avg |Дубляж, "Хлопушка"|Russian: 48 kHz, AC3, 2/0 (L,R) ch, ~192.00 kbps avg |Многоголосый закадровый|Russian: 48 kHz, AC3, 2/0 (L,R) ch, ~192.00 kbps avg |Двухголосый закадровый, "Союз видео"|Russian: 48 kHz, AC3, 2/0 (L,R) ch, ~192.00 kbps avg |Одноголосый закадровый, VHS|English: 48 kHz/16-bit, FLAC 2.0 ch, ~592.00 kbps avg
Скачать

Загрузка начнется в течение 5 сек.

13.92 GB

Название: Горькая луна / Bitter Moon (1992) BDRip 720p by msltel | D, P, P2, L1
Качество видео: BDRip 720p Сравнение с исходником
Перевод: дублированный, профессиональный многоголосый, профессиональный двухголосый, одноголосый закадровый
Формат видео: MKV
Видео: H.264 7207 kbps, 1280x676, 23.976 кадра/с, 0.347 bpp
Аудио: AC3 AC3русский, AC3, 192 kbps, 2 ch, 48 kHz [дублированный, Хлопушка]русский, AC3, 192 kbps, 2 ch, 48 kHz [профессиональный многоголосый]русский, AC3, 192 kbps, 2 ch, 48 kHz [профессиональный двухголосый, Союз видео]русский, AC3, 192 kbps, 2 ch, 48 kHz [одноголосый закадровый]английский, AC3, 192 kbps, 2 ch, 48 kHz [оригинал]
Скачать

Загрузка начнется в течение 5 сек.

8.13 GB

Название: Горькая луна / Bitter moon (1992) BD-Remux 1080i от HDClub
Перевод: Профессиональный (полное дублирование) Хлопушка
Формат видео: BDAV
Видео: 1920x1080 at 29.970 fps, MPEG-4 AVC, ~34940 kbps avg
Аудио: Russian: 48 kHz, AC3, 2/0 (L,R) ch, ~192.00 kbps avg |Дубляж, "Хлопушка"|Russian: 48 kHz, AC3, 2/0 (L,R) ch, ~192.00 kbps avg |Многоголосый закадровый|Russian: 48 kHz, AC3, 2/0 (L,R) ch, ~192.00 kbps avg |Двухголосый закадровый, "Союз видео"|Russian: 48 kHz, AC3, 2/0 (L,R) ch, ~192.00 kbps avg |Одноголосый закадровый, VHS|English: 48 kHz/16-bit, LPCM 2.0, ~1536.00 kbps avg
Скачать

Загрузка начнется в течение 5 сек.

38.41 GB

Название: Горькая луна / Bitter Moon (1992) WEB-DL 720p
Качество видео: WEB-DL 720p
Перевод: 1: Профессиональный (дублированный) студия "Синхрон" - "Хлопушка", DVD9 R5 - CD Land
Видео: h364 AVC h364 AVC, 1280x672 (16:9), 4165 kbps, 23,976 fps
Аудио: 1: Russian: AC3 2.0 ch, 192 kbps, 48 kHz | дубляж
Скачать

Загрузка начнется в течение 5 сек.

4.96 GB

Скачать фильм Горькая луна (1992) через торрент

gig-torrent.net

12 мая 2016 07:28 Горькая луна / Bitter Moon (1992) HDRip от Scarabey | D .torrent   [Информация о файле (нажмите для просмотра)] Перевод: Професиональный (полное дублирование)Видео: 608x320 (1.90:1), 23.976 fps, XviD build 73 ~661 kbps avg, 0.14 bit/pixelАудио: 48 kHz, MPEG Layer 3, 2 ch, ~128.00 kbps avg 798,02 Mb 7 4
12 мая 2016 07:28 Горькая луна / Bitter Moon (1992) HDRip от Scarabey | D .torrent   [Информация о файле (нажмите для просмотра)] Перевод: ДубляжВидео: 704x368 (1.91:1), 23.976 fps, XviD build 73 ~2034 kbps avg, 0.33 bit/pixelАудио: 48 kHz, AC3 Dolby Digital, 2/0 (L,R) ch, ~192.00 kbps avg 2,18 Gb 5 4
12 мая 2016 07:28 Горькая луна / Bitter Moon (1992) BDRip от HQCLUB .torrent   [Информация о файле (нажмите для просмотра)] Перевод: Профессиональный (полное дублирование) Хлопушка + Оригинал (английский)Субтитры: русские, английские (обычные, SDH)Формат: AVIКачество: BDRip (источник:Видео: 720x384 (1.88:1), 23.976 fps, XviD build 65 ~1846 kbps avg, 0.28 bit/pixelАудио #1: 48 kHz, AC3 Dolby Digital, 2/0 (L,R) ch, ~192 kbps avg (DUB)Аудио #2: 48 kHz, AC3 Dolby Digital, 2/0 (L,R) ch, ~192 kbps avg (ENG)Аудио #3: 48 kHz, AC3 Dolby Digital, 2/0 (L,R) ch, ~192 kbps avg (MVO)(отдельно)Аудио #4: 48 kHz, AC3 Dolby Digital, 2/0 (L,R) ch, ~192 kbps avg (DVO.SOUZ-VIDEO)(отдельно)Аудио #5: 48 kHz, AC3 Dolby Digital, 2/0 (L,R) ch, ~192 kbps avg (VO)(отдельно) 2,18 Gb 5 1
12 мая 2016 07:28 Горькая луна / Bitter Moon (1992) HDRip от Scarabey | D .torrent   [Информация о файле (нажмите для просмотра)] Перевод: Професиональный (полное дублирование)Видео: 704x368 (1.91:1), 23.976 fps, XviD build 73 ~1283 kbps avg, 0.21 bit/pixelАудио: 48 kHz, AC3 Dolby Digital, 2/0 (L,R) ch, ~192.00 kbps avg 1,45 Gb 11 3
12 мая 2016 07:28 Горькая луна / Bitter Moon (1992) BDRip-AVC | D, P, P2, P1 .torrent   [Информация о файле (нажмите для просмотра)] Перевод: Дублированный, профессиональный многоголосый, профессиональный двухголосый, профессиональный одноголосыйСубтитры: Русские, английскиеКодек: H.264Формат: MKVКачество: BDRip-AVC (Blu-Ray Remux (1080р))Видео: MPEG-4 AVC, 2020 Кбит/с, 1024х536Звук: Русский, английский (АС3, 2 ch, 192 Кбит/с)Перевод: AC3, 2 ch, 192 Кбит/с - 2,91 Gb 3 3
12 мая 2016 07:28 Горькая луна / Bitter Moon (1992) BDRip 1080p by msltel | D, P, P2, L1 .torrent   [Информация о файле (нажмите для просмотра)] Перевод: дублированный, профессиональный многоголосый, профессиональный двухголосый, одноголосый закадровыйСубтитры: русские, английскиеКачество: BDRip 1080pСравнение с исходникомФормат: MKVВидео: 15.7 Mбит/с, 1920x1014, 23.976 кадра/с, 0.337 bppАудио 1: русский, AC3, 192 kbps, 2 ch, 48 kHz [дублированный, Хлопушка]Аудио 2: русский, AC3, 192 kbps, 2 ch, 48 kHz [профессиональный многоголосый]Аудио 3: русский, AC3, 192 kbps, 2 ch, 48 kHz [профессиональный двухголосый, Союз видео]Аудио 4: русский, AC3, 192 kbps, 2 ch, 48 kHz [одноголосый закадровый]Аудио 5: английский, AC3, 192 kbps, 2 ch, 48 kHz [оригинал]Видео: Идентификатор : 1 Формат : AVC Формат/Информация : Advanced Video Codec Профиль формата : [email protected] Параметр CABAC формата : Да Параметр ReFrames формата : 4 кадра Идентификатор кодека : V_MPEG4/ISO/AVC Продолжительность : 2 ч. 19 м. Битрейт : 15,7 Мбит/сек Ширина : 1920 пикселей Высота : 1014 пикселей Соотношение сторон : 1,893 Режим частоты кадров : Постоянный Частота кадров : 23,976 кадра/сек Цветовое пространство : YUV Субдискретизация насыщенности : 4:2:0 Битовая глубина : 8 бит Тип развёртки : Прогрессивная Бит/(Пиксели*Кадры) : 0.337 Размер потока : 15,3 Гбайт (92%) Заголовок : BDRip -- STarankov Библиотека кодирования : x264 core 142 r2431 ac76440 Настройки программы : cabac=1 / ref=4 / deblock=1:-1:-1 / analyse=0x3:0x113 / me=umh / subme=10 / psy=1 / psy_rd=1.00:0.15 / mixed_ref=1 / me_range=32 / chroma_me=1 / trellis=2 / 8x8dct=1 / cqm=0 / deadzone=21,11 / fast_pskip=1 / chroma_qp_offset=-3 / threads=6 / lookahead_threads=1 / sliced_threads=0 / nr=0 / decimate=1 / interlaced=0 / bluray_compat=0 / constrained_intra=0 / bframes=8 / b_pyramid=2 / b_adapt=2 / b_bias=0 / direct=3 / weightb=1 / open_gop=0 / weightp=2 / keyint=230 / keyint_min=23 / scenecut=40 / intra_refresh=0 / rc_lookahead=40 / rc=crf / mbtree=0 / crf=19.6 / qcomp=0.60 / qpmin=0 / qpmax=69 / qpstep=4 / vbv_maxrate=40000 / vbv_bufsize=50000 / crf_max=0.0 / nal_hrd=none / filler=0 / ip_ratio=1.40 / pb_ratio=1.30 / aq=1:1.00 Язык : English Default : Да Forced : Нет DURATION : 02:19:40.956000000 NUMBER_OF_FRAMES : 200942 NUMBER_OF_BYTES : 16815558295 _STATISTICS_WRITING_APP : mkvmerge v7.5.0 ('Glass Culture') 64bit built on Jan 4 2015 16:48:44 _STATISTICS_WRITING_DATE_UTC : 2015-01-16 06:49:36 _STATISTICS_TAGS : BPS DURATION NUMBER_OF_FRAMES NUMBER_OF_BYTESАудио #1: Идентификатор : 2 Формат : AC-3 Формат/Информация : Audio Coding 3 Расширение режима : CM (complete main) Параметр Endianness формата : Big Идентификатор кодека : A_AC3 Продолжительность : 2 ч. 19 м. Вид битрейта : Постоянный Битрейт : 192 Кбит/сек Каналы : 2 канала Расположение каналов : Front: L R Частота : 48,0 КГц Битовая глубина : 16 бит Метод сжатия : С потерями Размер потока : 192 Мбайт (1%) Заголовок : DUB (Хлопушка) Язык : Russian Default : Да Forced : НетАудио #2: Идентификатор : 3 Формат : AC-3 Формат/Информация : Audio Coding 3 Расширение режима : CM (complete main) Параметр Endianness формата : Big Идентификатор кодека : A_AC3 Продолжительность : 2 ч. 19 м. Вид битрейта : Постоянный Битрейт : 192 Кбит/сек Каналы : 2 канала Расположение каналов : Front: L R Частота : 48,0 КГц Битовая глубина : 16 бит Метод сжатия : С потерями Размер потока : 192 Мбайт (1%) Заголовок : MVO Язык : Russian Default : Нет Forced : НетАудио #3: Идентификатор : 4 Формат : AC-3 Формат/Информация : Audio Coding 3 Расширение режима : CM (complete main) Параметр Endianness формата : Big Идентификатор кодека : A_AC3 Продолжительность : 2 ч. 19 м. Вид битрейта : Постоянный Битрейт : 192 Кбит/сек Каналы : 2 канала Расположение каналов : Front: L R Частота : 48,0 КГц Битовая глубина : 16 бит Метод сжатия : С потерями Размер потока : 192 Мбайт (1%) Заголовок : DVO (Союз видео) Язык : Russian Default : Нет Forced : НетАудио #4: Идентификатор : 5 Формат : AC-3 Формат/Информация : Audio Coding 3 Расширение режима : CM (complete main) Параметр Endianness формата : Big Идентификатор кодека : A_AC3 Продолжительность : 2 ч. 19 м. Вид битрейта : Постоянный Битрейт : 192 Кбит/сек Каналы : 2 канала Расположение каналов : Front: L R Частота : 48,0 КГц Битовая глубина : 16 бит Метод сжатия : С потерями Размер потока : 192 Мбайт (1%) Заголовок : VO (одноголосый закадровый) Язык : Russian Default : Нет Forced : НетАудио #5: Идентификатор : 6 Формат : AC-3 Формат/Информация : Audio Coding 3 Расширение режима : CM (complete main) Параметр Endianness формата : Big Идентификатор кодека : A_AC3 Продолжительность : 2 ч. 19 м. Вид битрейта : Постоянный Битрейт : 192 Кбит/сек Каналы : 2 канала Расположение каналов : Front: L R Частота : 48,0 КГц Битовая глубина : 16 бит Метод сжатия : С потерями Размер потока : 192 Мбайт (1%) Заголовок : Original Язык : English Default : Нет Forced : Нет 16,6 Gb 4 4
12 мая 2016 07:28 Горькая луна / Bitter Moon (1992) BDRip 720p by msltel | D, P, P2, L1 .torrent   [Информация о файле (нажмите для просмотра)] Перевод: дублированный, профессиональный многоголосый, профессиональный двухголосый, одноголосый закадровыйСубтитры: русские, английскиеКачество: BDRip 720pСравнение с исходникомФормат: MKVВидео: 7207 kbps, 1280x676, 23.976 кадра/с, 0.347 bppАудио 1: русский, AC3, 192 kbps, 2 ch, 48 kHz [дублированный, Хлопушка]Аудио 2: русский, AC3, 192 kbps, 2 ch, 48 kHz [профессиональный многоголосый]Аудио 3: русский, AC3, 192 kbps, 2 ch, 48 kHz [профессиональный двухголосый, Союз видео]Аудио 4: русский, AC3, 192 kbps, 2 ch, 48 kHz [одноголосый закадровый]Аудио 5: английский, AC3, 192 kbps, 2 ch, 48 kHz [оригинал]Видео: Идентификатор : 1 Формат : AVC Формат/Информация : Advanced Video Codec Профиль формата : [email protected] Параметр CABAC формата : Да Параметр ReFrames формата : 9 кадров Идентификатор кодека : V_MPEG4/ISO/AVC Продолжительность : 2 ч. 19 м. Битрейт : 7207 Кбит/сек Ширина : 1280 пикселей Высота : 676 пикселей Соотношение сторон : 1,893 Режим частоты кадров : Постоянный Частота кадров : 23,976 кадра/сек Цветовое пространство : YUV Субдискретизация насыщенности : 4:2:0 Битовая глубина : 8 бит Тип развёртки : Прогрессивная Бит/(Пиксели*Кадры) : 0.347 Размер потока : 7,03 Гбайт (86%) Заголовок : BDRip -- STarankov Библиотека кодирования : x264 core 142 r2431 ac76440 Настройки программы : cabac=1 / ref=9 / deblock=1:-1:-1 / analyse=0x3:0x113 / me=umh / subme=10 / psy=1 / psy_rd=1.00:0.15 / mixed_ref=1 / me_range=32 / chroma_me=1 / trellis=2 / 8x8dct=1 / cqm=0 / deadzone=21,11 / fast_pskip=1 / chroma_qp_offset=-3 / threads=6 / lookahead_threads=1 / sliced_threads=0 / nr=0 / decimate=1 / interlaced=0 / bluray_compat=0 / constrained_intra=0 / bframes=8 / b_pyramid=2 / b_adapt=2 / b_bias=0 / direct=3 / weightb=1 / open_gop=0 / weightp=2 / keyint=230 / keyint_min=23 / scenecut=40 / intra_refresh=0 / rc_lookahead=40 / rc=crf / mbtree=0 / crf=19.3 / qcomp=0.60 / qpmin=0 / qpmax=69 / qpstep=4 / vbv_maxrate=40000 / vbv_bufsize=50000 / crf_max=0.0 / nal_hrd=none / filler=0 / ip_ratio=1.40 / pb_ratio=1.30 / aq=1:1.00 Язык : English Default : Да Forced : Нет DURATION : 02:19:40.956000000 NUMBER_OF_FRAMES : 200942 NUMBER_OF_BYTES : 7722460542 _STATISTICS_WRITING_APP : mkvmerge v7.5.0 ('Glass Culture') 64bit built on Jan 4 2015 16:48:44 _STATISTICS_WRITING_DATE_UTC : 2015-01-15 09:47:01 _STATISTICS_TAGS : BPS DURATION NUMBER_OF_FRAMES NUMBER_OF_BYTESАудио #1: Идентификатор : 2 Формат : AC-3 Формат/Информация : Audio Coding 3 Расширение режима : CM (complete main) Параметр Endianness формата : Big Идентификатор кодека : A_AC3 Продолжительность : 2 ч. 19 м. Вид битрейта : Постоянный Битрейт : 192 Кбит/сек Каналы : 2 канала Расположение каналов : Front: L R Частота : 48,0 КГц Битовая глубина : 16 бит Метод сжатия : С потерями Размер потока : 192 Мбайт (2%) Заголовок : DUB (Хлопушка) Язык : Russian Default : Да Forced : НетАудио #2: Идентификатор : 3 Формат : AC-3 Формат/Информация : Audio Coding 3 Расширение режима : CM (complete main) Параметр Endianness формата : Big Идентификатор кодека : A_AC3 Продолжительность : 2 ч. 19 м. Вид битрейта : Постоянный Битрейт : 192 Кбит/сек Каналы : 2 канала Расположение каналов : Front: L R Частота : 48,0 КГц Битовая глубина : 16 бит Метод сжатия : С потерями Размер потока : 192 Мбайт (2%) Заголовок : MVO Язык : Russian Default : Нет Forced : НетАудио #3: Идентификатор : 4 Формат : AC-3 Формат/Информация : Audio Coding 3 Расширение режима : CM (complete main) Параметр Endianness формата : Big Идентификатор кодека : A_AC3 Продолжительность : 2 ч. 19 м. Вид битрейта : Постоянный Битрейт : 192 Кбит/сек Каналы : 2 канала Расположение каналов : Front: L R Частота : 48,0 КГц Битовая глубина : 16 бит Метод сжатия : С потерями Размер потока : 192 Мбайт (2%) Заголовок : DVO (Союз видео) Язык : Russian Default : Нет Forced : НетАудио #4: Идентификатор : 5 Формат : AC-3 Формат/Информация : Audio Coding 3 Расширение режима : CM (complete main) Параметр Endianness формата : Big Идентификатор кодека : A_AC3 Продолжительность : 2 ч. 19 м. Вид битрейта : Постоянный Битрейт : 192 Кбит/сек Каналы : 2 канала Расположение каналов : Front: L R Частота : 48,0 КГц Битовая глубина : 16 бит Метод сжатия : С потерями Размер потока : 192 Мбайт (2%) Заголовок : VO (одноголосый закадровый) Язык : Russian Default : Нет Forced : НетАудио #5: Идентификатор : 6 Формат : AC-3 Формат/Информация : Audio Coding 3 Расширение режима : CM (complete main) Параметр Endianness формата : Big Идентификатор кодека : A_AC3 Продолжительность : 2 ч. 19 м. Вид битрейта : Постоянный Битрейт : 192 Кбит/сек Каналы : 2 канала Расположение каналов : Front: L R Частота : 48,0 КГц Битовая глубина : 16 бит Метод сжатия : С потерями Размер потока : 192 Мбайт (2%) Заголовок : Original Язык : English Default : Нет Forced : Нет 8,13 Gb 5 3
12 мая 2016 07:28 Горькая луна / Bitter Moon (1992) HDRip от Scarabey | D .torrent   [Информация о файле (нажмите для просмотра)] Перевод: Профессиональный (полное дублирование)Качество: HDRipФормат: AVIВидео: 608x320 (1.90:1), 23.976 fps, XviD build 73 ~662 kbps avg, 0.14 bit/pixelАудио: 48 kHz, MPEG Layer 3, 2 ch, ~128.00 kbps avg 797,78 Mb 9 7
12 мая 2016 07:28 Горькая луна / Bitter Moon (1992) WEB-DL 720p .torrent   [Информация о файле (нажмите для просмотра)] Перевод: 1: Профессиональный (дублированный) студия "Синхрон" - "Хлопушка", DVD9 R5 - CD Land 2: Профессиональный (многоголосый закадровый) DVD9.NTSC 3: Профессиональный (двухголосый закадровый) студия "Инис" - Союз видео 4: Любительский (одноголосый закадровый) VHSКодек: h364 AVCКачество: WEB-DL 720pВидео: h364 AVC, 1280x672 (16:9), 4165 kbps, 23,976 fpsЗвук: 1: Russian: AC3 2.0 ch, 192 kbps, 48 kHz | дубляж 2: Russian: AC3 2.0 ch, 192 kbps, 48 kHz | многоголосый 3: Russian: AC3 2.0 ch, 192 kbps, 48 kHz | двухголосый 4: Russian: AC3 2.0 ch, 192 kbps, 48 kHz | одноголосый 5: English: AAC (LC) 2.0 ch, ~160 kbps, 48 kHz [iTunes]Субтитры: русские, английские (SRT) 4,96 Gb 3 2
12 мая 2016 07:27 Горькая луна / Bitter Moon (1992) DVDRip от PlanetaUA .torrent   [Информация о файле (нажмите для просмотра)] Качество: DVDRipФормат: AVIВидео: DivX, 1674 Кбит/с, 704x368Аудио: AC3, 6ch, 448 Кбит/с 2,05 Gb 3 4
12 мая 2016 07:27 Горькая луна / Bitter Moon (1992) DVDRip от SENATORiNFO-TEAM .torrent   [Информация о файле (нажмите для просмотра)] Формат: XviDКачество: DVDRipВидео: 624x336; 23.976 fps; 1010 kbps; XviD build 47Звук: 48 kHz; 5 ch; 4384.00 kbps; AC3 Dolby Digital 1,37 Gb 3 9

Скачать фильм Горькая луна через торрент в хорошем качестве бесплатно DVDRip

piratbit.ru

Раздают: 1 [ 0 KB/s ]
Размер: 1.64 GB | Добавлен: 6 лет 10 мес. назад | Торрент скачан:253 раза
Реклама Дарим 3000 рублей за регистрацию, не упусти свой шанс получить шикарный бонус!!!

01-12-2010 10:16 Горькая луна Скачать торрент  

Горькая луна / Bitter MoonГод выпуска: 1992Страна: Франция, ВеликобританияЖанр: Драма, Любовный роман, ЭротикаПродолжительность: 02:13:40Перевод: Профессиональный (полное дублирование)

Режиссер: Роман Полански /Roman PolanskiПродюссер: Роберт Бенмусса, Роман Полански, Ален СардСценарий: Жерар Браш, Джон Браунджон, Паскаль Брукнер

Бюджет: £7 000 000 (сборы в США $1 862 805)Премьера в мире: 12 июля 1992 года

В ролях: Хью Грант, Кристин Скотт Томас, Эммануэль Сенье, Питер Койот, Виктор Банерже, Софи Патель, Патрик Альбенкю, Смилья Михайлович, Лео Экманн, Люка Веллани и др.

Описание: Одна английская супружеская пара — Найджел и Фиона — после семи лет брака путешествует в морском круизе по Средиземному морю от Венеции до Индии с одним желанием — привнести новизны и свежести в свои целомудренные отношения. На теплоходе они знакомятся с другой несколько странной супружеской парой. Это пожилой американский писатель Оскар и его молодая красавица жена — француженка Мими. Оскару около 50 лет, он болен поперечным полиомиелитом, частично парализован и вынужден передвигаться на инвалидной коляске. Оскар решает рассказать Найджелу историю своих любовных отношений с Мими.

Они познакомились ранним утром в парижском автобусе, Оскар оплатил Мими проезд. Ему за 40, ей чуть за 20, секс стирает все возможные грани возраста, принципов и жизни вообще. Флирт перетекает в знойную страсть, которая может довести до саморазрушения. Сперва их любовная связь была бешено-страстной, но затем отношения стали охладевать, и союз стал скучным. Оскар искал новых ощущений и всячески пытался отделаться от Мими, а Мими напротив пыталась удержать его, желала быть его женой, и во что бы то ни стало оставаться рядом с ним, несмотря на все унижения — постоянные издёвки, других женщин, домашние вечеринки, на которых Оскар публично выставлял Мими посмешищем, откровенное презрение, аборт (по требованию Оскара), после которого Мими стала бесплодной. Наконец Оскар обманом заставил её уехать в другую страну. Спустя 2 года он попал в аварию и лежал в больнице. Мими посетила его в больнице и, пользуясь болезненным состоянием бывшего любовника, столкнула его с кровати. Полученная тогда Оскаром травма и стала причиной его паралича. Она стала заботиться о нём, поставив в положение полнейшей зависимости — сильнее, чем некогда сама зависела от него...

«Го́рькая луна́» (англ. Bitter Moon) — фильм 1992 года, снятый режиссёром Романом Полански. Одну из главных ролей в фильме исполнила его жена Эммануэль Сенье. Сценарий к фильму был написан на основе романа писателя Паскаля Брюкнера. Музыку к фильму написал знаменитый греческий композитор Вангелис.Сам фильм подвергся сильной критике из-за изображения садомазохистских фантазий. Просмотр этого фильма не рекомендуется детям и подросткам моложе 16 лет.Одна из важных идей фильма состоит в том, что любовная страсть, какой бы жаркой она ни была, рано или поздно начинает скатываться вниз после пика невообразимых плотских наслаждений. И тут паре нужно решить, продолжать отношения, что неизбежно приведёт к взаимному унижению, а в фильме Полански, это привело к такой взаимной ненависти, которая по силе была сравнима с их былой страстью, или расстаться, пусть и ценой безмерных душевных страданий. Или продолжить на новом уровне человеческих отношений. И хотя фильм именно о страсти, во время просмотра постепенно приходишь к выводу, что просто страсть — тупиковая ветвь развития отношений, которая проходит через экстаз, спад, извращения, взаимную жестокость и кончается смертью. Если бы герои выбрали путь человечности, жизни наполненной не только страстью, но и работой, воспитанием детей, поддержкой друг друга и окружающих — эта жизнь была бы иной и не кончилась так бездарно. В своих фильмах режиссёр подробно исследует пути добра и зла. И этот фильм в конечном итоге о том же.

Качество: DVDRipФормат: AVIВидео кодек: XviDАудио кодек: AC3Видео: MPEG4, XviD, 720x384 (1.875), 25.000 fps, 1 365 Kbps (0.197 bit/pixel)Аудио: AC-3, 48.0 KHz, 2 ch, 192 Kbps, CBR Скачать Горькая луна через торрент http://piratbit.in.ua/a7d0d51293b4e7c954ea138a3b41867c.jpg Скачать фильм Горькая луна через торрент бесплантно в хорошем качестве Описание: Одна английская супружеская пара — Найджел и Фиона — после семи лет брака путешествует в морском круизе по Средиземному морю от ... 2010-12-01 10:16 10 10 5

Loading...

Loading...

Рекламный пират

01-12-2010 10:57 Горькая луна Скачать торрент  

01-12-2010 14:20 Горькая луна Скачать торрент  

asddsadсныкай под спойлер

Дорогой пользователь! Огромная просьба, поблагодарите релизера, оцените раздачу и оставьте свои комментарий, если Вы скачали Горькая луна через торрент бесплатно! Внесите свою лепту в развитие PiratBit!

Комментировать посты могут только пользователи прошедшие не сложную регистрацию

Горькая луна через торрент Скачать бесплатно Горькая луна Горькая луна скачать торрент Горькая луна смотреть онлайн Cкачать фильм Горькая луна бесплатно Горькая луна скачать торрент в хорошем качестве Горькая луна смотреть онлайн бесплатно в хорошем качестве

Вы не можете начинать темыВы не можете отвечать на сообщенияВы не можете редактировать свои сообщенияВы не можете удалять свои сообщенияВы не можете голосовать в опросахВы не можете прикреплять файлы к сообщениямВы можете скачивать файлы

Скачать фильм Горькая луна через торрент в хорошем качестве бесплатно 720p] DUB

ОбщееУникальный идентификатор : 202812195624757021576297968251820602151 (0x98943543AFBEFE10980EFCE9153C7327)Полное имя : D:VideoGorkaja luna.1992.BDRip.720p.mkvФормат : MatroskaВерсия формата : Version 4 / Version 2Размер файла : 8,13 ГбайтПродолжительность : 2 ч. 19 м.Общий поток : 8333 Кбит/секДата кодирования : UTC 2015-01-15 09:47:01Программа кодирования : mkvmerge v7.5.0 ('Glass Culture') 64bit built on Jan 4 2015 16:48:44Библиотека кодирования : libebml v1.3.1 + libmatroska v1.4.2DURATION : 02:13:46.158000000NUMBER_OF_FRAMES : 1632NUMBER_OF_BYTES : 60812_STATISTICS_WRITING_APP : mkvmerge v7.5.0 ('Glass Culture') 64bit built on Jan 4 2015 16:48:44_STATISTICS_WRITING_DATE_UTC : 2015-01-15 09:47:01_STATISTICS_TAGS : BPS DURATION NUMBER_OF_FRAMES NUMBER_OF_BYTES

ВидеоИдентификатор : 1Формат : AVCФормат/Информация : Advanced Video CodecПрофиль формата : [email protected]Параметр CABAC формата : ДаПараметр ReFrames формата : 9 кадровИдентификатор кодека : V_MPEG4/ISO/AVCПродолжительность : 2 ч. 19 м.Битрейт : 7207 Кбит/секШирина : 1280 пикселейВысота : 676 пикселейСоотношение сторон : 1,893Режим частоты кадров : ПостоянныйЧастота кадров : 23,976 кадра/секЦветовое пространство : YUVСубдискретизация насыщенности : 4:2:0Битовая глубина : 8 битТип развёртки : ПрогрессивнаяБит/(Пиксели*Кадры) : 0.347Размер потока : 7,03 Гбайт (86%)Заголовок : BDRip -- STarankovБиблиотека кодирования : x264 core 142 r2431 ac76440Настройки программы : cabac=1 / ref=9 / deblock=1:-1:-1 / analyse=0x3:0x113 / me=umh / subme=10 / psy=1 / psy_rd=1.00:0.15 / mixed_ref=1 / me_range=32 / chroma_me=1 / trellis=2 / 8x8dct=1 / cqm=0 / deadzone=21,11 / fast_pskip=1 / chroma_qp_offset=-3 / threads=6 / lookahead_threads=1 / sliced_threads=0 / nr=0 / decimate=1 / interlaced=0 / bluray_compat=0 / constrained_intra=0 / bframes=8 / b_pyramid=2 / b_adapt=2 / b_bias=0 / direct=3 / weightb=1 / open_gop=0 / weightp=2 / keyint=230 / keyint_min=23 / scenecut=40 / intra_refresh=0 / rc_lookahead=40 / rc=crf / mbtree=0 / crf=19.3 / qcomp=0.60 / qpmin=0 / qpmax=69 / qpstep=4 / vbv_maxrate=40000 / vbv_bufsize=50000 / crf_max=0.0 / nal_hrd=none / filler=0 / ip_ratio=1.40 / pb_ratio=1.30 / aq=1:1.00Язык : EnglishDefault : ДаForced : НетDURATION : 02:19:40.956000000NUMBER_OF_FRAMES : 200942NUMBER_OF_BYTES : 7722460542_STATISTICS_WRITING_APP : mkvmerge v7.5.0 ('Glass Culture') 64bit built on Jan 4 2015 16:48:44_STATISTICS_WRITING_DATE_UTC : 2015-01-15 09:47:01_STATISTICS_TAGS : BPS DURATION NUMBER_OF_FRAMES NUMBER_OF_BYTES

Аудио #1Идентификатор : 2Формат : AC-3Формат/Информация : Audio Coding 3Расширение режима : CM (complete main)Параметр Endianness формата : BigИдентификатор кодека : A_AC3Продолжительность : 2 ч. 19 м.Вид битрейта : ПостоянныйБитрейт : 192 Кбит/секКаналы : 2 каналаРасположение каналов : Front: L RЧастота : 48,0 КГцБитовая глубина : 16 битМетод сжатия : С потерямиРазмер потока : 192 Мбайт (2%)Заголовок : DUB (Хлопушка)Язык : RussianDefault : ДаForced : Нет

Аудио #2Идентификатор : 3Формат : AC-3Формат/Информация : Audio Coding 3Расширение режима : CM (complete main)Параметр Endianness формата : BigИдентификатор кодека : A_AC3Продолжительность : 2 ч. 19 м.Вид битрейта : ПостоянныйБитрейт : 192 Кбит/секКаналы : 2 каналаРасположение каналов : Front: L RЧастота : 48,0 КГцБитовая глубина : 16 битМетод сжатия : С потерямиРазмер потока : 192 Мбайт (2%)Заголовок : MVOЯзык : RussianDefault : НетForced : Нет

Аудио #3Идентификатор : 4Формат : AC-3Формат/Информация : Audio Coding 3Расширение режима : CM (complete main)Параметр Endianness формата : BigИдентификатор кодека : A_AC3Продолжительность : 2 ч. 19 м.Вид битрейта : ПостоянныйБитрейт : 192 Кбит/секКаналы : 2 каналаРасположение каналов : Front: L RЧастота : 48,0 КГцБитовая глубина : 16 битМетод сжатия : С потерямиРазмер потока : 192 Мбайт (2%)Заголовок : DVO (Союз видео)Язык : RussianDefault : НетForced : Нет

Аудио #4Идентификатор : 5Формат : AC-3Формат/Информация : Audio Coding 3Расширение режима : CM (complete main)Параметр Endianness формата : BigИдентификатор кодека : A_AC3Продолжительность : 2 ч. 19 м.Вид битрейта : ПостоянныйБитрейт : 192 Кбит/секКаналы : 2 каналаРасположение каналов : Front: L RЧастота : 48,0 КГцБитовая глубина : 16 битМетод сжатия : С потерямиРазмер потока : 192 Мбайт (2%)Заголовок : VO (одноголосый закадровый)Язык : RussianDefault : НетForced : Нет

Аудио #5Идентификатор : 6Формат : AC-3Формат/Информация : Audio Coding 3Расширение режима : CM (complete main)Параметр Endianness формата : BigИдентификатор кодека : A_AC3Продолжительность : 2 ч. 19 м.Вид битрейта : ПостоянныйБитрейт : 192 Кбит/секКаналы : 2 каналаРасположение каналов : Front: L RЧастота : 48,0 КГцБитовая глубина : 16 битМетод сжатия : С потерямиРазмер потока : 192 Мбайт (2%)Заголовок : OriginalЯзык : EnglishDefault : НетForced : Нет

Текст #1Идентификатор : 7Формат : UTF-8Идентификатор кодека : S_TEXT/UTF8Идентификатор кодека/Информация : UTF-8 Plain TextЗаголовок : русскийЯзык : RussianDefault : НетForced : Нет

Текст #2Идентификатор : 8Формат : UTF-8Идентификатор кодека : S_TEXT/UTF8Идентификатор кодека/Информация : UTF-8 Plain TextЗаголовок : английскийDefault : НетForced : Нет

Меню00:00:00.000 : :Chapter 0100:17:17.502 : :Chapter 0200:30:09.507 : :Chapter 0300:44:27.597 : :Chapter 0400:56:50.405 : :Chapter 0501:14:17.818 : :Chapter 0601:29:39.407 : :Chapter 0701:47:41.921 : :Chapter 0802:00:57.015 : :Chapter 09

piratbit.ru

Скачать фильм Горькая луна через торрент в хорошем качестве бесплатно 1080p] DUB

ОбщееУникальный идентификатор : 221389539633951515712638564130337237993 (0xA68E130A460CD026ACA24BFB640EABE9)Полное имя : D:VideoGorkaja luna.1992.BDRip.1080p.mkvФормат : MatroskaВерсия формата : Version 4 / Version 2Размер файла : 16,6 ГбайтПродолжительность : 2 ч. 19 м.Общий поток : 17,0 Мбит/секДата кодирования : UTC 2015-01-16 06:49:36Программа кодирования : mkvmerge v7.5.0 ('Glass Culture') 64bit built on Jan 4 2015 16:48:44Библиотека кодирования : libebml v1.3.1 + libmatroska v1.4.2_STATISTICS_WRITING_APP : mkvmerge v7.5.0 ('Glass Culture') 64bit built on Jan 4 2015 16:48:44_STATISTICS_WRITING_DATE_UTC : 2015-01-16 06:49:36_STATISTICS_TAGS : BPS DURATION NUMBER_OF_FRAMES NUMBER_OF_BYTESDURATION : 02:13:46.158000000NUMBER_OF_FRAMES : 1632NUMBER_OF_BYTES : 60812

ВидеоИдентификатор : 1Формат : AVCФормат/Информация : Advanced Video CodecПрофиль формата : [email protected]Параметр CABAC формата : ДаПараметр ReFrames формата : 4 кадраИдентификатор кодека : V_MPEG4/ISO/AVCПродолжительность : 2 ч. 19 м.Битрейт : 15,7 Мбит/секШирина : 1920 пикселейВысота : 1014 пикселейСоотношение сторон : 1,893Режим частоты кадров : ПостоянныйЧастота кадров : 23,976 кадра/секЦветовое пространство : YUVСубдискретизация насыщенности : 4:2:0Битовая глубина : 8 битТип развёртки : ПрогрессивнаяБит/(Пиксели*Кадры) : 0.337Размер потока : 15,3 Гбайт (92%)Заголовок : BDRip -- STarankovБиблиотека кодирования : x264 core 142 r2431 ac76440Настройки программы : cabac=1 / ref=4 / deblock=1:-1:-1 / analyse=0x3:0x113 / me=umh / subme=10 / psy=1 / psy_rd=1.00:0.15 / mixed_ref=1 / me_range=32 / chroma_me=1 / trellis=2 / 8x8dct=1 / cqm=0 / deadzone=21,11 / fast_pskip=1 / chroma_qp_offset=-3 / threads=6 / lookahead_threads=1 / sliced_threads=0 / nr=0 / decimate=1 / interlaced=0 / bluray_compat=0 / constrained_intra=0 / bframes=8 / b_pyramid=2 / b_adapt=2 / b_bias=0 / direct=3 / weightb=1 / open_gop=0 / weightp=2 / keyint=230 / keyint_min=23 / scenecut=40 / intra_refresh=0 / rc_lookahead=40 / rc=crf / mbtree=0 / crf=19.6 / qcomp=0.60 / qpmin=0 / qpmax=69 / qpstep=4 / vbv_maxrate=40000 / vbv_bufsize=50000 / crf_max=0.0 / nal_hrd=none / filler=0 / ip_ratio=1.40 / pb_ratio=1.30 / aq=1:1.00Язык : EnglishDefault : ДаForced : НетDURATION : 02:19:40.956000000NUMBER_OF_FRAMES : 200942NUMBER_OF_BYTES : 16815558295_STATISTICS_WRITING_APP : mkvmerge v7.5.0 ('Glass Culture') 64bit built on Jan 4 2015 16:48:44_STATISTICS_WRITING_DATE_UTC : 2015-01-16 06:49:36_STATISTICS_TAGS : BPS DURATION NUMBER_OF_FRAMES NUMBER_OF_BYTES

Аудио #1Идентификатор : 2Формат : AC-3Формат/Информация : Audio Coding 3Расширение режима : CM (complete main)Параметр Endianness формата : BigИдентификатор кодека : A_AC3Продолжительность : 2 ч. 19 м.Вид битрейта : ПостоянныйБитрейт : 192 Кбит/секКаналы : 2 каналаРасположение каналов : Front: L RЧастота : 48,0 КГцБитовая глубина : 16 битМетод сжатия : С потерямиРазмер потока : 192 Мбайт (1%)Заголовок : DUB (Хлопушка)Язык : RussianDefault : ДаForced : Нет

Аудио #2Идентификатор : 3Формат : AC-3Формат/Информация : Audio Coding 3Расширение режима : CM (complete main)Параметр Endianness формата : BigИдентификатор кодека : A_AC3Продолжительность : 2 ч. 19 м.Вид битрейта : ПостоянныйБитрейт : 192 Кбит/секКаналы : 2 каналаРасположение каналов : Front: L RЧастота : 48,0 КГцБитовая глубина : 16 битМетод сжатия : С потерямиРазмер потока : 192 Мбайт (1%)Заголовок : MVOЯзык : RussianDefault : НетForced : Нет

Аудио #3Идентификатор : 4Формат : AC-3Формат/Информация : Audio Coding 3Расширение режима : CM (complete main)Параметр Endianness формата : BigИдентификатор кодека : A_AC3Продолжительность : 2 ч. 19 м.Вид битрейта : ПостоянныйБитрейт : 192 Кбит/секКаналы : 2 каналаРасположение каналов : Front: L RЧастота : 48,0 КГцБитовая глубина : 16 битМетод сжатия : С потерямиРазмер потока : 192 Мбайт (1%)Заголовок : DVO (Союз видео)Язык : RussianDefault : НетForced : Нет

Аудио #4Идентификатор : 5Формат : AC-3Формат/Информация : Audio Coding 3Расширение режима : CM (complete main)Параметр Endianness формата : BigИдентификатор кодека : A_AC3Продолжительность : 2 ч. 19 м.Вид битрейта : ПостоянныйБитрейт : 192 Кбит/секКаналы : 2 каналаРасположение каналов : Front: L RЧастота : 48,0 КГцБитовая глубина : 16 битМетод сжатия : С потерямиРазмер потока : 192 Мбайт (1%)Заголовок : VO (одноголосый закадровый)Язык : RussianDefault : НетForced : Нет

Аудио #5Идентификатор : 6Формат : AC-3Формат/Информация : Audio Coding 3Расширение режима : CM (complete main)Параметр Endianness формата : BigИдентификатор кодека : A_AC3Продолжительность : 2 ч. 19 м.Вид битрейта : ПостоянныйБитрейт : 192 Кбит/секКаналы : 2 каналаРасположение каналов : Front: L RЧастота : 48,0 КГцБитовая глубина : 16 битМетод сжатия : С потерямиРазмер потока : 192 Мбайт (1%)Заголовок : OriginalЯзык : EnglishDefault : НетForced : Нет

Текст #1Идентификатор : 7Формат : UTF-8Идентификатор кодека : S_TEXT/UTF8Идентификатор кодека/Информация : UTF-8 Plain TextЗаголовок : русскийЯзык : RussianDefault : НетForced : Нет

Текст #2Идентификатор : 8Формат : UTF-8Идентификатор кодека : S_TEXT/UTF8Идентификатор кодека/Информация : UTF-8 Plain TextЗаголовок : английскийDefault : НетForced : Нет

Меню00:00:00.000 : :Chapter 0100:17:17.502 : :Chapter 0200:30:09.507 : :Chapter 0300:44:27.597 : :Chapter 0400:56:50.405 : :Chapter 0501:14:17.818 : :Chapter 0601:29:39.407 : :Chapter 0701:47:41.921 : :Chapter 0802:00:57.015 : :Chapter 09

piratbit.ru


Смотрите также