Голодные игры 3 часть 2 скачать через торрент в хорошем качестве бесплатно


Сойка-пересмешница. Часть II через торрент в хорошем качестве бесплатно 1080p

GeneralUnique ID : 246794971282295728054464198851689945624 (0xB9AAFB8732284115903AE5CCA9379A18)Complete name : H:\The.Hunger.Games.Mockingjay.Part.2.2015.BDRip.1080p.mkvFormat : MatroskaFormat version : Version 4 / Version 2File size : 8.93 GiBDuration : 2h 16mnOverall bit rate : 9 331 KbpsMovie name : The.Hunger.Games.Mockingjay.Part.2.2015.BDRip.1080p.Encoded date : UTC 2016-03-16 19:19:56Writing application : mkvmerge v8.9.0 ('Father Daughter') 64bitWriting library : libebml v1.3.3 + libmatroska v1.4.4DURATION : 02:04:24.928000000NUMBER_OF_FRAMES : 1347NUMBER_OF_BYTES : 42930_STATISTICS_WRITING_APP : mkvmerge v8.9.0 ('Father Daughter') 64bit_STATISTICS_WRITING_DATE_UTC : 2016-03-16 19:19:56_STATISTICS_TAGS : BPS DURATION NUMBER_OF_FRAMES NUMBER_OF_BYTES

VideoID : 1Format : AVCFormat/Info : Advanced Video CodecFormat profile : [email protected] settings, CABAC : YesFormat settings, ReFrames : 5 framesCodec ID : V_MPEG4/ISO/AVCDuration : 2h 16mnBit rate : 8 501 KbpsWidth : 1 920 pixelsHeight : 800 pixelsDisplay aspect ratio : 2.40:1Frame rate : 23.976 fpsColor space : YUVChroma subsampling : 4:2:0Bit depth : 8 bitsScan type : ProgressiveBits/(Pixel*Frame) : 0.231Stream size : 7.95 GiB (89%)Writing library : x264 core 148 r2665 a01e339Encoding settings : cabac=1 / ref=5 / deblock=1:0:0 / analyse=0x3:0x133 / me=umh / subme=7 / psy=1 / psy_rd=1.00:0.00 / mixed_ref=1 / me_range=16 / chroma_me=1 / trellis=1 / 8x8dct=1 / cqm=0 / deadzone=21,11 / fast_pskip=0 / chroma_qp_offset=-2 / threads=18 / lookahead_threads=3 / sliced_threads=0 / nr=0 / decimate=1 / interlaced=0 / bluray_compat=0 / constrained_intra=0 / bframes=3 / b_pyramid=2 / b_adapt=1 / b_bias=0 / direct=1 / weightb=1 / open_gop=0 / weightp=2 / keyint=250 / keyint_min=23 / scenecut=40 / intra_refresh=0 / rc_lookahead=40 / rc=2pass / mbtree=1 / bitrate=8501 / ratetol=1.0 / qcomp=0.60 / qpmin=0 / qpmax=69 / qpstep=4 / cplxblur=20.0 / qblur=0.5 / ip_ratio=1.40 / aq=1:1.00Language : EnglishDefault : YesForced : NoDURATION : 02:16:57.181000000NUMBER_OF_FRAMES : 197015NUMBER_OF_BYTES : 8727139940_STATISTICS_WRITING_APP : mkvmerge v8.9.0 ('Father Daughter') 64bit_STATISTICS_WRITING_DATE_UTC : 2016-03-16 19:19:56_STATISTICS_TAGS : BPS DURATION NUMBER_OF_FRAMES NUMBER_OF_BYTES

Audio #1ID : 2Format : AC-3Format/Info : Audio Coding 3Mode extension : CM (complete main)Codec ID : A_AC3Duration : 2h 16mnBit rate mode : ConstantBit rate : 192 KbpsChannel(s) : 2 channelsChannel positions : Front: L RSampling rate : 48.0 KHzBit depth : 16 bitsCompression mode : LossyStream size : 188 MiB (2%)Language : RussianDefault : YesForced : No

Audio #2ID : 3Format : AC-3Format/Info : Audio Coding 3Mode extension : CM (complete main)Codec ID : A_AC3Duration : 2h 16mnBit rate mode : ConstantBit rate : 640 KbpsChannel(s) : 6 channelsChannel positions : Front: L C R, Side: L R, LFESampling rate : 48.0 KHzBit depth : 16 bitsCompression mode : LossyStream size : 627 MiB (7%)Language : EnglishDefault : NoForced : No

TextID : 4Format : UTF-8Codec ID : S_TEXT/UTF8Codec ID/Info : UTF-8 Plain TextLanguage : EnglishDefault : NoForced : No

Menu00:00:00.000 : en:00:00:00.00000:07:39.042 : en:00:07:39.04200:16:49.217 : en:00:16:49.21700:24:46.985 : en:00:24:46.98500:31:59.960 : en:00:31:59.96000:37:11.688 : en:00:37:11.68800:46:42.717 : en:00:46:42.71700:55:00.881 : en:00:55:00.88101:02:46.429 : en:01:02:46.42901:09:27.497 : en:01:09:27.49701:18:42.968 : en:01:18:42.96801:29:51.136 : en:01:29:51.13601:37:08.239 : en:01:37:08.23901:49:01.785 : en:01:49:01.78501:56:55.759 : en:01:56:55.75902:03:33.239 : en:02:03:33.239[/code]

piratbit.ru

Сойка-пересмешница. Часть I (2014) через торрент

gig-torrent.net

25 февраля 2016 10:35 Голодные игры: Сойка-пересмешница. Часть I / The Hunger Games: Mockingjay - Part 1 (2014) DVD5 .torrent   [Информация о файле (нажмите для просмотра)] Перевод: ДублированныйВидео: Идентификатор : 224 (0xE0) Формат : MPEG Video Версия формата : Version 2 Профиль формата : [email protected] Параметр BVOP формата : Да Параметр матрицы формата : Выборочная Параметр GOP формата : Variable Продолжительность : 26 м. Вид битрейта : Переменный Битрейт : 4831 Кбит/сек Максимальный битрейт : 7744 Кбит/сек Ширина : 720 пикселей Высота : 576 пикселей Соотношение сторон : 16:9 Частота кадров : 25,000 кадров/сек Стандарт вещания : PAL Цветовое пространство : YUV Субдискретизация насыщенности : 4:2:0 Битовая глубина : 8 бит Тип развёртки : Прогрессивная Порядок развёртки : Нижнее поле первое Метод сжатия : С потерями Бит/(Пиксели*Кадры) : 0.466 Временной код первого кадра : 00:54:27:08 Оригинал временного кода : Group of pictures header GOP, открыто/закрыто : Открыто Размер потока : 918 Мбайт (90%)Аудио: Идентификатор : 189 (0xBD)-128 (0x80) Формат : AC-3 Формат/Информация : Audio Coding 3 Расширение режима : CM (complete main) Параметр Endianness формата : Big Режим смешивания : DVD-Video Продолжительность : 26 м. Вид битрейта : Постоянный Битрейт : 448 Кбит/сек Каналы : 6 каналов Расположение каналов : Front: L C R, Side: L R, LFE Частота : 48,0 КГц Битовая глубина : 16 бит Метод сжатия : С потерями Задержка видео : -712 мс. Размер потока : 85,2 Мбайт (8%) 4,38 Gb 221 3
25 февраля 2016 10:35 Голодные игры: Сойка-пересмешница. Часть I / The Hunger Games: Mockingjay - Part 1 (2014) DVD9 | Custom .torrent   [Информация о файле (нажмите для просмотра)] Перевод: ДублированныйВидео: MPEG-2, [email protected] (PAL 16:9), ~6500 Кбит/секАудио 1: AC3 5.1, 448 Кбит/сек [Английский - оригинал]Аудио 2: AC3 5.1, 448 Кбит/сек[Русский - дублированный]Аудио 3: AC3 2.0, 224 Кбит/сек [Английский - комментарий]Видео: Идентификатор : 224 (0xE0) Формат : MPEG Video Версия формата : Version 2 Профиль формата : [email protected] Параметр BVOP формата : Да Параметр матрицы формата : Выборочная Параметр GOP формата : M=3, N=12 Продолжительность : 18 м. Вид битрейта : Переменный Битрейт : 6500 Кбит/сек Ширина : 720 пикселей Высота : 576 пикселей Соотношение сторон : 16:9 Частота кадров : 25,000 кадров/сек Стандарт вещания : PAL Цветовое пространство : YUV Субдискретизация насыщенности : 4:2:0 Битовая глубина : 8 бит Тип развёртки : Прогрессивная Метод сжатия : С потерями Бит/(Пиксели*Кадры) : 0.627 Временной код первого кадра : 00:00:00:00 Оригинал временного кода : Group of pictures header GOP, открыто/закрыто : Закрыто Размер потока : 856 Мбайт (84%) Основные цвета : BT.601 PAL Характеристики трансфера : BT.470 System B, BT.470 System G Коэффициенты матрицы : BT.601Аудио #1: Идентификатор : 189 (0xBD)-128 (0x80) Формат : AC-3 Формат/Информация : Audio Coding 3 Расширение режима : CM (complete main) Параметр Endianness формата : Big Режим смешивания : DVD-Video Продолжительность : 18 м. Вид битрейта : Постоянный Битрейт : 448 Кбит/сек Каналы : 6 каналов Расположение каналов : Front: L C R, Side: L R, LFE Частота : 48,0 КГц Битовая глубина : 16 бит Метод сжатия : С потерями Размер потока : 59,0 Мбайт (6%)Аудио #2: Идентификатор : 189 (0xBD)-129 (0x81) Формат : AC-3 Формат/Информация : Audio Coding 3 Расширение режима : CM (complete main) Параметр Endianness формата : Big Режим смешивания : DVD-Video Продолжительность : 18 м. Вид битрейта : Постоянный Битрейт : 448 Кбит/сек Каналы : 6 каналов Расположение каналов : Front: L C R, Side: L R, LFE Частота : 48,0 КГц Битовая глубина : 16 бит Метод сжатия : С потерями Размер потока : 59,0 Мбайт (6%)Аудио #3: Идентификатор : 189 (0xBD)-130 (0x82) Формат : AC-3 Формат/Информация : Audio Coding 3 Расширение режима : CM (complete main) Параметр Endianness формата : Big Режим смешивания : DVD-Video Продолжительность : 18 м. Вид битрейта : Постоянный Битрейт : 224 Кбит/сек Каналы : 2 канала Расположение каналов : Front: L R Частота : 48,0 КГц Битовая глубина : 16 бит Метод сжатия : С потерями Размер потока : 29,5 Мбайт (3%) 7,46 Gb 5 7
25 февраля 2016 10:35 Голодные игры: Сойка-пересмешница. Часть I / The Hunger Games: Mockingjay - Part 1 (2014) BDRip от HQCLUB | Лицензия .torrent   [Информация о файле (нажмите для просмотра)] Перевод: профессиональный (полное дублирование)Субтитры: русские (полные, форсированные), английские (полные, SDH)Формат: AVIКачество: BDRip (источник:Видео: 720x304 (2.37:1), 23,976 fps, XviD build 65 ~2079 kbps avg, 0.40 bit/pixelАудио #1: 48 kHz, AC3 Dolby Digital, 3/2 (L,C,R,l,r) + LFE ch, ~448 kbps avg (DUB)Аудио #2: 48 kHz, AC3 Dolby Digital, 3/2 (L,C,R,l,r) + LFE ch, ~448 kbps avg (AVO.SERBIN)(отдельно) Аудио #3: 48 kHz, AC3 Dolby Digital, 3/2 (L,C,R,l,r) + LFE ch, ~448 kbps avg (AVO.MATVEEV)(отдельно) Аудио #4: 48 kHz, AC3 Dolby Digital, 3/2 (L,C,R,l,r) + LFE ch, ~448 kbps avg (ENG)(отдельно) 2,18 Gb 960 16
25 февраля 2016 10:35 Голодные игры: Сойка-пересмешница. Часть I / The Hunger Games: Mockingjay - Part 1 (2014) BDRip 1080p | Лицензия .torrent   [Информация о файле (нажмите для просмотра)] Перевод: Дублированный (лицензия) + авторский одноголосый закадровый (А.Матвеев)Кодек: x264Качество: BDRip (источник: Blu-ray Disc)Видео: 1920x800 (2,40:1), 23.976 fps, 7120 kbpsАудио #1: AC-3, 6 ch, 640 kbps (Rus)Аудио #2: AC-3, 6 ch, 640 kbps (Rus)Аудио #3: AC-3, 6 ch, 640 kbps (Eng)Субтитры: Русские (форс,полные), Английские 7,76 Gb 179 7
25 февраля 2016 10:35 Голодные игры: Сойка-пересмешница. Часть I / The Hunger Games: Mockingjay - Part 1 (2014) BDRip от -=HD-NET=- | КПК | Лицензия .torrent   [Информация о файле (нажмите для просмотра)] Перевод: ДублированныйКодек: х264Качество: WEBRip | КПКВидео: MPEG-4, 480 х 200, 25.000 fps, 381 Кбит/сАудио: ААС LC, 2 ch, 128 Кбит/с 449,48 Mb 11 3
25 февраля 2016 10:35 Голодные игры: Сойка-пересмешница. Часть I / The Hunger Games: Mockingjay - Part 1 (2014) HDRip-AVC | D | Лицензия .torrent   [Информация о файле (нажмите для просмотра)] Перевод: Профессиональный (полное дублирование) BD RUSКодек: x264Качество: HDRip-AVC | исх. BDRip 1080pВидео: 768x320 (2,40:1), 23,976 fps, x264 ~783 kbps avg, 0.133 bit/pixelЗвук: 48 kHz, AAC-HE, 2 ch, Front: L R ~64 kbps avg 746,31 Mb 64 3
25 февраля 2016 10:35 Голодные игры: Сойка-пересмешница. Часть I / The Hunger Games: Mockingjay - Part 1 (2014) BDRip 720p от Leonardo and Scarabey | Лицензия .torrent   [Информация о файле (нажмите для просмотра)] Перевод: Профессиональный (полное дублирование) ЛицензияФормат: MKVВидео кодек: MPEG-4 AVC Аудио кодек: AC3Видео: 1280x534 (2.40:1) at 23.976 fps, AVC at 2727 kbps avg, 0.166 bit/pixelАудио №1: Русский, AC3 5.1, 640 kbps, 48 kHz - Dub, ЛицензияАудио №2: Английский, AC3 5.1, 640 kbps, 48 kHz - OriginalСубтитры: Русские, английские 3,5 Gb 101 8
25 февраля 2016 10:35 Голодные игры: Сойка-пересмешница. Часть I / The Hunger Games: Mockingjay - Part 1 (2014) HDRip от Scarabey | Лицензия .torrent   [Информация о файле (нажмите для просмотра)] Перевод: Професиональный (полное дублирование) [Лицензия]Видео: 720x304 (2.37:1), 23.976 fps, XviD build 73 ~1484 kbps avg, 0.28 bit/pixelАудио: 48 kHz, AC3 Dolby Digital, 2/0 (L,R) ch, ~192 kbps 1,45 Gb 769 8
25 февраля 2016 10:35 Голодные игры: Сойка-пересмешница. Часть I / The Hunger Games: Mockingjay - Part 1 (2014) BDRip 720p от Hot-Film | D, A .torrent   [Информация о файле (нажмите для просмотра)] Перевод 1: Дублированный (профессиональный) [Лицензия]Перевод 2: Авторский (одноголосый) [Алексей Матвеев]Качество: BDRip 720pВидео: MPEG-4 AVC, 2800 Кбит/с, 1280x534, 23,976 кадр/сАудио: Русский, английский (AC3, 6 ch, 640 Кбит/с)Субтитры: Русские, английские 4,05 Gb 49 5
25 февраля 2016 10:35 Голодные игры: Сойка-пересмешница. Часть I / The Hunger Games: Mockingjay - Part 1 (2014) HDRip от Scarabey | Лицензия .torrent   [Информация о файле (нажмите для просмотра)] Перевод: Професиональный (полное дублирование) [Лицензия]Видео: 640x272 (2.35:1), 23.976 fps, XviD build 73 ~711 kbps avg, 0.17 bit/pixelАудио: 48 kHz, MPEG Layer 3, 2 ch, ~128.00 kbps avg 746,03 Mb 83 23
25 февраля 2016 10:35 Голодные игры: Сойка-пересмешница. Часть I / The Hunger Games: Mockingjay - Part 1 (2014) HDRip | Лицензия .torrent   [Информация о файле (нажмите для просмотра)] Качество: HDRipВидео: XviD, 1249 Кбит/с, 720x304Аудио: AC3, 6 ch, 448 Кбит/сПеревод: Дублированный [лицензия] 1,46 Gb 98 14
25 февраля 2016 10:35 Голодные игры: Сойка-пересмешница. Часть I / The Hunger Games: Mockingjay - Part 1 (2014) BDRip 1080p | Лицензия .torrent   [Информация о файле (нажмите для просмотра)] Качество: BDRip (1080p)Видео: MPEG-4 AVC, 6070 Кбит/с, 1920x800Аудио: Русский, английский (AC3, 6 ch, 640 Кбит/с), английский (DTS, 6 ch, 1510 Кбит/с)Перевод: Дублированный [лицензия]Субтитры: Русские, английскиеВидео: Идентификатор : 1 Формат : AVC Формат/Информация : Advanced Video Codec Профиль формата : [email protected] Параметр CABAC формата : Да Параметр ReFrames формата : 5 кадров Идентификатор кодека : V_MPEG4/ISO/AVC Продолжительность : 2 ч. 2 м. Битрейт : 6070 Кбит/сек Ширина : 1920 пикселей Высота : 800 пикселей Соотношение сторон : 2,40:1 Режим частоты кадров : Постоянный Частота кадров : 23,976 кадра/сек Цветовое пространство : YUV Субдискретизация насыщенности : 4:2:0 Битовая глубина : 8 бит Тип развёртки : Прогрессивная Бит/(Пиксели*Кадры) : 0.165 Размер потока : 5,06 Гбайт (67%) Заголовок : The Hunger Games_Mockingjay - Part 1.2014.BDRip.1080p Библиотека кодирования : x264 core 144 r2525 40bb568 Настройки программы : cabac=1 / ref=5 / deblock=1:-3:-3 / analyse=0x3:0x133 / me=umh / subme=10 / psy=1 / psy_rd=1.00:0.10 / mixed_ref=1 / me_range=32 / chroma_me=1 / trellis=2 / 8x8dct=1 / cqm=0 / deadzone=21,11 / fast_pskip=0 / chroma_qp_offset=-3 / threads=6 / lookahead_threads=1 / sliced_threads=0 / nr=0 / decimate=1 / interlaced=0 / bluray_compat=0 / constrained_intra=0 / bframes=6 / b_pyramid=2 / b_adapt=2 / b_bias=0 / direct=3 / weightb=1 / open_gop=0 / weightp=2 / keyint=240 / keyint_min=23 / scenecut=40 / intra_refresh=0 / rc=2pass / mbtree=0 / bitrate=6070 / ratetol=1.0 / qcomp=0.60 / qpmin=0 / qpmax=69 / qpstep=4 / cplxblur=20.0 / qblur=0.5 / ip_ratio=1.40 / pb_ratio=1.30 / aq=1:1.00 Язык : English Default : Нет Forced : НетАудио #1: Идентификатор : 2 Формат : AC-3 Формат/Информация : Audio Coding 3 Расширение режима : CM (complete main) Параметр Endianness формата : Big Идентификатор кодека : A_AC3 Продолжительность : 2 ч. 2 м. Вид битрейта : Постоянный Битрейт : 640 Кбит/сек Каналы : 6 каналов Расположение каналов : Front: L C R, Side: L R, LFE Частота : 48,0 КГц Битовая глубина : 16 бит Метод сжатия : С потерями Размер потока : 562 Мбайт (7%) Язык : Russian Default : Да Forced : НетАудио #2: Идентификатор : 3 Формат : AC-3 Формат/Информация : Audio Coding 3 Расширение режима : CM (complete main) Параметр Endianness формата : Big Идентификатор кодека : A_AC3 Продолжительность : 2 ч. 2 м. Вид битрейта : Постоянный Битрейт : 640 Кбит/сек Каналы : 6 каналов Расположение каналов : Front: L C R, Side: L R, LFE Частота : 48,0 КГц Битовая глубина : 16 бит Метод сжатия : С потерями Размер потока : 562 Мбайт (7%) Заголовок : Original Язык : English Default : Нет Forced : НетАудио #3: Идентификатор : 4 Формат : DTS Формат/Информация : Digital Theater Systems Режим : 16 Параметр Endianness формата : Big Идентификатор кодека : A_DTS Продолжительность : 2 ч. 2 м. Вид битрейта : Постоянный Битрейт : 1510 Кбит/сек Каналы : 6 каналов Расположение каналов : Front: L C R, Side: L R, LFE Частота : 48,0 КГц Битовая глубина : 24 бит Метод сжатия : С потерями Размер потока : 1,30 Гбайт (17%) Язык : English Default : Нет Forced : Нет 7,6 Gb 32 3
25 февраля 2016 10:35 Голодные игры: Сойка-пересмешница. Часть I / The Hunger Games: Mockingjay - Part 1 (2014) HDRip | Лицензия .torrent   [Информация о файле (нажмите для просмотра)] Качество: HDRipВидео: XviD, 1638 Кбит/с, 720x304Аудио: Русский, английский (AC3, 6 ch, 448 Кбит/с)Перевод: Дублированный [лицензия] 2,19 Gb 31 5
25 февраля 2016 10:34 Голодные игры: Сойка-пересмешница. Часть I / The Hunger Games: Mockingjay - Part 1 (2014) BDRip 720p от HELLYWOOD | Лицензия .torrent   [Информация о файле (нажмите для просмотра)] Перевод: Профессиональный (дублированный) [лицензия BD RUS]Субтитры: Русские (полные + форс.), английские (Full + SDH + SDH-Colored)Качество: BDRip 720pФормат: MKVВидео: х.264, 1280x534 (2,40:1), 23,976 fps, 3271 kbps, 0.200 bit/pixelАудио#1: 48 kHz, AC3 Dolby Digital, 3/2 (L,C,R,l,r) + LFE ch, 640.00 kbps |RUSАудио#2: 48 kHz, AC3 Dolby Digital, 3/2 (L,C,R,l,r) + LFE ch, 640.00 kbps |ENG 3,91 Gb 59 6
25 февраля 2016 10:34 Голодные игры: Сойка-пересмешница. Часть I / The Hunger Games: Mockingjay - Part 1 (2014) BDRip-AVC от HELLYWOOD | Лицензия .torrent   [Информация о файле (нажмите для просмотра)] Перевод: Профессиональный (дублированный) [лицензия BD RUS]Субтитры: Русские (полные + форс.), английские (Full + SDH + SDH-Colored)Качество: BDRip-AVCФормат: MKVВидео: х.264, 1032x430 (2,40:1), 23,976 fps, 1644 kbps, 0.155 bit/pixelАудио#1: 48 kHz, AC3 Dolby Digital, 3/2 (L,C,R,l,r) + LFE ch, 448.00 kbps |RUSАудио#2: 48 kHz, AC3 Dolby Digital, 3/2 (L,C,R,l,r) + LFE ch, 448.00 kbps |ENG 2,18 Gb 68 5
25 февраля 2016 10:34 Голодные игры: Сойка-пересмешница. Часть I / The Hunger Games: Mockingjay - Part 1 (2014) BDRip-AVC от HELLYWOOD | Лицензия .torrent   [Информация о файле (нажмите для просмотра)] Перевод: Профессиональный (дублированный) [лицензия BD RUS]Субтитры: Русские (полные + форс.)Качество: BDRip-AVCФормат: MKVВидео: х.264, 960x400 (2,40:1), 23,976 fps, 1318 kbps, 0.143 bit/pixelАудио#1: 48 kHz, AC3 Dolby Digital, 3/2 (L,C,R,l,r) + LFE ch, 384.00 kbps |RUSАудио#2: 48 kHz, AC3 Dolby Digital, 3/2 (L,C,R,l,r) + LFE ch, 448.00 kbps |ENG (отдельно) 1,46 Gb 38 4
25 февраля 2016 10:34 Голодные игры: Сойка-пересмешница. Часть I / The Hunger Games: Mockingjay (2014) Blu-Ray 1080p от New-Team | Лицензия .torrent   [Информация о файле (нажмите для просмотра)] Перевод: Профессиональный (дублированный) [Лицензия]Кодек: MPEG-4Формат: AVC VideoКачество: BluRay 1080pВидео: MPEG-4 AVC Video 19906 kbps 1080p / 24 fps / 16:9 / High Profile 4.1Звук: Аудио #1: Dolby Digital Audio Russian 640 kbps 5.1 / 48 kHz / 640 kbps / DN -4dBАудио #2: DTS Audio Russian 1509 kbps 5.1 / 48 kHz / 1509 kbps / 24-bitСубтитры: нет 20,27 Gb 19 31
25 февраля 2016 10:34 Голодные игры: Сойка-пересмешница. Часть I / The Hunger Games: Mockingjay - Part 1 (2014) BDRip 720p | KinoGadget | iPad .torrent   [Информация о файле (нажмите для просмотра)] Перевод: ДублированныйКачество: BDRip 720pФормат: mp4 2,29 Gb 16 4
25 февраля 2016 10:34 Голодные игры: Сойка-пересмешница. Часть I / The Hunger Games: Mockingjay - Part 1 (2014) BDRip-AVC | iTunes .torrent   2,71 Gb 7 2
25 февраля 2016 10:34 Голодные игры: Сойка-пересмешница. Часть I / The Hunger Games: Mockingjay - Part 1 (2014) BDRip 1080p | iTunes .torrent   6,09 Gb 125 6
25 февраля 2016 10:34 Голодные игры: Сойка-пересмешница. Часть I / The Hunger Games: Mockingjay - Part 1 (2014) HDRip-AVC от ExKinoRay | iTunes .torrent   [Информация о файле (нажмите для просмотра)] Перевод: Дублированный [Лицензия]Кодек: x264Качество: HDRip-AVCВидео: MPEG-4 AVC, 1506 Кбит/с, 1024x428Аудио: AC3, 2 ch, 192 Кбит/сСубтитры: Русские и английскиеВидео: Идентификатор : 1 Формат : AVC Формат/Информация : Advanced Video Codec Профиль формата : [email protected] Параметр CABAC формата : Да Параметр ReFrames формата : 9 кадров Идентификатор кодека : V_MPEG4/ISO/AVC Продолжительность : 2 ч. 2 м. Битрейт : 1506 Кбит/сек Ширина : 1024 пикселя Высота : 428 пикселей Соотношение сторон : 2,40:1 Режим частоты кадров : Постоянный Частота кадров : 23,976 кадра/сек Цветовое пространство : YUV Субдискретизация насыщенности : 4:2:0 Битовая глубина : 8 бит Тип развёртки : Прогрессивная Бит/(Пиксели*Кадры) : 0.143 Размер потока : 1,26 Гбайт (87%) Заголовок : by Vovan366(ExKinoRay) Библиотека кодирования : x264 core 130 r2273 b3065e6 Настройки программы : cabac=1 / ref=9 / deblock=1:-3:-3 / analyse=0x3:0x133 / me=umh / subme=10 / psy=1 / psy_rd=1.00:0.15 / mixed_ref=1 / me_range=32 / chroma_me=1 / trellis=2 / 8x8dct=1 / cqm=0 / deadzone=21,11 / fast_pskip=0 / chroma_qp_offset=-3 / threads=6 / lookahead_threads=1 / sliced_threads=0 / nr=0 / decimate=0 / interlaced=0 / bluray_compat=0 / constrained_intra=0 / bframes=9 / b_pyramid=2 / b_adapt=2 / b_bias=0 / direct=3 / weightb=1 / open_gop=0 / weightp=2 / keyint=250 / keyint_min=23 / scenecut=40 / intra_refresh=0 / rc=2pass / mbtree=0 / bitrate=1506 / ratetol=1.0 / qcomp=0.60 / qpmin=0 / qpmax=69 / qpstep=4 / cplxblur=20.0 / qblur=0.5 / ip_ratio=1.40 / pb_ratio=1.30 / aq=1:1.00 Default : Да Forced : НетАудио: Идентификатор : 2 Формат : AC-3 Формат/Информация : Audio Coding 3 Расширение режима : CM (complete main) Параметр Endianness формата : Big Идентификатор кодека : A_AC3 Продолжительность : 2 ч. 2 м. Вид битрейта : Постоянный Битрейт : 192 Кбит/сек Каналы : 2 канала Расположение каналов : Front: L R Частота : 48,0 КГц Битовая глубина : 16 бит Метод сжатия : С потерями Размер потока : 169 Мбайт (11%) Язык : Russian Default : Да Forced : Да 1,46 Gb 14 1
25 февраля 2016 10:34 Голодные игры: Сойка-пересмешница. Часть I / The Hunger Games: Mockingjay - Part 1 (2014) BDRip от Twi7ter | iTunes .torrent   1,46 Gb 9 4
25 февраля 2016 10:34 Голодные игры: Сойка-пересмешница. Часть I / The Hunger Games: Mockingjay - Part 1 (2014) BDRip 1080p | Матвеев .torrent   [Информация о файле (нажмите для просмотра)] Качество: BDRip (1080p)Видео: MPEG-4 AVC, 11 Мбит/с, 1920x800Аудио: Русский (AC3, 6 ch, 640 Кбит/с), (DTS, 6 ch, 1510 Кбит/с), английский (DTS, 6 ch, 1510 Кбит/с)Перевод: Авторский Одноголосый закадровый, А.МатвеевСубтитры: Русские, английскиеВидео: Идентификатор : 1 Формат : AVC Формат/Информация : Advanced Video Codec Профиль формата : [email protected] Параметр CABAC формата : Да Параметр ReFrames формата : 5 кадров Идентификатор кодека : V_MPEG4/ISO/AVC Продолжительность : 2 ч. 2 м. Битрейт : 10,9 Мбит/сек Ширина : 1920 пикселей Высота : 800 пикселей Соотношение сторон : 2,40:1 Режим частоты кадров : Постоянный Частота кадров : 23,976 кадра/сек Цветовое пространство : YUV Субдискретизация насыщенности : 4:2:0 Битовая глубина : 8 бит Тип развёртки : Прогрессивная Бит/(Пиксели*Кадры) : 0.297 Размер потока : 9,37 Гбайт (73%) Библиотека кодирования : x264 core 142 r2431+42 c69a006 tMod [[email protected] X86_64] Настройки программы : cabac=1 / ref=5 / deblock=1:-3:-3 / analyse=0x3:0x133 / me=umh / subme=10 / psy=1 / fade_compensate=0.00 / psy_rd=1.00:0.00 / mixed_ref=1 / me_range=48 / chroma_me=1 / trellis=2 / 8x8dct=1 / cqm=0 / deadzone=21,11 / fast_pskip=1 / chroma_qp_offset=-2 / threads=16 / lookahead_threads=2 / sliced_threads=0 / nr=0 / decimate=1 / interlaced=0 / bluray_compat=0 / constrained_intra=0 / fgo=0 / bframes=8 / b_pyramid=2 / b_adapt=2 / b_bias=0 / direct=3 / weightb=1 / open_gop=0 / weightp=2 / keyint=250 / keyint_min=23 / scenecut=40 / intra_refresh=0 / rc_lookahead=150 / rc=crf / mbtree=0 / crf=16.5000 / qcomp=0.65 / qpmin=0:0:0 / qpmax=69:69:69 / qpstep=4 / vbv_maxrate=50000 / vbv_bufsize=62500 / crf_max=0.0 / nal_hrd=none / filler=0 / ip_ratio=1.20 / pb_ratio=1.10 / aq=4:0.70 / aq-sensitivity=10.00 / aq-factor=1.00:1.00:1.00 / aq2=0 / aq3=0 Язык : English Default : Да Forced : Нет _STATISTICS_WRITING_APP : mkvmerge v7.3.0 ('Nouages') 64bit built on Oct 22 2014 18:53:34 _STATISTICS_WRITING_DATE_UTC : 2015-03-08 12:34:47 _STATISTICS_TAGS : BPS DURATION NUMBER_OF_FRAMES NUMBER_OF_BYTES DURATION : 02:02:50.405000000 NUMBER_OF_FRAMES : 176713 NUMBER_OF_BYTES : 10330415864Аудио #1: Идентификатор : 2 Формат : DTS Формат/Информация : Digital Theater Systems Режим : 16 Параметр Endianness формата : Big Идентификатор кодека : A_DTS Продолжительность : 2 ч. 2 м. Вид битрейта : Постоянный Битрейт : 1509 Кбит/сек Каналы : 6 каналов Расположение каналов : Front: L C R, Side: L R, LFE Частота : 48,0 КГц Битовая глубина : 24 бит Метод сжатия : С потерями Размер потока : 1,29 Гбайт (10%) Язык : Russian Default : Да Forced : НетАудио #2: Идентификатор : 3 Формат : AC-3 Формат/Информация : Audio Coding 3 Расширение режима : CM (complete main) Параметр Endianness формата : Big Идентификатор кодека : A_AC3 Продолжительность : 2 ч. 2 м. Вид битрейта : Постоянный Битрейт : 640 Кбит/сек Каналы : 6 каналов Расположение каналов : Front: L C R, Side: L R, LFE Частота : 48,0 КГц Битовая глубина : 16 бит Метод сжатия : С потерями Размер потока : 562 Мбайт (4%) Язык : Russian Default : Нет Forced : НетАудио #3: Идентификатор : 4 Формат : DTS Формат/Информация : Digital Theater Systems Режим : 16 Параметр Endianness формата : Big Идентификатор кодека : A_DTS Продолжительность : 2 ч. 2 м. Вид битрейта : Постоянный Битрейт : 1510 Кбит/сек Каналы : 6 каналов Расположение каналов : Front: L C R, Side: L R, LFE Частота : 48,0 КГц Битовая глубина : 24 бит Метод сжатия : С потерями Размер потока : 1,30 Гбайт (10%) Язык : English Default : Нет Forced : Нет 12,76 Gb 13 4
25 февраля 2016 10:34 Голодные игры: Сойка-пересмешница. Часть I / The Hunger Games: Mockingjay - Part 1 (2014) BDRemux 1080p | Матвеев .torrent   [Информация о файле (нажмите для просмотра)] Качество: Blu-Ray Remux (1080p)Видео: MPEG-4 AVC, 17999 Кбит/с, 1920х1080, 23.976 кадр/сАудио: Aудио#1: Русский: 48 kHz/24-bit, DTS-HD MA 7.1, ~5079.00 kbps avg - (Одноголосый закадровый, А.Матвеев) Аудио#2: Английский: 48 kHz/24-bit, TrueHD 7.1, ~4795.00 kbps avg - (Оригинал) Аудио#3: Английский: 48 kHz / 224 kbps, AC3 2.0, ~224.00 kbps avg - (Comentary)Перевод: Авторский Одноголосый закадровый, А.МатвеевСубтитры: Русские, английские, испанские 27,09 Gb 13 3
25 февраля 2016 10:34 Голодные игры: Сойка-пересмешница. Часть I / The Hunger Games: Mockingjay - Part 1 (2014) BDRip 720p от Leonardo and Scarabey .torrent   3,12 Gb 267 6
25 февраля 2016 10:34 Голодные игры: Сойка-пересмешница. Часть I / The Hunger Games: Mockingjay - Part 1 (2014) BDRip 1080p | Чистый звук .torrent   11,08 Gb 10 1

Сойка-пересмешница. Часть II (2015) через торрент

gig-torrent.net

17 августа 2016 12:25 Голодные игры: Сойка-пересмешница. Часть II / The Hunger Games: Mockingjay - Part 2 (2015) HDRip от Kaztorrents | КПК | iTunes .torrent   [Информация о файле (нажмите для просмотра)] Перевод: Профессиональный (полное дублирование) [iTunes] Качество: HDRip (Исходник BDRip 720p)Формат: MP4 618,8 Mb 42 5
17 августа 2016 12:25 Голодные игры: Сойка-пересмешница. Часть II / The Hunger Games: Mockingjay - Part 2 (2015) BDRip-AVC | iTunes .torrent   [Информация о файле (нажмите для просмотра)] Перевод: дубляжСубтитры: отсутствуютКачество: BDRip-AVCФормат: MKVВидео: Аудио: 48 kHz, AAC-HE, 745,23 Mb 30 3
17 августа 2016 12:25 Голодные игры: Сойка-пересмешница. Часть II / The Hunger Games: Mockingjay - Part 2 (2015) BDRip 720p от Scarabey | iTunes .torrent   [Информация о файле (нажмите для просмотра)] Перевод: Професиональный (полное дублирование) [iTunes]Видео: 1280х534, 23.976 fps, AVC, ~6648 kbps avgАудио: 48 kHz, AC3 Dolby Digital, 3/2 (L,C,R,l,r) + LFE ch, ~384.00 kbps avg - дубляжАудио: 48 kHz, AC3 Dolby Digital, 3/2 (L,C,R,l,r) + LFE ch, ~640.00 kbps avg - оригинал 7,65 Gb 52 8
17 августа 2016 12:25 Голодные игры: Сойка-пересмешница. Часть II / The Hunger Games: Mockingjay - Part 2 (2015) HDRip от Scarabey | iTunes .torrent   [Информация о файле (нажмите для просмотра)] Перевод: Професиональный (полное дублирование) [iTunes]Видео: 720x304 (2.37:1), 23.976 fps, XviD build 73 ~1820 kbps avg, 0.35 bit/pixelАудио: 48 kHz, AC3 Dolby Digital, 3/2 (L,C,R,l,r) + LFE ch, ~384.00 kbps avg 2,12 Gb 311 10
17 августа 2016 12:25 Голодные игры: Сойка-пересмешница. Часть II / The Hunger Games: Mockingjay - Part 2 (2015) HDRip от Scarabey | iTunes .torrent   [Информация о файле (нажмите для просмотра)] Перевод: Професиональный (полное дублирование) [iTunes]Видео: 640x272 (2.35:1), 23.976 fps, XviD build 73 ~674 kbps avg, 0.16 bit/pixelАудио: 48 kHz, MPEG Layer 3, 2 ch, ~128.00 kbps avg 795,49 Mb 65 7
17 августа 2016 12:25 Голодные игры: Сойка-пересмешница. Часть II / The Hunger Games: Mockingjay - Part 2 (2015) BDRemux | 3D-Video | iTunes .torrent   [Информация о файле (нажмите для просмотра)] Качество: BDRemux (2D/3D)Перевод: Дублированный (iTunes)Видео: AVC/H.264, 1920x1080p, (16:9), 17335 kbps, 23,976 fps, AVC/H.264, 7471 kbpsАудио: AC3, 6 ch, 384 kbps - РусскийАудио: AC3, 6 ch, 640 kbps - Английский 31,2 Gb 5 3
17 августа 2016 12:25 Голодные игры: Сойка-пересмешница. Часть II / The Hunger Games: Mockingjay - Part 2 (2015) BDRemux | iTunes .torrent   [Информация о файле (нажмите для просмотра)] Качество: BDRemuxПеревод: Дублированный (iTunes)Видео: AVC/H.264, 1920x1080p, (2.40:1), 21000 kbps, 23,976 fpsАудио: AC3, 6 ch, 384 kbps - РусскийАудио: TrueHD, 8 ch, 4287 kbps - Английский 27,56 Gb 6 7
17 августа 2016 12:25 Голодные игры: Сойка-пересмешница. Часть II / The Hunger Games: Mockingjay - Part 2 (2015) BDRip 1080p от Ash61 | 3D-Video | hOU | iTunes .torrent   [Информация о файле (нажмите для просмотра)] Перевод: Профессиональный дублированный -iTunesКачество: BDRip (byAsh61) [с BD 3D Ger]Контейнер: MKVВидео: AVC / 23,976 fps /1920х1080p / 8057 KbpsАудио: #1 - Русский / AC3 / 48 KHz / 5.1 ch / 384 Kbps (Дубляж - iTunes)Субтитры: (SRT) 8,92 Gb 31 5
17 августа 2016 12:25 Голодные игры: Сойка-пересмешница. Часть II / The Hunger Games: Mockingjay - Part 2 (2015) BDRip от ExKinoRay | iTunes .torrent   [Информация о файле (нажмите для просмотра)] Перевод: Дублированный [iTunes]Качество: BDRipВидео: XviD, 1695 Кбит/с, 720x304Аудио: Русский (AC3, 6 ch, 384 Кбит/с), английский (AC3, 2 ch, 192 Кбит/с) 2,19 Gb 261 5
17 августа 2016 12:25 Голодные игры: Сойка-пересмешница. Часть II / The Hunger Games: Mockingjay - Part 2 (2015) BDRip-AVC | iTunes .torrent   [Информация о файле (нажмите для просмотра)] Перевод: Дубляж - [iTunes]Качество: BDRip-AVCФормат: MKVВидео: AVC, 1024x426 (2.40:1), 1930 kbps, 23,976 fps, 0,185 bppАудио: AC3 / 5.1 / 48 kHz / 384 kbps / 16 bit 2,21 Gb 52 4
17 августа 2016 12:25 Голодные игры: Сойка-пересмешница. Часть II / The Hunger Games: Mockingjay - Part 2 (2015) BDRip 1080p | iTunes .torrent   [Информация о файле (нажмите для просмотра)] Перевод: Профессиональный (дублированный) iTunesКонтейнер: MKVВидео: MPEG-4 AVC, 10.5 Mбит/с, 1920x800, 23,976 fpsАудио: Rus, AC3, 384 kb/s (6 ch), 48 kHzАудио 2: Eng, AC3, 640 kb/s (6 ch), 48 kHz 11 Gb 108 5
17 августа 2016 12:25 Голодные игры: Сойка-пересмешница. Часть II / The Hunger Games: Mockingjay - Part 2 (2015) BDRip 720p | iTunes .torrent   [Информация о файле (нажмите для просмотра)] Перевод: Профессиональный (дублированный) iTunesКонтейнер: MKVВидео: MPEG-4 AVC, 3986 Кбит/с, 1280x534, 23,976 fpsАудио: Rus, AC3, 384 kb/s (6 ch), 48 kHzАудио 2: Eng, AC3, 640 kb/s (6 ch), 48 kHz 4,89 Gb 148 4
17 августа 2016 12:25 Голодные игры: Сойка-пересмешница. Часть II / The Hunger Games: Mockingjay - Part 2 (2015) HDRip от Scarabey | iTunes .torrent   [Информация о файле (нажмите для просмотра)] Перевод: Професиональный (полное дублирование) [iTunes]Видео: 720x304 (2.37:1), 23.976 fps, XviD build 73 ~1311 kbps avg, 0.25 bit/pixelАудио: 48 kHz, AC3 Dolby Digital, 2/0 (L,R) ch, ~192.00 kbps avg 1,45 Gb 999 20
17 августа 2016 12:25 Голодные игры: Сойка-пересмешница. Часть II / The Hunger Games: Mockingjay - Part 2 (2015) BDRemux | Line .torrent   [Информация о файле (нажмите для просмотра)] Качество: BDRemuxПеревод: Дублированный (Чистый звук)Видео: AVC/H.264, 1920x1080p, (16:9), 20 Mbps, 23,976 fpsАудио: AC3, 2 ch, 192 kbps - РусскийАудио: AC3, 6 ch, 640 kbps - АнглийскийАудио: TrueHD, 8 ch, 4287 kbps - Английский 25,01 Gb 6 3
17 августа 2016 12:25 Голодные игры: Сойка-пересмешница. Часть II / The Hunger Games: Mockingjay - Part 2 (2015) BDRip 1080p | Line .torrent   [Информация о файле (нажмите для просмотра)] Качество: BDRip 1080pПеревод: Дублированный (Чистый звук)Видео: AVC/H.264, 1920x800, (2.40:1), 13.0 Mbps, 23,976 fpsАудио: AC3, 2 ch, 192 kbps - РусскийАудио: DTS, 6 ch, 1509 kbps - АнглийскийВидео: Идентификатор : 1 Формат : AVC Формат/Информация : Advanced Video Codec Профиль формата : [email protected] Параметр CABAC формата : Да Параметр ReFrames формата : 5 кадров Идентификатор кодека : V_MPEG4/ISO/AVC Продолжительность : 2 ч. 16 м. Битрейт : 13,0 Мбит/сек Ширина : 1920 пикселей Высота : 800 пикселей Соотношение сторон : 2,40:1 Режим частоты кадров : Постоянный Частота кадров : 23,976 (24000/1001) кадра/сек Цветовое пространство : YUV Субдискретизация насыщенности : 4:2:0 Битовая глубина : 8 бит Тип развёртки : Прогрессивная Бит/(Пиксели*Кадры) : 0.353 Размер потока : 12,4 Гбайт (88%) Библиотека кодирования : x264 core 148 r2665kMod a01e339 Настройки программы : cabac=1 / ref=5 / deblock=1:-3:-3 / analyse=0x3:0x133 / me=umh / subme=11 / psy=1 / fade_compensate=0.00 / psy_rd=1.05:0.00 / mixed_ref=1 / me_range=48 / chroma_me=1 / trellis=2 / 8x8dct=1 / cqm=0 / deadzone=21,11 / fast_pskip=0 / chroma_qp_offset=-2 / threads=24 / lookahead_threads=4 / sliced_threads=0 / nr=0 / decimate=0 / interlaced=0 / bluray_compat=0 / constrained_intra=0 / fgo=0 / bframes=9 / b_pyramid=2 / b_adapt=2 / b_bias=0 / direct=3 / weightb=1 / open_gop=0 / weightp=2 / keyint=240 / keyint_min=24 / scenecut=40 / intra_refresh=0 / rc=2pass / mbtree=0 / bitrate=13000 / ratetol=1.0 / qcomp=0.70 / qpmin=0 / qpmax=69 / qpstep=4 / cplxblur=20.0 / qblur=0.5 / ip_ratio=1.10 / pb_ratio=1.20 / aq=3:0.80 Язык : English Default : Да Forced : НетАудио #1: Идентификатор : 2 Формат : AC-3 Формат/Информация : Audio Coding 3 Расширение режима : CM (complete main) Параметр Endianness формата : Big Идентификатор кодека : A_AC3 Продолжительность : 2 ч. 16 м. Вид битрейта : Постоянный Битрейт : 192 Кбит/сек Каналы : 2 канала Расположение каналов : Front: L R Частота : 48,0 КГц Частота кадров : 31,250 кадров/сек (1536 spf) Метод сжатия : С потерями Размер потока : 188 Мбайт (1%) Язык : Russian Default : Да Forced : НетАудио #2: Идентификатор : 3 Формат : DTS Формат/Информация : Digital Theater Systems Режим : 16 Параметр Endianness формата : Big Идентификатор кодека : A_DTS Продолжительность : 2 ч. 16 м. Вид битрейта : Постоянный Битрейт : 1509 Кбит/сек Каналы : 6 каналов Расположение каналов : Front: L C R, Side: L R, LFE Частота : 48,0 КГц Частота кадров : 93,750 кадра/сек (512 spf) Битовая глубина : 24 бит Метод сжатия : С потерями Размер потока : 1,44 Гбайт (10%) Язык : English Default : Нет Forced : Нет 14,05 Gb 30 6
17 августа 2016 12:25 Голодные игры: Сойка-пересмешница. Часть II / The Hunger Games: Mockingjay - Part 2 (2015) BDRip 720p от ExKinoRay | Line .torrent   [Информация о файле (нажмите для просмотра)] Перевод: Дублированный [Чистый звук]Кодек: MPEG-4 AVCКачество: BDRip 720pВидео: MPEG-4 AVC, 5500 Кбит/с, 1280x534Звук: Русский (AC3, 2 ch, 192 Кбит/с), английский (AC3, 6 ch, 640 Кбит/с)Субтитры: Английские 6,04 Gb 211 5

Сойка-пересмешница. Часть II в 3Д через торрент в хорошем качестве бесплатно 1080p

ОбщееУникальный идентификатор : 225208258100285600173372115677324176905 (0xA96D8865926299768DC98C01ECD6EE09)Полное имя : E:\закачки\The Hunger Games Mockingjay Part 2.Rip by SeRoGa00.mkvФормат : MatroskaВерсия формата : Version 2Размер файла : 12,3 ГбайтПродолжительность : 2 ч. 17 м.Общий поток : 12,8 Мбит/секДата кодирования : UTC 2016-03-22 12:17:03Программа кодирования : mkvmerge v3.4.0 ('Rapunzel') сборка от May 15 2010 09:38:20Библиотека кодирования : libebml v0.8.0 + libmatroska v0.9.0

ВидеоИдентификатор : 1Формат : AVCФормат/Информация : Advanced Video CodecПрофиль формата : [email protected]Параметр CABAC формата : ДаПараметр ReFrames формата : 4 кадраИдентификатор кодека : V_MPEG4/ISO/AVCПродолжительность : 2 ч. 17 м.Битрейт : 11,5 Мбит/секШирина : 1920 пикселейВысота : 1600 пикселейСоотношение сторон : 1,200Частота кадров : 23,976 кадра/секЦветовое пространство : YUVСубдискретизация насыщенности : 4:2:0Битовая глубина : 8 битТип развёртки : ПрогрессивнаяБит/(Пиксели*Кадры) : 0.156Размер потока : 11,1 Гбайт (90%)Заголовок : Rip by SeRoGa00Библиотека кодирования : x264 core 148 r2638 7599210Настройки программы : cabac=1 / ref=4 / deblock=1:-3:-3 / analyse=0x3:0x113 / me=umh / subme=10 / psy=1 / psy_rd=1.00:0.15 / mixed_ref=1 / me_range=24 / chroma_me=1 / trellis=2 / 8x8dct=1 / cqm=0 / deadzone=21,11 / fast_pskip=1 / chroma_qp_offset=-3 / threads=9 / lookahead_threads=2 / sliced_threads=0 / nr=0 / decimate=1 / interlaced=0 / bluray_compat=0 / constrained_intra=0 / bframes=10 / b_pyramid=2 / b_adapt=2 / b_bias=0 / direct=3 / weightb=1 / open_gop=0 / weightp=2 / keyint=250 / keyint_min=23 / scenecut=40 / intra_refresh=0 / rc_lookahead=60 / rc=crf / mbtree=1 / crf=18.0 / qcomp=0.60 / qpmin=10 / qpmax=69 / qpstep=4 / vbv_maxrate=40000 / vbv_bufsize=50000 / crf_max=0.0 / nal_hrd=none / filler=0 / ip_ratio=1.40 / aq=1:1.00Язык : EnglishDefault : НетForced : Нет

Аудио #1Идентификатор : 2Формат : AC-3Формат/Информация : Audio Coding 3Расширение режима : CM (complete main)Параметр Endianness формата : BigИдентификатор кодека : A_AC3Продолжительность : 2 ч. 17 м.Вид битрейта : ПостоянныйБитрейт : 384 Кбит/секКаналы : 6 каналовРасположение каналов : Front: L C R, Side: L R, LFEЧастота : 48,0 КГцБитовая глубина : 16 битМетод сжатия : С потерямиРазмер потока : 378 Мбайт (3%)Язык : RussianDefault : ДаForced : Да

Аудио #2Идентификатор : 3Формат : AC-3Формат/Информация : Audio Coding 3Расширение режима : CM (complete main)Параметр Endianness формата : BigИдентификатор кодека : A_AC3Продолжительность : 2 ч. 17 м.Вид битрейта : ПостоянныйБитрейт : 640 Кбит/секКаналы : 6 каналовРасположение каналов : Front: L C R, Side: L R, LFEЧастота : 48,0 КГцБитовая глубина : 16 битМетод сжатия : С потерямиРазмер потока : 631 Мбайт (5%)Язык : EnglishDefault : НетForced : Нет

piratbit.ru


Смотрите также