Энгри бердз в кино скачать торрент в хорошем качестве hd 1080


Скачать торрент Angry Birds в кино / The Angry Birds Movie (2016) BDRip 1080p от NNNB

Информация о фильме
    Русское название: Angry Birds в кино / Злые Птицы в киноОригинальное название: The Angry Birds MovieГод выхода: 2016Жанр: мультфильм, боевик, комедия, семейныйРежиссер: Клэй Кэйтис, Фергал РейлиВыпущено: США, Финляндия Продолжительность: 01:37:13Перевод: ДублированныйРоли озвучивали: Джейсон Судейкис, Джош Гад, Дэнни МакБрайд, Майя Рудольф, Билл Хейдер, Питер Динклэйдж, Шон Пенн, Кигэн-Майкл Ки, Кейт МакКиннон, Тони ХейлРоли дублировали: Александр Цекало, Тимур Родригез, Семен Слепаков, Елена Шульман, Сергей Бурунов, Александр Ревва, Никита Прозоровский, Наталия Колодяжная, Алена Фалалеева, Рудольф Панков, Дмитрий Сыендук, Денис Некрасов, Константин Карасик, Григорий Перель, Анастасия Лапина
Сюжет фильма
    Фильм расскажет о том, как началось знаменитое противостояние птичек и свинок, персонажей популярной компьютерной игры, а также раскроет некоторые секреты любимых героев.
Файл
    Качество: BDRip 1080p \(исходник Blu-ray Disc\)Формат: MKVВидео: 1920x1038, 7198 Кбит/сек, 23,976 кадр/сек, AVC, x264, [email protected], 1.85:1, 0.151 Бит/[Пиксели*Кадры]Аудио 1: AC-3, 640 Кбит/сек, 6 канала(ов), 48,0 КГц - Дублированный / Русский Аудио 2: AC-3, 640 Кбит/сек, 6 канала(ов), 48,0 КГц - Оригинал / АнглийскийСубтитры: Русские | Полные, Английские | ПолныеФорсированные субтитры: РусскиеЧаптеры (Главы): Есть

Автор Рипа: Группа: ← мы в VK

MediaInfo

Format : Matroska Format version : Version 2 File size : 5.75 GiB Duration : 1h 37mn Overall bit rate : 8 463 Kbps Movie name : The Angry Birds Movie.(2016).BDRip.1080p.[envy] Encoded date : UTC 2016-09-09 16:22:46 Writing application : mkvmerge v5.8.0 ('No Sleep / Pillow') built on Sep 2 2012 15:37:04 Writing library : libebml v1.2.3 + libmatroska v1.3.0

Video ID : 1 Format : AVC Format/Info : Advanced Video Codec Format profile : [email protected] Format settings, CABAC : Yes Format settings, ReFrames : 4 frames Codec ID : V_MPEG4/ISO/AVC Duration : 1h 37mn Bit rate : 7 198 Kbps Width : 1 920 pixels Height : 1 038 pixels Display aspect ratio : 1.85:1 Frame rate mode : Constant Frame rate : 23.976 (24000/1001) fps Color space : YUV Chroma subsampling : 4:2:0 Bit depth : 8 bits Scan type : Progressive Bits/(Pixel*Frame) : 0.151 Stream size : 4.76 GiB (83%) Title : The Angry Birds Movie.(2016).BDRip.1080p.[envy] Writing library : x264 core 148 r2705 3f5ed56 Encoding settings : cabac=1 / ref=4 / deblock=1:-1:-1 / analyse=0x3:0x113 / me=umh / subme=11 / psy=1 / psy_rd=1.00:0.00 / mixed_ref=1 / me_range=48 / chroma_me=1 / trellis=2 / 8x8dct=1 / cqm=0 / deadzone=21,11 / fast_pskip=0 / chroma_qp_offset=-2 / threads=12 / lookahead_threads=1 / sliced_threads=0 / nr=0 / decimate=1 / interlaced=0 / bluray_compat=0 / constrained_intra=0 / bframes=6 / b_pyramid=2 / b_adapt=2 / b_bias=0 / direct=3 / weightb=1 / open_gop=0 / weightp=2 / keyint=240 / keyint_min=23 / scenecut=40 / intra_refresh=0 / rc=2pass / mbtree=0 / bitrate=7198 / ratetol=2.0 / qcomp=0.60 / qpmin=0 / qpmax=69 / qpstep=4 / cplxblur=20.0 / qblur=0.5 / ip_ratio=1.40 / pb_ratio=1.30 / aq=2:0.90 Language : English Default : Yes Forced : No

Audio #1 ID : 2 Format : AC-3 Format/Info : Audio Coding 3 Mode extension : CM (complete main) Format settings, Endianness : Big Codec ID : A_AC3 Duration : 1h 37mn Bit rate mode : Constant Bit rate : 640 Kbps Channel(s) : 6 channels Channel positions : Front: L C R, Side: L R, LFE Sampling rate : 48.0 KHz Frame rate : 31.250 fps (1536 spf) Compression mode : Lossy Stream size : 445 MiB (8%) Title : Dub Language : Russian Default : Yes Forced : No

Audio #2 ID : 3 Format : AC-3 Format/Info : Audio Coding 3 Mode extension : CM (complete main) Format settings, Endianness : Big Codec ID : A_AC3 Duration : 1h 37mn Bit rate mode : Constant Bit rate : 640 Kbps Channel(s) : 6 channels Channel positions : Front: L C R, Side: L R, LFE Sampling rate : 48.0 KHz Frame rate : 31.250 fps (1536 spf) Compression mode : Lossy Stream size : 445 MiB (8%) Title : Eng Language : English Default : No Forced : No

Text #1 ID : 4 Format : UTF-8 Codec ID : S_TEXT/UTF8 Codec ID/Info : UTF-8 Plain Text Title : Rus forced Language : Russian Default : Yes Forced : Yes

Text #2 ID : 5 Format : UTF-8 Codec ID : S_TEXT/UTF8 Codec ID/Info : UTF-8 Plain Text Title : Rus full Language : Russian Default : No Forced : No

Text #3 ID : 6 Format : UTF-8 Codec ID : S_TEXT/UTF8 Codec ID/Info : UTF-8 Plain Text Title : Eng full Language : English Default : No Forced : No

Menu 00:00:00.000 : :Chapter 01 00:07:05.091 : :Chapter 02 00:13:38.107 : :Chapter 03 00:20:22.637 : :Chapter 04 00:25:38.619 : :Chapter 05 00:32:57.392 : :Chapter 06 00:38:34.810 : :Chapter 07 00:41:36.327 : :Chapter 08 00:47:12.953 : :Chapter 09 00:52:04.286 : :Chapter 10 00:56:07.697 : :Chapter 11 00:59:08.710 : :Chapter 12 01:03:43.318 : :Chapter 13 01:11:45.801 : :Chapter 14 01:18:55.521 : :Chapter 15 01:23:54.820 : :Chapter 16

krutor.org

Скачать торрент Angry Birds в кино / The Angry Birds Movie (2016) BDRip 1080p от ExKinoRay

Информация о фильмеНазвание: Angry Birds в киноОригинальное название: The Angry Birds MovieГод выхода: 2016Жанр: Мультфильм, боевик, комедия, семейныйРежиссер: Клэй Кэйтис, Фергал РейлиВ ролях: Питер Динклэйдж, Джейсон Судейкис, Кейт МакКиннон, Кигэн-Майкл Ки, Титус Берджесс, Шон Пенн, Билл Хейдер, Майя Рудольф, Айк Баринхолц, Дэнни МакБрайд

О фильме:Из-за своего буйного нрава Ред постоянно попадает в различные передряги. После очередного фонтана агрессии местный суд приговаривает его к бессрочному посещению курсов управления гневом. Между делом, на птичий остров приплывают зеленые свиньи и обманом выкрадывают у птичек все их яйца. Ред и его друзья отправляются на поиски легендарного Могучего Орла, чтобы заручиться его поддержкой и вернуть похищенное.

Страна: Финляндия, СШАСтудия: Columbia Pictures, LStar Capital, Rovio EntertainmentПродолжительность: 01:37:14Перевод: Дублированный | iTunes

ФайлКодек: MPEG-4Качество: BDRip 1080pВидео: 1920x1036, 10.5 Mbit/s, 23.976 fpsЗвук: Аудио #01: 48 kHz, AC3, 5.1, 384 Kbps | Дублированный, iTunes | Аудио #02: 48 kHz, DTS, 5.1, 1510 kbps | Оригинал | Субтитры: Русские (forced, full), английские

MI

General Unique ID : 173167670465702121830709987224646427835 (0x8246E154751851FF95D04D47D5F5A4BB) Complete name : G:VideoThe.Angry.Birds.Movie.2016.D.BDRip.1080p.ExKinoRay.mkv Format : Matroska Format version : Version 4 / Version 2 File size : 8.41 GiB Duration : 1h 37mn Overall bit rate : 12.4 Mbps Movie name : The.Angry.Birds.Movie.2016.D.BDRip.1080p.ExKinoRay Encoded date : UTC 2016-07-31 16:26:59 Writing application : mkvmerge v8.3.0 ('Over the Horizon') 64bit Writing library : libebml v1.3.1 + libmatroska v1.4.2

Video ID : 1 Format : AVC Format/Info : Advanced Video Codec Format profile : [email protected] Format settings, CABAC : Yes Format settings, ReFrames : 4 frames Codec ID : V_MPEG4/ISO/AVC Duration : 1h 37mn Bit rate : 10.5 Mbps Width : 1 920 pixels Height : 1 036 pixels Display aspect ratio : 1.85:1 Frame rate mode : Constant Frame rate : 23.976 (24000/1001) fps Color space : YUV Chroma subsampling : 4:2:0 Bit depth : 8 bits Scan type : Progressive Bits/(Pixel*Frame) : 0.220 Stream size : 7.12 GiB (85%) Writing library : x264 core 142 r2431+42 c69a006 tMod [[email protected] X86_64] Encoding settings : cabac=1 / ref=4 / deblock=1:-1:-1 / analyse=0x3:0x133 / me=umh / subme=11 / psy=1 / fade_compensate=0.00 / psy_rd=0.40:0.00 / mixed_ref=1 / me_range=32 / chroma_me=1 / trellis=2 / 8x8dct=1 / cqm=0 / deadzone=21,11 / fast_pskip=0 / chroma_qp_offset=-2 / threads=12 / lookahead_threads=2 / sliced_threads=0 / nr=0 / decimate=0 / interlaced=0 / bluray_compat=0 / constrained_intra=0 / fgo=0 / bframes=8 / b_pyramid=2 / b_adapt=2 / b_bias=0 / direct=3 / weightb=1 / open_gop=0 / weightp=2 / keyint=240 / keyint_min=23 / scenecut=40 / intra_refresh=0 / rc_lookahead=60 / rc=crf / mbtree=0 / crf=15.7000 / qcomp=0.60 / qpmin=0:0:0 / qpmax=69:69:69 / qpstep=4 / vbv_maxrate=40000 / vbv_bufsize=30000 / crf_max=0.0 / nal_hrd=none / filler=0 / ip_ratio=1.40 / pb_ratio=1.30 / aq=1:0.60 / aq-sensitivity=10.00 / aq-factor=1.00:1.00:1.00 / aq2=0 / aq3=0 Language : English Default : Yes Forced : No

Audio #1 ID : 2 Format : AC-3 Format/Info : Audio Coding 3 Mode extension : CM (complete main) Format settings, Endianness : Big Codec ID : A_AC3 Duration : 1h 37mn Bit rate mode : Constant Bit rate : 384 Kbps Channel(s) : 6 channels Channel positions : Front: L C R, Side: L R, LFE Sampling rate : 48.0 KHz Frame rate : 31.250 fps (1536 spf) Compression mode : Lossy Delay relative to video : 960ms Stream size : 267 MiB (3%) Title : DUB [iTunes] Language : Russian Default : Yes Forced : No

Audio #2 ID : 3 Format : DTS Format/Info : Digital Theater Systems Mode : 16 Format settings, Endianness : Big Codec ID : A_DTS Duration : 1h 37mn Bit rate mode : Constant Bit rate : 1 509 Kbps Channel(s) : 6 channels Channel positions : Front: L C R, Side: L R, LFE Sampling rate : 48.0 KHz Frame rate : 93.750 fps (512 spf) Bit depth : 24 bits Compression mode : Lossy Stream size : 1.02 GiB (12%) Title : Original Language : English Default : No Forced : No

Text #1 ID : 4 Format : UTF-8 Codec ID : S_TEXT/UTF8 Codec ID/Info : UTF-8 Plain Text Duration : 1h 25mn Bit rate : 2 bps Count of elements : 54 Stream size : 1.71 KiB (0%) Title : Forced Language : Russian Default : Yes Forced : No

Text #2 ID : 5 Format : UTF-8 Codec ID : S_TEXT/UTF8 Codec ID/Info : UTF-8 Plain Text Duration : 1h 29mn Bit rate : 99 bps Count of elements : 1579 Stream size : 65.1 KiB (0%) Title : Full Language : Russian Default : No Forced : No

Text #3 ID : 6 Format : UTF-8 Codec ID : S_TEXT/UTF8 Codec ID/Info : UTF-8 Plain Text Duration : 1h 29mn Bit rate : 64 bps Count of elements : 1518 Stream size : 42.0 KiB (0%) Title : Full Language : English Default : No Forced : No

Text #4 ID : 7 Format : UTF-8 Codec ID : S_TEXT/UTF8 Codec ID/Info : UTF-8 Plain Text Duration : 1h 32mn Bit rate : 89 bps Count of elements : 2275 Stream size : 60.5 KiB (0%) Title : SDH Language : English Default : No Forced : No

Menu 00:00:00.000 : en:00:00:00.000 00:07:05.091 : en:00:07:05.091 00:13:38.109 : en:00:13:38.109 00:20:22.638 : en:00:20:22.638 00:25:38.620 : en:00:25:38.620 00:32:57.392 : en:00:32:57.392 00:38:34.812 : en:00:38:34.812 00:41:36.327 : en:00:41:36.327 00:47:12.955 : en:00:47:12.955 00:52:04.288 : en:00:52:04.288 00:56:07.698 : en:00:56:07.698 00:59:08.712 : en:00:59:08.712 01:03:43.319 : en:01:03:43.319 01:11:45.801 : en:01:11:45.801 01:18:55.522 : en:01:18:55.522 01:23:54.821 : en:01:23:54.821

Релиз от: Автор релиза:

krutor.org

Скачать торрент Angry Birds в кино / Angry Birds (2016) BDRip 1080p | 3D-Video | hSBS

Angry Birds в кино 3D The Angry Birds Movie 3D«Что такие сердитые?»

Год выпуска: 2016

Страна: Финляндия, США, Columbia Pictures, LStar Capital, Rovio Entertainment

Жанр: Мультфильм, боевик, комедия, семейный

Продолжительность: 01:37:13

Перевод: Профессиональный (полное дублирование) [iTunes]

Режиссер: Клэй Кэйтис / Clay Kaytis, Фергал Рейли / Fergal Reilly

В ролях: Джейсон Судейкис (Red), Джош Гад (Chuck), Дэнни МакБрайд (Bomb), Майя Рудольф (Matilda), Билл Хейдер (Leonard), Питер Динклэйдж (Mighty Eagle), Шон Пенн (Terence), Кигэн-Майкл Ки (Judge Peckinpah), Кейт МакКиннон (Stella / Eva the Birthday Mom), Тони Хейл (Ross / Cyrus / Mime)

Описание:

Из-за своего буйного нрава Ред постоянно попадает в различные передряги. После очередного фонтана агрессии местный суд приговаривает его к бессрочному посещению курсов управления гневом. Между делом, на птичий остров приплывают зеленые свиньи и обманом выкрадывают у птичек все их яйца. Ред и его друзья отправляются на поиски легендарного Могучего Орла, чтобы заручиться его поддержкой и вернуть похищенное.

Рейтинг:

Качество: BDRip

Формат 3D: Half OverUnder / Горизонтальная анаморфная стереопараПорядок ракурсов: левый ракурс первыйФормат: mkv

Язык субтитров: Русский (форсированные)Вид субтитров: Вшитые отключаемые / Отдельным файломВидео: AVC/H.264, 1920x1080, 15.5 Мбит/секАудио 1: AC3 5.1 384 Кбит/сек - РусскийАудио 2: AC3 5.1 640 Кбит/сек - Английский

MediaInfo

General Unique ID : 193192440316574137636017882308170216582 (0x915782B5998E08F4B8815240B04FF486) Complete name : C:ANGRY_BIRDS_MOVIE_3DThe.Angry.Birds.Movie.2016.1080p.3D.BluRay.Half-SBS.x264..AC3.itunes-by_stereotraker.mkv Format : Matroska Format version : Version 4 / Version 2 File size : 11.6 GiB Duration : 1 h 37 min Overall bit rate : 17.1 Mb/s Movie name : The.Angry.Birds.Movie.2016.1080p.3D.BluRay.Half-SBS.x264.AC3.itunes-by_stereotraker Encoded date : UTC 2016-08-01 10:15:23 Writing application : mkvmerge v7.5.0 ('Glass Culture') 32bit built on Jan 4 2015 16:37:25 Writing library : libebml v1.3.1 + libmatroska v1.4.2 Cover : Yes Attachments : small_cover.jpg / small_cover_land.jpg / cover.jpg / cover_land.jpg

Video ID : 4 Format : AVC Format/Info : Advanced Video Codec Format profile : [email protected] Format settings, CABAC : Yes Format settings, ReFrames : 2 frames Codec ID : V_MPEG4/ISO/AVC Duration : 1 h 37 min Bit rate : 15.5 Mb/s Width : 1 920 pixels Height : 1 080 pixels Display aspect ratio : 16:9 Frame rate mode : Constant Frame rate : 23.976 (24000/1001) FPS Color space : YUV Chroma subsampling : 4:2:0 Bit depth : 8 bits Scan type : Progressive Bits/(Pixel*Frame) : 0.312 Stream size : 10.5 GiB (90%) Writing library : x264 core 142 Encoding settings : cabac=1 / ref=1 / deblock=1:-1:-1 / analyse=0x3:0 / me=hex / subme=5 / psy=0 / mixed_ref=0 / me_range=16 / chroma_me=1 / trellis=0 / 8x8dct=1 / cqm=0 / deadzone=21,11 / fast_pskip=0 / chroma_qp_offset=0 / threads=8 / lookahead_threads=2 / sliced_threads=0 / nr=0 / decimate=1 / interlaced=0 / bluray_compat=0 / constrained_intra=0 / bframes=2 / b_pyramid=0 / b_adapt=1 / b_bias=0 / direct=1 / weightb=0 / open_gop=0 / weightp=0 / keyint=24 / keyint_min=13 / scenecut=40 / intra_refresh=0 / rc=abr / mbtree=0 / bitrate=15500 / ratetol=1.0 / qcomp=0.60 / qpmin=0 / qpmax=69 / qpstep=4 / ip_ratio=1.40 / pb_ratio=1.30 / aq=1:1.00 Language : English Default : Yes Forced : No Color range : Limited Color primaries : BT.709 Transfer characteristics : BT.709 Matrix coefficients : BT.709

Audio #1 ID : 1 Format : AC-3 Format/Info : Audio Coding 3 Mode extension : CM (complete main) Format settings, Endianness : Big Codec ID : A_AC3 Duration : 1 h 37 min Bit rate mode : Constant Bit rate : 384 kb/s Channel(s) : 6 channels Channel positions : Front: L C R, Side: L R, LFE Sampling rate : 48.0 kHz Frame rate : 31.250 FPS (1536 spf) Compression mode : Lossy Stream size : 267 MiB (2%) Title : Rus Language : Russian Default : Yes Forced : No

Audio #2 ID : 2 Format : AC-3 Format/Info : Audio Coding 3 Mode extension : CM (complete main) Format settings, Endianness : Big Codec ID : A_AC3 Duration : 1 h 37 min Bit rate mode : Constant Bit rate : 640 kb/s Channel(s) : 6 channels Channel positions : Front: L C R, Side: L R, LFE Sampling rate : 48.0 kHz Frame rate : 31.250 FPS (1536 spf) Compression mode : Lossy Stream size : 445 MiB (4%) Title : eng Language : English Default : No Forced : No

Text ID : 3 Format : UTF-8 Codec ID : S_TEXT/UTF8 Codec ID/Info : UTF-8 Plain Text Duration : 1 h 25 min Bit rate : 2 b/s Count of elements : 54 Stream size : 1.71 KiB (0%) Language : Russian Default : No Forced : No

Menu 00:00:00.000 : en:(01)00:00:00:000 00:07:05.091 : en:(02)00:07:05:091 00:13:38.108 : en:(03)00:13:38:108 00:20:22.638 : en:(04)00:20:22:638 00:25:38.620 : en:(05)00:25:38:620 00:32:57.392 : en:(06)00:32:57:392 00:38:34.812 : en:(07)00:38:34:812 00:41:36.327 : en:(08)00:41:36:327 00:47:12.955 : en:(09)00:47:12:955 00:52:04.287 : en:(10)00:52:04:287 00:56:07.697 : en:(11)00:56:07:697 00:59:08.711 : en:(12)00:59:08:711 01:03:43.319 : en:(13)01:03:43:319 01:11:45.801 : en:(14)01:11:45:801 01:18:55.522 : en:(15)01:18:55:522 01:23:54.821 : en:(16)01:23:54:821

mrutor.org

Скачать торрент Angry Birds в кино / Angry Birds (2016) Blu-Ray 1080p | 3D-Video

«Что такие сердитые?»

Информация о фильмеНазвание: Angry Birds в кино Оригинальное название: Angry Birds Год выхода: 2016Жанр: Мультфильм, боевик, комедия, семейныйРежиссер: Клэй Кэйтис, Фергал РейлиРоли озвучивают: Питер Динклэйдж, Джейсон Судейкис, Кейт МакКиннон, Кигэн-Майкл Ки, Титус Берджесс, Шон Пенн, Билл Хейдер, Майя Рудольф, Айк Баринхолц, Дэнни МакБрайд

О фильме: Фильм расскажет о том, как началось знаменитое противостояние птичек и свинок, персонажей популярной компьютерной игры, а также раскроет некоторые секреты любимых героев.

Страна: США, ФинляндияСтудия: Columbia Pictures, LStar Capital, Rovio EntertainmentПродолжительность: 01:37:14 Перевод: Профессиональный (полное дублирование)

ФайлКачество: Blu Ray 1080pФормат: BDMVКодек: MPEG-4 AVC VideoВидео: 1920x1080 (16:9), 23,976 fps, MPEG-4 AVC Video ~ 25057 kbps avg, High Profile 4.1 Аудио#1: DTS-HD Master Audio English 2704 kbps 7.1 / 48 kHz / 2704 kbps / 16-bit (DTS Core: 5.1 / 48 kHz / 1509 kbps / 16-bit)Аудио#2: Dolby Digital Audio Danish 640 kbps 5.1 / 48 kHz / 640 kbpsАудио#3: Dolby Digital Audio Finnish 640 kbps 5.1 / 48 kHz / 640 kbpsАудио#4: Dolby Digital Audio Latvian 640 kbps 5.1 / 48 kHz / 640 kbpsАудио#5: Dolby Digital Audio Lithuanian 640 kbps 5.1 / 48 kHz / 640 kbpsАудио#6: Dolby Digital Audio Norwegian 640 kbps 5.1 / 48 kHz / 640 kbpsАудио#7: Dolby Digital Audio Russian 640 kbps 5.1 / 48 kHz / 640 kbps / Профессиональный (полное дублирование)Аудио#8: Dolby Digital Audio Swedish 640 kbps 5.1 / 48 kHz / 640 kbpsАудио#9: Dolby Digital Audio Ukrainian 640 kbps 5.1 / 48 kHz / 640 kbpsАудио#10: Dolby Digital Audio Estonian 640 kbps 5.1 / 48 kHz / 640 kbps

Субтитры: Английские, датские, эстонские, финские, латышские, литовские, норвежские, русские, шведские, украинские (PGS)

Дополнительно

• Трейлеры

BDInfo Report

DISC INFO:

Disc Title: ANGRY_BIRDS_MOVIE_3D_THE_HDCLUB Disc Size: 41 195 224 024 bytes Protection: AACS BD-Java: Yes Extras: Blu-ray 3D BDInfo: 0.5.8

PLAYLIST REPORT:

Name: 00001.MPLS Length: 1:37:13.828 (h:m:s.ms) Size: 38 749 489 152 bytes Total Bitrate: 53,14 Mbps

VIDEO:

Codec Bitrate Deion ----- ------- ----------- MPEG-4 AVC Video 25057 kbps 1080p / 23,976 fps / 16:9 / High Profile 4.1 MPEG-4 MVC Video 16028 kbps

AUDIO:

Codec Language Bitrate Deion ----- -------- ------- ----------- DTS-HD Master Audio English 2704 kbps 7.1 / 48 kHz / 2704 kbps / 16-bit (DTS Core: 5.1 / 48 kHz / 1509 kbps / 16-bit) Dolby Digital Audio Danish 640 kbps 5.1 / 48 kHz / 640 kbps Dolby Digital Audio Finnish 640 kbps 5.1 / 48 kHz / 640 kbps Dolby Digital Audio Latvian 640 kbps 5.1 / 48 kHz / 640 kbps Dolby Digital Audio Lithuanian 640 kbps 5.1 / 48 kHz / 640 kbps Dolby Digital Audio Norwegian 640 kbps 5.1 / 48 kHz / 640 kbps Dolby Digital Audio Russian 640 kbps 5.1 / 48 kHz / 640 kbps Dolby Digital Audio Swedish 640 kbps 5.1 / 48 kHz / 640 kbps Dolby Digital Audio Ukrainian 640 kbps 5.1 / 48 kHz / 640 kbps Dolby Digital Audio Estonian 640 kbps 5.1 / 48 kHz / 640 kbps

SUBTITLES:

Codec Language Bitrate Deion ----- -------- ------- ----------- Presentation Graphics English 34,287 kbps Presentation Graphics Danish 33,636 kbps Presentation Graphics Estonian 35,059 kbps Presentation Graphics Finnish 29,986 kbps Presentation Graphics Latvian 32,401 kbps Presentation Graphics Lithuanian 33,494 kbps Presentation Graphics Norwegian 26,030 kbps Presentation Graphics Russian 30,960 kbps Presentation Graphics Swedish 25,561 kbps Presentation Graphics Ukrainian 30,493 kbps

Релиз от:

krutor.org

Мультфильм Angry Birds в кино в 3D (2016) скачать торрент в хорошем качестве hd бесплатно

Название: Angry Birds в кино 

Оригинальное название: Angry Birds 

Год выхода: 2016 

Жанр: Мультфильм, боевик, комедия, семейный 

Режиссер: Клэй Кэйтис, Фергал Рейли 

Роли озвучивают: Питер Динклэйдж, Джейсон Судейкис, Кейт МакКиннон, Кигэн-Майкл Ки, Титус Берджесс, Шон Пенн, Билл Хейдер, Майя Рудольф, Айк Баринхолц, Дэнни МакБрайд 

История, с которой стоит начинать рассказ о сказочном мире, моет в итоге поразить свое многогранностью. Так и в данном сюжете, где в мире ярких и столь чувственных птичек, с особыми гранями понимания мира. Зрителям предстоит увидеть новое понимание мира опасности и даже беспристрастности к отдельным событиям, но до поры пока на мир птиц не нападут свинья, желающие выкрасть их яйца.

Сюжет данной мультипликационной истории стали приключения всем известной видеоигры «Angry Birds», где есть свои особые персонажи, способные поразить неуклюжестью или же напротив практичностью. Так и в фильме, героям предстоит столкнуться с опасностью, произрастающей от прибывших в их жизнь зеленных свиней, задачей которых будут выкрасть все яйца и не дать птицам прожить жизнь в беззаботном веселье и постоянном празднике. Это станет история, которая поразит всех своей необычайно яркой и стол неординарной картиной действия. Главным героям стоит отправится за помощью, они привыкли сами решать свои проблемы и готовы дать отпор противным свиньям. При этом будет показана столь веселая и неповторимая страница из жизни главных действующих лиц, где будут как злые, так и очень приятные птички. 

Авторы данной мультипликационной картины, смогли собрать столь большое количество неповторимых героев и показать их особенности, погрузив в самое необычайное и великолепное путешествие в мир красок и веселья. Отдельно можно отметить, качество прорисованных персонажей и всего антуража сказки. За это данная история и с могла получить стол высокие 10 из 10. Давая тем самым, лишний повод увидеть столь запоминающихся героев из любимой всеми видео игре. Именно о сражениях птичек, за свое существование с зелеными свиньями, которые беспощадно решаются на ограбление.

Страна: США, Финляндия 

Студия: Columbia Pictures, LStar Capital, Rovio Entertainment 

Продолжительность: 01:37:14 

Перевод: Профессиональный (полное дублирование)

Качество: Blu Ray 1080p 

Формат: BDMV 

Кодек: MPEG-4 AVC Video 

Видео: 1920x1080 (16:9), 23,976 fps, MPEG-4 AVC Video ~ 25057 kbps avg, High Profile 4.1 

Аудио#1: DTS-HD Master Audio English 2704 kbps 7.1 / 48 kHz / 2704 kbps / 16-bit (DTS Core: 5.1 / 48 kHz / 1509 kbps / 16-bit) 

Аудио#2: Dolby Digital Audio Danish 640 kbps 5.1 / 48 kHz / 640 kbps 

Аудио#3: Dolby Digital Audio Finnish 640 kbps 5.1 / 48 kHz / 640 kbps 

Аудио#4: Dolby Digital Audio Latvian 640 kbps 5.1 / 48 kHz / 640 kbps 

Аудио#5: Dolby Digital Audio Lithuanian 640 kbps 5.1 / 48 kHz / 640 kbps 

Аудио#6: Dolby Digital Audio Norwegian 640 kbps 5.1 / 48 kHz / 640 kbps 

Аудио#7:Dolby Digital Audio Russian 640 kbps 5.1 / 48 kHz / 640 kbps / Профессиональный (полное дублирование)

Аудио#8: Dolby Digital Audio Swedish 640 kbps 5.1 / 48 kHz / 640 kbps 

Аудио#9: Dolby Digital Audio Ukrainian 640 kbps 5.1 / 48 kHz / 640 kbps 

Аудио#10: Dolby Digital Audio Estonian 640 kbps 5.1 / 48 kHz / 640 kbps 

Субтитры: Английские, датские, эстонские, финские, латышские, литовские, норвежские, русские, шведские, украинские (PGS) 

Поиск торрент раздач, пожалуйста подождите!

Информация о торрент файле

Скачать торрент Торрент: Зарегистрирован Статус: v Проверено Просмотров: 2 742 Категория: мультфильмы 3D Общий размер: 38.38 GB

Поделитесь ссылкой на наш сайт с друзьями в соц.сетях ↓

mega-torrent.co

Скачать торрент Angry Birds в кино / The Angry Birds Movie (2016) BDRip 1080p от Ash61 | 3D-Video | halfOU

General Unique ID : 180026003655821645983579588217532242665 (0x876FBF4350E8261193E8ADB9151EDAE9) Complete name : E:TheAngryBirdsMovie(2016)3D-halfOU(Ash61)TheAngryBirdsMovie(2016)3D-halfOU(Ash61).mkv Format : Matroska Format version : Version 2 File size : 11.6 GiB Duration : 1h 37mn Overall bit rate : 17.1 Mbps Movie name : Angry Birds в кино / The Angry Birds Movie (2016) в 3Д Encoded date : UTC 2016-09-07 17:47:51 Writing application : mkvmerge v5.8.0 ('No Sleep / Pillow') built on Sep 2 2012 15:37:04 Writing library : libebml v1.2.3 + libmatroska v1.3.0

Video ID : 1 Format : AVC Format/Info : Advanced Video Codec Format profile : [email protected] Format settings, CABAC : Yes Format settings, ReFrames : 4 frames Codec ID : V_MPEG4/ISO/AVC Duration : 1h 37mn Bit rate : 14.9 Mbps Width : 1 920 pixels Height : 1 080 pixels Display aspect ratio : 16:9 Frame rate mode : Constant Frame rate : 23.976 fps Color space : YUV Chroma subsampling : 4:2:0 Bit depth : 8 bits Scan type : Progressive Bits/(Pixel*Frame) : 0.299 Stream size : 10.1 GiB (87%) Title : BDRip by Ash61 Writing library : x264 core 146 r2538 121396c Encoding settings : cabac=1 / ref=4 / deblock=1:-3:-3 / analyse=0x3:0x113 / me=umh / subme=10 / psy=1 / psy_rd=1.00:0.00 / mixed_ref=1 / me_range=32 / chroma_me=1 / trellis=2 / 8x8dct=1 / cqm=0 / deadzone=21,11 / fast_pskip=1 / chroma_qp_offset=-2 / threads=12 / lookahead_threads=2 / sliced_threads=0 / nr=0 / decimate=1 / interlaced=0 / bluray_compat=0 / constrained_intra=0 / bframes=8 / b_pyramid=2 / b_adapt=2 / b_bias=0 / direct=3 / weightb=1 / open_gop=0 / weightp=2 / keyint=250 / keyint_min=23 / scenecut=40 / intra_refresh=0 / rc_lookahead=60 / rc=crf / mbtree=1 / crf=14.5 / qcomp=0.70 / qpmin=0 / qpmax=69 / qpstep=4 / vbv_maxrate=40000 / vbv_bufsize=30000 / crf_max=0.0 / nal_hrd=none / filler=0 / frame-packing=4 / ip_ratio=1.40 / aq=1:0.70 Language : English Default : Yes Forced : No

Audio #1 ID : 2 Format : AC-3 Format/Info : Audio Coding 3 Mode extension : CM (complete main) Format settings, Endianness : Big Codec ID : A_AC3 Duration : 1h 37mn Bit rate mode : Constant Bit rate : 640 Kbps Channel(s) : 6 channels Channel positions : Front: L C R, Side: L R, LFE Sampling rate : 48.0 KHz Bit depth : 16 bits Compression mode : Lossy Stream size : 445 MiB (4%) Title : Дубляж - BD NORDiC Language : Russian Default : Yes Forced : No

Audio #2 ID : 3 Format : AC-3 Format/Info : Audio Coding 3 Mode extension : CM (complete main) Format settings, Endianness : Big Codec ID : A_AC3 Duration : 1h 37mn Bit rate mode : Constant Bit rate : 640 Kbps Channel(s) : 6 channels Channel positions : Front: L C R, Side: L R, LFE Sampling rate : 48.0 KHz Bit depth : 16 bits Compression mode : Lossy Stream size : 445 MiB (4%) Title : Дубляж - BD NORDiC Language : Ukrainian Default : No Forced : No

Audio #3 ID : 4 Format : AC-3 Format/Info : Audio Coding 3 Mode extension : CM (complete main) Format settings, Endianness : Big Codec ID : A_AC3 Duration : 1h 37mn Bit rate mode : Constant Bit rate : 640 Kbps Channel(s) : 6 channels Channel positions : Front: L C R, Side: L R, LFE Sampling rate : 48.0 KHz Bit depth : 16 bits Compression mode : Lossy Stream size : 445 MiB (4%) Title : Original - BD 3D Language : English Default : No Forced : No

Text #1 ID : 5 Format : UTF-8 Codec ID : S_TEXT/UTF8 Codec ID/Info : UTF-8 Plain Text Title : Форсированные (улучшенные) Language : Russian Default : Yes Forced : No

Text #2 ID : 6 Format : UTF-8 Codec ID : S_TEXT/UTF8 Codec ID/Info : UTF-8 Plain Text Title : Полные Language : Russian Default : No Forced : No

Text #3 ID : 7 Format : UTF-8 Codec ID : S_TEXT/UTF8 Codec ID/Info : UTF-8 Plain Text Title : Форсированные (улучшенные) Language : Ukrainian Default : No Forced : No

Text #4 ID : 8 Format : UTF-8 Codec ID : S_TEXT/UTF8 Codec ID/Info : UTF-8 Plain Text Title : Полные Language : Ukrainian Default : No Forced : No

Text #5 ID : 9 Format : UTF-8 Codec ID : S_TEXT/UTF8 Codec ID/Info : UTF-8 Plain Text Title : Full Language : English Default : No Forced : No

Text #6 ID : 10 Format : UTF-8 Codec ID : S_TEXT/UTF8 Codec ID/Info : UTF-8 Plain Text Title : Full (with song) Language : English Default : No Forced : No

Text #7 ID : 11 Format : UTF-8 Codec ID : S_TEXT/UTF8 Codec ID/Info : UTF-8 Plain Text Title : SDH Language : English Default : No Forced : No

Menu 00:00:00.000 : :1 00:07:05.091 : :2 00:13:38.107 : :3 00:20:22.637 : :4 00:25:38.619 : :5 00:32:57.392 : :6 00:38:34.811 : :7 00:41:36.327 : :8 00:47:12.954 : :9 00:52:04.286 : :10 00:56:07.697 : :11 00:59:08.710 : :12 01:03:43.318 : :13 01:11:45.801 : :14 01:18:55.521 : :15 01:23:54.820 : :16

krutor.org

Angry Birds в кино (2016) HD 1080p скачать торрент в хорошем качестве

Оригинальное название: The Angry Birds MovieГод выхода: 2016Жанр: мультфильм, боевик, комедия, семейныйРежиссер: Клэй Кэйтис, Фергал РейлиВыпущено: США, Финляндия Продолжительность: 01:37:13Перевод: ДублированныйРоли озвучивали: Джейсон Судейкис, Джош Гад, Дэнни МакБрайд, Майя Рудольф, Билл Хейдер, Питер Динклэйдж, Шон Пенн, Кигэн-Майкл Ки, Кейт МакКиннон, Тони ХейлРоли дублировали: Александр Цекало, Тимур Родригез, Семен Слепаков, Елена Шульман, Сергей Бурунов, Александр Ревва, Никита Прозоровский, Наталия Колодяжная, Алена Фалалеева, Рудольф Панков, Дмитрий Сыендук, Денис Некрасов, Константин Карасик, Григорий Перель, Анастасия Лапина

Сюжет фильмаФильм расскажет о том, как началось знаменитое противостояние птичек и свинок, персонажей популярной компьютерной игры, а также раскроет некоторые секреты любимых героев.

ФайлКачество: BDRip 1080p (исходник Blu-ray Disc)Формат: MKVВидео: 1920x1038, 7198 Кбит/сек, 23,976 кадр/сек, AVC, x264, [email protected], 1.85:1, 0.151 Бит/[Пиксели*Кадры]Аудио 1: AC-3, 640 Кбит/сек, 6 канала(ов), 48,0 КГц - Дублированный / Русский Аудио 2: AC-3, 640 Кбит/сек, 6 канала(ов), 48,0 КГц - Оригинал / АнглийскийСубтитры: Русские | Полные, Английские | ПолныеФорсированные субтитры: РусскиеЧаптеры (Главы): Есть

Format : MatroskaFormat version : Version 2File size : 5.75 GiBDuration : 1h 37mnOverall bit rate : 8 463 KbpsMovie name : The Angry Birds Movie.(2016).BDRip.1080p.[envy]Encoded date : UTC 2016-09-09 16:22:46Writing application : mkvmerge v5.8.0 ('No Sleep / Pillow') built on Sep 2 2012 15:37:04Writing library : libebml v1.2.3 + libmatroska v1.3.0

VideoID : 1Format : AVCFormat/Info : Advanced Video CodecFormat profile : [email protected] settings, CABAC : YesFormat settings, ReFrames : 4 framesCodec ID : V_MPEG4/ISO/AVCDuration : 1h 37mnBit rate : 7 198 KbpsWidth : 1 920 pixelsHeight : 1 038 pixelsDisplay aspect ratio : 1.85:1Frame rate mode : ConstantFrame rate : 23.976 (24000/1001) fpsColor space : YUVChroma subsampling : 4:2:0Bit depth : 8 bitsScan type : ProgressiveBits/(Pixel*Frame) : 0.151Stream size : 4.76 GiB (83%)Title : The Angry Birds Movie.(2016).BDRip.1080p.[envy]Writing library : x264 core 148 r2705 3f5ed56Encoding settings : cabac=1 / ref=4 / deblock=1:-1:-1 / analyse=0x3:0x113 / me=umh / subme=11 / psy=1 / psy_rd=1.00:0.00 / mixed_ref=1 / me_range=48 / chroma_me=1 / trellis=2 / 8x8dct=1 / cqm=0 / deadzone=21,11 / fast_pskip=0 / chroma_qp_offset=-2 / threads=12 / lookahead_threads=1 / sliced_threads=0 / nr=0 / decimate=1 / interlaced=0 / bluray_compat=0 / constrained_intra=0 / bframes=6 / b_pyramid=2 / b_adapt=2 / b_bias=0 / direct=3 / weightb=1 / open_gop=0 / weightp=2 / keyint=240 / keyint_min=23 / scenecut=40 / intra_refresh=0 / rc=2pass / mbtree=0 / bitrate=7198 / ratetol=2.0 / qcomp=0.60 / qpmin=0 / qpmax=69 / qpstep=4 / cplxblur=20.0 / qblur=0.5 / ip_ratio=1.40 / pb_ratio=1.30 / aq=2:0.90Language : EnglishDefault : YesForced : No

Audio #1ID : 2Format : AC-3Format/Info : Audio Coding 3Mode extension : CM (complete main)Format settings, Endianness : BigCodec ID : A_AC3Duration : 1h 37mnBit rate mode : ConstantBit rate : 640 KbpsChannel(s) : 6 channelsChannel positions : Front: L C R, Side: L R, LFESampling rate : 48.0 KHzFrame rate : 31.250 fps (1536 spf)Compression mode : LossyStream size : 445 MiB (8%)Title : DubLanguage : RussianDefault : YesForced : No

Audio #2ID : 3Format : AC-3Format/Info : Audio Coding 3Mode extension : CM (complete main)Format settings, Endianness : BigCodec ID : A_AC3Duration : 1h 37mnBit rate mode : ConstantBit rate : 640 KbpsChannel(s) : 6 channelsChannel positions : Front: L C R, Side: L R, LFESampling rate : 48.0 KHzFrame rate : 31.250 fps (1536 spf)Compression mode : LossyStream size : 445 MiB (8%)Title : EngLanguage : EnglishDefault : NoForced : No

Text #1ID : 4Format : UTF-8Codec ID : S_TEXT/UTF8Codec ID/Info : UTF-8 Plain TextTitle : Rus forcedLanguage : RussianDefault : YesForced : Yes

Text #2ID : 5Format : UTF-8Codec ID : S_TEXT/UTF8Codec ID/Info : UTF-8 Plain TextTitle : Rus fullLanguage : RussianDefault : NoForced : No

Text #3ID : 6Format : UTF-8Codec ID : S_TEXT/UTF8Codec ID/Info : UTF-8 Plain TextTitle : Eng fullLanguage : EnglishDefault : NoForced : No

Menu00:00:00.000 : :Chapter 0100:07:05.091 : :Chapter 0200:13:38.107 : :Chapter 0300:20:22.637 : :Chapter 0400:25:38.619 : :Chapter 0500:32:57.392 : :Chapter 0600:38:34.810 : :Chapter 0700:41:36.327 : :Chapter 0800:47:12.953 : :Chapter 0900:52:04.286 : :Chapter 1000:56:07.697 : :Chapter 1100:59:08.710 : :Chapter 1201:03:43.318 : :Chapter 1301:11:45.801 : :Chapter 1401:18:55.521 : :Chapter 1501:23:54.820 : :Chapter 16

14 132 6-06-2017, 21:00 5.75 GB Связанные раздачи

rutorg2.ru


Смотрите также