Экстрасенс скачать торрент в хорошем качестве


Скачать фильм Экстрасенс через торрент в хорошем качестве бесплатно 1080p)

GeneralUnique ID : 249618490210858772162827210127113534237 (0xBBCAC5C25CBC19F89725631406FD3B1D)Complete name : E:\Jekstrasens.2011.x264.BDRip.1080p.mkvFormat : MatroskaFormat version : Version 2File size : 11.3 GiBDuration : 1h 46mnOverall bit rate : 15.1 MbpsMovie name : R.G. Goliaf - rikutzzaEncoded date : UTC 2012-05-24 21:02:41Writing application : mkvmerge v5.2.0 ('I can't explain') built on Dec 18 2011 18:12:03Writing library : libebml v1.2.3 + libmatroska v1.3.0

VideoID : 1Format : AVCFormat/Info : Advanced Video CodecFormat profile : [email protected] settings, CABAC : YesFormat settings, ReFrames : 5 framesCodec ID : V_MPEG4/ISO/AVCDuration : 1h 46mnBit rate : 13.2 MbpsWidth : 1 920 pixelsHeight : 818 pixelsDisplay aspect ratio : 2.35:1Frame rate : 23.976 fpsColor space : YUVChroma subsampling : 4:2:0Bit depth : 8 bitsScan type : ProgressiveBits/(Pixel*Frame) : 0.349Stream size : 9.58 GiB (85%)Writing library : x264 core 120 r2164 da19765Encoding settings : cabac=1 / ref=5 / deblock=1:-3:-3 / analyse=0x3:0x133 / me=umh / subme=10 / psy=1 / psy_rd=1.05:0.05 / mixed_ref=1 / me_range=48 / chroma_me=1 / trellis=2 / 8x8dct=1 / cqm=0 / deadzone=21,11 / fast_pskip=0 / chroma_qp_offset=-3 / threads=6 / sliced_threads=0 / nr=0 / decimate=0 / interlaced=0 / bluray_compat=0 / constrained_intra=0 / bframes=8 / b_pyramid=2 / b_adapt=2 / b_bias=0 / direct=3 / weightb=1 / open_gop=0 / weightp=2 / keyint=360 / keyint_min=2 / scenecut=40 / intra_refresh=0 / rc=2pass / mbtree=0 / bitrate=13156 / ratetol=1.0 / qcomp=0.70 / qpmin=0 / qpmax=69 / qpstep=4 / cplxblur=20.0 / qblur=0.5 / ip_ratio=1.40 / pb_ratio=1.30 / aq=2:1.00Default : YesForced : No

Audio #1ID : 2Format : AC-3Format/Info : Audio Coding 3Mode extension : CM (complete main)Codec ID : A_AC3Duration : 1h 46mnBit rate mode : ConstantBit rate : 448 KbpsChannel(s) : 6 channelsChannel positions : Front: L C R, Side: L R, LFESampling rate : 48.0 KHzBit depth : 16 bitsCompression mode : LossyDelay relative to video : 7s 936msStream size : 342 MiB (3%)Language : RussianDefault : YesForced : No

Audio #2ID : 3Format : DTSFormat/Info : Digital Theater SystemsCodec ID : A_DTSDuration : 1h 46mnBit rate mode : ConstantBit rate : 1 510 KbpsChannel(s) : 6 channelsChannel positions : Front: L C R, Side: L R, LFESampling rate : 48.0 KHzBit depth : 24 bitsCompression mode : LossyDelay relative to video : 11msStream size : 1.13 GiB (10%)Language : EnglishDefault : NoForced : No

Text #1ID : 4Format : UTF-8Codec ID : S_TEXT/UTF8Codec ID/Info : UTF-8 Plain TextLanguage : RussianDefault : NoForced : No

Text #2ID : 5Format : UTF-8Codec ID : S_TEXT/UTF8Codec ID/Info : UTF-8 Plain TextLanguage : EnglishDefault : NoForced : No

piratbit.ru

Скачать фильм Экстрасенс (2011) через торрент

gig-torrent.net

21 января 2016 11:52 Экстрасенс / The Awakening (2011) HDRip-AVC от ExKinoRay .torrent   [Информация о файле (нажмите для просмотра)] Перевод: ДублированныйКодек: H.264Качество: HDRip-AVCВидео: MPEG-4 AVC, 2500 Кбит/с, 1024x436Звук: Русский, английский (AC3, 6 ch, 448 Кбит/с)Субтитры: Русские, английские 2,53 Gb 68 3
21 января 2016 11:52 Экстрасенс / The Awakening (2011) BDRip 720p от Leonardo and Scarabey | Лицензия .torrent   [Информация о файле (нажмите для просмотра)] Перевод: Профессиональный (полное дублирование) ЛицензияФормат: MKVВидео кодек: MPEG-4 AVC Аудио кодек: AC3Видео: AVC, 1280x544 (2.35:1) at 23.976 fps, AVC at 2883 kbps avg, 0.173 bit/pixelАудио: Russian: 48 kHz; AC3 5.1; 448.00 kbps avg; профессиональный, полное дублированиеСубтитры: Русские, английские 2,53 Gb 121 2
21 января 2016 11:52 Экстрасенс / The Awakening (2011) BDRip-AVC от HELLYWOOD | Лицензия .torrent   [Информация о файле (нажмите для просмотра)] Перевод: Профессиональный (полное дублирование) [лицензия R5]Субтитры: Русские, английскиеКачество: BDRip-AVCФормат: MKVВидео: х.264, 904x384 (2,35:1), 23,976 fps, 1510 Кbps, 0.181 bit/pixelАудио: 48 kHz, AC3 Dolby Digital, 3/2 (L,C,R,l,r) + LFE ch, 448.00 kbps 1,46 Gb 50 5
21 января 2016 11:52 Экстрасенс / The Awakening (2011) BDRip 720p от HQ-ViDEO | Лицензия .torrent   [Информация о файле (нажмите для просмотра)] Перевод: Профессиональный дублированный (Лицензия) + Оригинальная дорожка (Английская) Субтитры: Русские, Английские |.srt|Видео: / 1280 x 544 / 2.35:1 / 6247 kbps / 23,976 fpsАудио 1: Русский / AC3 Dolby Digital / 48 KHz / 448 kbps / 3/2 (L,C,R,l,r) + LFE chАудио 2: Английский / AC3 Dolby Digital / 48 KHz / 640 kbps / 3/2 (L,C,R,l,r) + LFE ch 5,58 Gb 21 3
21 января 2016 11:52 Экстрасенс / The Awakening (2011) BDRip-AVC от Leonardo and Scarabey | Лицензия .torrent   [Информация о файле (нажмите для просмотра)] Перевод: Профессиональный (полное дублирование) ЛицензияФормат: MKVВидео кодек: MPEG-4 AVC Аудио кодек: AC3Видео: AVC, 1040x442 (2.35:1) at 23.976 fps, AVC at 1494 kbps avg, 0.136 bit/pixelАудио: Russian: 48 kHz; AC3 5.1; 448.00 kbps avg; профессиональный, полное дублированиеСубтитры: Русские, английские 1,45 Gb 38 2
21 января 2016 11:52 Экстрасенс / The Awakening (2011) HDRip от Scarabey | D .torrent   [Информация о файле (нажмите для просмотра)] Перевод: Профессиональный (дублированный)Видео: 720x304 (2.37:1), 23.976 fps, XviD build 73 ~1484 kbps avg, 0.28 bit/pixelАудио: 48 kHz, AC3 Dolby Digital, 3/2 (L,C,R,l,r) + LFE ch, ~448.00 kbps avg 1,45 Gb 58 2
21 января 2016 11:52 Экстрасенс / The Awakening (2011) BDRip 1080p от NoLimits-Team & FireBit-Films.torrent   [Информация о файле (нажмите для просмотра)] Перевод: ДублированныйКачество: BDRip 1080p (исходник Blu-ray Disc)Видео: 1920х816, 9781 Kbps, 23.976 кадр/сек, AVC, x264, 2.35, 0.260 Бит/(Пиксели*Кадры)Аудио1: AC-3, 448 Кбит/сек, 6 канала(ов), 48,0 КГц|Дублированный|Аудио2: AC-3, 448 Кбит/сек, 6 канала(ов), 48,0 КГц|English| 7,95 Gb 24 3
21 января 2016 11:52 Экстрасенс / The Awakening (2011) HDRip от Scarabey | Лицензия .torrent   [Информация о файле (нажмите для просмотра)] Перевод: Профессиональный (дублированный)Видео: 640x272 (2.35:1), 23.976 fps, XviD build 50 ~835 kbps avg, 0.20 bit/pixelАудио: 48 kHz, MPEG Layer 3, 2 ch, ~128.00 kbps avg 742,56 Mb 20 2
21 января 2016 11:52 Экстрасенс / The Awakening (2011) BDRip от HQCLUB .torrent   [Информация о файле (нажмите для просмотра)] Перевод: профессиональный (полное дублирование) R5 + оригинал (английский)Субтитры: русские, английские (полные, SDH), украинскиеФормат: AVIКачество: BDRip (источник:Видео: 720x304 (2.37:1), 23.976 fps, XviD build 64 ~2091 kbps avg, 0.40 bit/pixelАудио #1: 48 kHz, AC3 Dolby Digital, 3/2 (L,C,R,l,r) + LFE ch, ~384 kbps avg (DUB)Аудио #2: 48 kHz, AC3 Dolby Digital, 3/2 (L,C,R,l,r) + LFE ch, ~448 kbps avg (ENG)Аудио #3: 48 kHz, AC3 Dolby Digital, 2/0 (L,R) ch, ~192 kbps avg (UKR)(отдельно) 2,18 Gb 16 4
21 января 2016 11:52 Экстрасенс / The Awakening (2011) BDRip 1080p .torrent   [Информация о файле (нажмите для просмотра)] Перевод: ДублированныйКодек: x264Качество: BDRip (источник: Blu-ray Disc)Видео: 1920x816 (2,35:1), 23.976 fps, 4969 kbpsАудио #1: AC-3, 6 ch, 448 kbps (Rus)Аудио #2: AC-3, 6 ch, 448 kbps (Eng)Субтитры: Русские, АнглийскиеВидео: Идентификатор : 1 Формат : AVC Формат/Информация : Advanced Video Codec Профиль формата : [email protected] Параметр CABAC формата : Да Параметр ReFrames формата : 5 кадров Идентификатор кодека : V_MPEG4/ISO/AVC Продолжительность : 1 ч. 46 м. Битрейт : 4969 Кбит/сек Ширина : 1920 пикселей Высота : 816 пикселей Соотношение сторон : 2,35:1 Частота кадров : 23,976 кадра/сек Цветовое пространство : YUV Субдискретизация насыщенности : 4:2:0 Битовая глубина : 8 бит Тип развёртки : Прогрессивная Бит/(Пиксели*Кадры) : 0.132 Размер потока : 3,62 Гбайт (83%) Заголовок : Release by AlexKa Библиотека кодирования : x264 core 122 r2184 5c85e0a Настройки программы : cabac=1 / ref=5 / deblock=1:0:0 / analyse=0x3:0x133 / me=umh / subme=10 / psy=1 / psy_rd=1.00:0.10 / mixed_ref=1 / me_range=32 / chroma_me=1 / trellis=2 / 8x8dct=1 / cqm=0 / deadzone=21,11 / fast_pskip=0 / chroma_qp_offset=-3 / threads=12 / sliced_threads=0 / nr=0 / decimate=0 / interlaced=0 / bluray_compat=0 / constrained_intra=0 / bframes=5 / b_pyramid=2 / b_adapt=2 / b_bias=0 / direct=3 / weightb=1 / open_gop=0 / weightp=2 / keyint=240 / keyint_min=23 / scenecut=40 / intra_refresh=0 / rc_lookahead=60 / rc=2pass / mbtree=1 / bitrate=4969 / ratetol=1.0 / qcomp=0.60 / qpmin=0 / qpmax=69 / qpstep=4 / cplxblur=20.0 / qblur=0.5 / ip_ratio=1.40 / aq=1:1.00 Язык : EnglishАудио #1: Идентификатор : 2 Формат : AC-3 Формат/Информация : Audio Coding 3 Расширение режима : CM (complete main) Идентификатор кодека : A_AC3 Продолжительность : 1 ч. 46 м. Вид битрейта : Постоянный Битрейт : 448 Кбит/сек Каналы : 6 каналов Расположение каналов : Front: L C R, Side: L R, LFE Частота : 48,0 КГц Битовая глубина : 16 бит Метод сжатия : С потерями Размер потока : 342 Мбайт (8%) Заголовок : Rus Язык : RussianАудио #2: Идентификатор : 3 Формат : AC-3 Формат/Информация : Audio Coding 3 Расширение режима : CM (complete main) Идентификатор кодека : A_AC3 Продолжительность : 1 ч. 46 м. Вид битрейта : Постоянный Битрейт : 448 Кбит/сек Каналы : 6 каналов Расположение каналов : Front: L C R, Side: L R, LFE Частота : 48,0 КГц Битовая глубина : 16 бит Метод сжатия : С потерями Размер потока : 342 Мбайт (8%) Заголовок : Eng Язык : English 4,37 Gb 23 2
21 января 2016 11:52 Экстрасенс / The Awakening (2011) BDRip-AVC от HQ-ViDEO | Лицензия .torrent   [Информация о файле (нажмите для просмотра)] Перевод: Профессиональный дублированный (Лицензия) + Оригинальная дорожка (Английская/Отдельно) Субтитры: Русские, Английские |.srt|Видео: / 1016 x 432 / 2.35:1 / 1438 kbps / 23,976 fpsАудио 1: Русский / AC3 Dolby Digital / 48 KHz / 448 kbps / 3/2 (L,C,R,l,r) + LFE chАудио 2: Английский / AC3 Dolby Digital / 48 KHz / 448 kbps / 3/2 (L,C,R,l,r) + LFE ch| narod.ru 1,43 Gb 5 7
21 января 2016 11:52 Экстрасенс / The Awakening (2011) BDRip от HQ-ViDEO | Лицензия .torrent   [Информация о файле (нажмите для просмотра)] Перевод: Профессиональный дублированный (Лицензия) + Оригинальная дорожка (Английская/Отдельно) Субтитры: Русские, Английские |.srt|Видео: XviD / 720 x 304 / 2.37:1 / 1494 kbps / 23,976 fpsАудио 1: Русский / AC3 Dolby Digital / 48 KHz / 448 kbps / 3/2 (L,C,R,l,r) + LFE chАудио 2: Английский / AC3 Dolby Digital / 48 KHz / 448 kbps / 3/2 (L,C,R,l,r) + LFE ch| narod.ru 1,45 Gb 11 1
21 января 2016 11:52 Экстрасенс / The Awakening (2011) BDRip от HELLYWOOD .torrent   [Информация о файле (нажмите для просмотра)] Перевод: Профессиональный (полное дублирование) +ОригиналСубтитры: русские, английские - Softsub|SRT|Формат: AVIКачество: BDRip (источник: HDChina /Blu-Ray/ 1080p)Видео: 720x304 (2.37:1), 23.976 fps, XviD build 65 ~1554 kbps avg, 0.30 bit/pixelАудио #1: 48 kHz, AC3 Dolby Digital, 3/2 (L,C,R,l,r) + LFE ch, ~384 kbps|DUB|Аудио #2: 48 kHz, AC3 Dolby Digital, 3/2 (L,C,R,l,r) + LFE ch, ~384 kbps|ENG| (отдельно)Аудио #3: 48 kHz, AC3 Dolby Digital, 3/2 (L,C,R,l,r) + LFE ch, ~448 kbps|VO, Zamez| (отдельно) 1,45 Gb 11 1
21 января 2016 11:52 Экстрасенс / The Awakening (2011) BDRemux | Лицензия .torrent   [Информация о файле (нажмите для просмотра)] Формат: MKVКачество: BDRemux | ЛицензияВидео: MPEG-4 AVC, 21.3 Мбит/с, 1920x1080, 23.976 кадр/сАудио: Русский (DTS, 6 ch, 768 Кбит/с), английский (DTS-HD МА, 6 ch, 3637 Кбит/с)Субтитры: Русские, английскиеВидео: Идентификатор : 1 Формат : AVC Формат/Информация : Advanced Video Codec Профиль формата : [email protected] Параметр CABAC формата : Да Параметр ReFrames формата : 3 кадра Параметр GOP формата : M=4, N=24 Идентификатор кодека : V_MPEG4/ISO/AVC Продолжительность : 1 ч. 46 м. Вид битрейта : Переменный Битрейт : 23,7 Мбит/сек Максимальный битрейт : 28,0 Мбит/сек Ширина : 1920 пикселей Высота : 1080 пикселей Соотношение сторон : 16:9 Частота кадров : 23,976 кадра/сек Стандарт вещания : NTSC Цветовое пространство : YUV Субдискретизация насыщенности : 4:2:0 Битовая глубина : 8 бит Тип развёртки : Прогрессивная Бит/(Пиксели*Кадры) : 0.476 Размер потока : 17,6 Гбайт (92%) Язык : English Default : Да Forced : Да Основные цвета : BT.709-5, BT.1361, IEC 61966-2-4, SMPTE RP177 Характеристики трансфера : BT.709-5, BT.1361 Коэффициенты матрицы : BT.709-5, BT.1361, IEC 61966-2-4 709, SMPTE RP177Аудио #1: Идентификатор : 2 Формат : DTS Формат/Информация : Digital Theater Systems Идентификатор кодека : A_DTS Продолжительность : 1 ч. 46 м. Вид битрейта : Постоянный Битрейт : 755 Кбит/сек Каналы : 6 каналов Расположение каналов : Front: L C R, Side: L R, LFE Частота : 48,0 КГц Битовая глубина : 24 бит Метод сжатия : С потерями Размер потока : 576 Мбайт (3%) Язык : Russian Default : Да Forced : ДаАудио #2: Идентификатор : 3 Формат : DTS Формат/Информация : Digital Theater Systems Профиль формата : MA / Core Идентификатор кодека : A_DTS Продолжительность : 1 ч. 46 м. Вид битрейта : Переменный Битрейт : 806 Кбит/сек / 755 Кбит/сек Каналы : 6 каналов Расположение каналов : Front: L C R, Side: L R, LFE Частота : 48,0 КГц Битовая глубина : 24 бит Метод сжатия : Без потерь / Lossy Язык : English Default : Нет Forced : Нет 19,18 Gb 6 2
21 января 2016 11:51 Экстрасенс / The Awakening (2011) BDRip 1080p | Лицензия .torrent   [Информация о файле (нажмите для просмотра)] Формат: MKVКачество: BDRip 1080p [HDChina]Видео: MPEG-4 AVC, 13.2 Mбит/с, 1920x818Аудио: Русский (АС3, 6 ch, 448 Кбит/с), английский (DTS, 6 ch, 1510 Кбит/с)Субтитры: Русские, английские 11,27 Gb 6 4

Скачать фильм Экстрасенс через торрент в хорошем качестве бесплатно HDRip

piratbit.ru

Размер: 1.37 GB | Добавлен: 5 лет 6 мес. назад | Торрент скачан:11307 раз
Реклама Дарим 3000 рублей за регистрацию, не упусти свой шанс получить шикарный бонус!!!

01-04-2012 21:56 Экстрасенс Скачать торрент  

Экстрасенс / The Awakening

Год выпуска: 2011Страна: Великобритания / BBC Films, Origin Pictures, Scottish Screen, StudioCanalЖанр: ужасы, триллерПродолжительность: 01:46:42Перевод: Профессиональный (полное дублирование) [Лицензия] Тип релиза: Лицензия

Режиссер: Ник Мерфи

В ролях: Ребекка Холл, Доминик Уэст, Имелда Стонтон, Люси Коху, Джон Шрэпнел, Дайана Кент, Ричард Дерден, Элфи Филд, Тилли Восберг

Описание: Действие картины происходит в 1920 году. Ученый-скептик приезжает в загородную школу-интернат, где, по слухам, наблюдается повышенная спектральная активность. Сначала она уверена, что сможет развенчать этот миф, но затем пугающая встреча со сверхъестественным заставляет ее изменить свое мнение…

Качество: HDRipФормат: AVIВидео кодек: XviDАудио кодек: AC3Видео: 720x304 (2.37:1), 23.976 fps, XviD build 50 ~1439 kbps avg, 0.27 bit/pixelАудио: 48 kHz, AC3 Dolby Digital, 3/2 (L,C,R,l,r) + LFE ch, ~384 kbps

Скачать Экстрасенс через торрент http://pic.pb.wtf/images/2000/cmwzfvf5eg.png Скачать фильм Экстрасенс через торрент бесплантно в хорошем качестве Описание: Действие картины происходит в 1920 году. Ученый-скептик приезжает в загородную школу-интернат, где, по слухам, наблюдается ... 2012-04-01 21:56 10 10 9

Loading...

Loading...

Рекламный пират

01-04-2012 22:08 Экстрасенс Скачать торрент  

отличный фильмец!!

01-04-2012 23:20 Экстрасенс Скачать торрент  

Надо глянуть , ваще люблю мистику.

02-04-2012 03:41 Экстрасенс Скачать торрент  

Спасибо! Заценим

04-04-2012 05:23 Экстрасенс Скачать торрент  

Посмотрел! Фильм на твердую 5. понравился ,советую посмотреть. мистика хороша не то что фильм про гари потерра без очков (фильм так и не понял толи комедия была толи мистика)

04-04-2012 07:47 Экстрасенс Скачать торрент  

Фильм хорош, советую любителям такого жанра, главное что не просто про убивающего призрака, как это обычно бывает, а с глубоким смыслом и разворотом событий. Смутило одно - это название фильма на обложке.Фильм называется "Разоблачение призраков" и в этом релизе, а экстрасенсы там вообще нипричём, ни единого намёка... написали бы на обложке "Балерина", тот же смысл получился бы.

04-04-2012 16:46 Экстрасенс Скачать торрент  

04-04-2012 17:10 Экстрасенс Скачать торрент  

то что надо,спс

04-04-2012 20:53 Экстрасенс Скачать торрент  

Хороший фильм, я одобряю к просмотру.

Pекламный агент PB

04-04-2012 22:22 Экстрасенс Скачать торрент  

Фильм хорош! Ох и на мудрили с названиями... Дословно фильм назваться "Пробуждение".

05-04-2012 00:24 Экстрасенс Скачать торрент  

Фильм просто улёт, я с него кайфанул!

05-04-2012 11:55 Экстрасенс Скачать торрент  

КАК ЛЕГКО ВЗЛОМАТЬ МЕГАФОН МОДЕМ (т.е. вы делаете его универсальным и повышаете скорость ) http://vzlomodema.спам/

05-04-2012 14:57 Экстрасенс Скачать торрент  

Тин! мля, хорош спам разгонять

05-04-2012 18:10 Экстрасенс Скачать торрент  

Офигенное кинцо. Тока не пойму при чем тут экстрасенс?

06-04-2012 14:16 Экстрасенс Скачать торрент  

классный фильм,давно таких не снимали!!!

06-04-2012 16:26 Экстрасенс Скачать торрент  

Да класный фильм прям дрожжю пробрало!!! Смотрите не пожелеете...

11-04-2012 17:08 Экстрасенс Скачать торрент  

Мож я чё-то не понял, но фильм неособо понравился. .... На вкус и цвет у всех фломастеры разные). Автору спасибо за раздачу.

Pекламный агент PB

23-04-2012 13:23 Экстрасенс Скачать торрент  

Люблю мистику, то что надо

27-09-2012 15:56 Экстрасенс Скачать торрент  

Хороший фильм, интересно закрученная концовка, может даже еще раз пересмотрю ;)

13-12-2012 04:24 Экстрасенс Скачать торрент  

Понравился. Давно мурашки по коже от кино не гуляли. На пару раз хватит посмотреть.

13-12-2012 04:29 Экстрасенс Скачать торрент  

SAURON89 писал(а):

Фильм хорош, советую любителям такого жанра, главное что не просто про убивающего призрака, как это обычно бывает, а с глубоким смыслом и разворотом событий. Смутило одно - это название фильма на обложке.Фильм называется "Разоблачение призраков" и в этом релизе, а экстрасенсы там вообще нипричём, ни единого намёка... написали бы на обложке "Балерина", тот же смысл получился бы.

Если на то пошло уж, то фильм называется "Пробуждение", а экстрасенс тут действительно не причём...

06-07-2013 13:59 Экстрасенс Скачать торрент  

Чем напомнил "Сэнт Анж ". На мой взгляд фильм слабоват. Смотреть ещё раз уж точно не буду. Но вот, что поразило, так это момент где эта главная героиня, говорит, что температура понизилась. Призрак, видимо, споткнулся о какой-то чудо-измеритель мега-волн и этот прибор переклинило. Был как-то зимой в одной квартире, где странным образом много лет назад покончил жизнь (самоубийством???) один молодой парень. Так, вот было это в зале. Отопление работает на полную катушку, а пол то в зале - холодный!?! И ещё кое-что - это фраза " мальчик с перекошенным лицом".

16-10-2013 18:13 Экстрасенс Скачать торрент  

Звук запаздывает.Смотреть стрёмно :(

Дорогой пользователь! Огромная просьба, поблагодарите релизера, оцените раздачу и оставьте свои комментарий, если Вы скачали Экстрасенс через торрент бесплатно! Внесите свою лепту в развитие PiratBit!

Комментировать посты могут только пользователи прошедшие не сложную регистрацию

Экстрасенс через торрент Скачать бесплатно Экстрасенс Экстрасенс скачать торрент Экстрасенс смотреть онлайн Cкачать фильм Экстрасенс бесплатно Экстрасенс скачать торрент в хорошем качестве Экстрасенс смотреть онлайн бесплатно в хорошем качестве

Вы не можете начинать темыВы не можете отвечать на сообщенияВы не можете редактировать свои сообщенияВы не можете удалять свои сообщенияВы не можете голосовать в опросахВы не можете прикреплять файлы к сообщениямВы можете скачивать файлы

Скачать торрент Экстрасенсы / Solace (2015) BDRip 1080p

Информация о фильмеНазвание: ЭкстрасенсыОригинальное название: SolaceГод выхода: 2015Жанр: Триллер, детективРежиссер: Афонсо ПойартВ ролях: Джеффри Дин Морган, Колин Фаррелл, Энтони Хопкинс, Эбби Корниш, Марли Шелтон, Джанин Тернер, Ксандер Беркли, Кенни Джонсон, Хосе Пабло Кантильо, Джошуа Клоуз

О фильме: Напарники, Джо и Кэтрин, детективы из ФБР расследуют череду загадочных убийств. Все преступления объединяет нечто сверхъестественное - серийный убийца всегда на шаг впереди лучших сыщиков. Тогда на помощь правосудию приходит отставной аналитик спецслужб доктор Джон Кленси. Его исключительная интуиция и интеллект могут помочь поймать убийцу, но вскоре Джон понимает - его соперник значительно превосходит его в способностях.

Страна: СШАСтудия: Eden Rock Media, FilmNation Entertainment, Flynn Picture CompanyПродолжительность: 01:41:12Перевод: Дублированный | iTunes

ФайлКодек: MPEG-4Качество: BDRip 1080pВидео: 1920x800, 12.0 Mbit/s, 23.976 fpsЗвук: Аудио #1: 48.0 Khz, AC3, 5.1, 384 Kbps | Дублированный, iTunes | RUSАудио #2: 48.0 KHz, DTS, 5.1, 1510 Kbps | Оригинал | ENGСубтитры: Английские

Релиз от:

Примечание: Без рекламы.

MI

Общее Уникальный идентификатор : 236850936145610966620877912358014546262 (0xB22FD4BE3E8C85E2BE88E789E351F156) Полное имя : F:VideoSolace.2015.BDRip.1080p (S).mkv Формат : Matroska Версия формата : Version 4 / Version 2 Размер файла : 9,81 Гбайт Продолжительность : 1 ч. 41 м. Общий поток : 13,9 Мбит/сек Название фильма : Solace.2015.BDRip.1080p (S) Дата кодирования : UTC 2016-04-13 20:53:21 Программа кодирования : mkvmerge v8.3.0 ('Over the Horizon') 64bit Библиотека кодирования : libebml v1.3.1 + libmatroska v1.4.2

Видео Идентификатор : 1 Формат : AVC Формат/Информация : Advanced Video Codec Профиль формата : [email protected] Параметр CABAC формата : Да Параметр ReFrames формата : 4 кадра Идентификатор кодека : V_MPEG4/ISO/AVC Продолжительность : 1 ч. 41 м. Битрейт : 12,0 Мбит/сек Ширина : 1920 пикселей Высота : 800 пикселей Соотношение сторон : 2,40:1 Режим частоты кадров : Постоянный Частота кадров : 23,976 (24000/1001) кадра/сек Цветовое пространство : YUV Субдискретизация насыщенности : 4:2:0 Битовая глубина : 8 бит Тип развёртки : Прогрессивная Бит/(Пиксели*Кадры) : 0.326 Размер потока : 8,47 Гбайт (86%) Библиотека кодирования : x264 core 130 r2273 b3065e6 Настройки программы : cabac=1 / ref=4 / deblock=1:-3:-3 / analyse=0x3:0x113 / me=umh / subme=11 / psy=1 / psy_rd=1.10:0.05 / mixed_ref=1 / me_range=48 / chroma_me=1 / trellis=2 / 8x8dct=1 / cqm=0 / deadzone=21,11 / fast_pskip=0 / chroma_qp_offset=-3 / threads=6 / lookahead_threads=1 / sliced_threads=0 / nr=0 / decimate=0 / interlaced=0 / bluray_compat=0 / constrained_intra=0 / bframes=8 / b_pyramid=2 / b_adapt=2 / b_bias=0 / direct=3 / weightb=1 / open_gop=0 / weightp=2 / keyint=240 / keyint_min=24 / scenecut=40 / intra_refresh=0 / rc_lookahead=240 / rc=2pass / mbtree=1 / bitrate=12000 / ratetol=1.0 / qcomp=0.70 / qpmin=0 / qpmax=69 / qpstep=4 / cplxblur=20.0 / qblur=0.5 / ip_ratio=1.10 / aq=1:0.85 Язык : English Default : Да Forced : Нет

Аудио #1 Идентификатор : 2 Формат : AC-3 Формат/Информация : Audio Coding 3 Расширение режима : CM (complete main) Параметр Endianness формата : Big Идентификатор кодека : A_AC3 Продолжительность : 1 ч. 41 м. Вид битрейта : Постоянный Битрейт : 384 Кбит/сек Каналы : 6 каналов Расположение каналов : Front: L C R, Side: L R, LFE Частота : 48,0 КГц Частота кадров : 31,250 кадров/сек (1536 spf) Метод сжатия : С потерями Размер потока : 278 Мбайт (3%) Заголовок : DUB [iTunes] Язык : Russian Default : Да Forced : Нет

Аудио #2 Идентификатор : 3 Формат : DTS Формат/Информация : Digital Theater Systems Режим : 16 Параметр Endianness формата : Big Идентификатор кодека : A_DTS Продолжительность : 1 ч. 41 м. Вид битрейта : Постоянный Битрейт : 1509 Кбит/сек Каналы : 6 каналов Расположение каналов : Front: L C R, Side: L R, LFE Частота : 48,0 КГц Частота кадров : 93,750 кадра/сек (512 spf) Битовая глубина : 24 бит Метод сжатия : С потерями Размер потока : 1,07 Гбайт (11%) Язык : English Default : Нет Forced : Нет

Текст #1 Идентификатор : 4 Формат : UTF-8 Идентификатор кодека : S_TEXT/UTF8 Идентификатор кодека/Информация : UTF-8 Plain Text Продолжительность : 1 ч. 33 м. Битрейт : 49 бит/сек Count of elements : 1043 Размер потока : 33,8 Кбайт (0%) Язык : English Default : Нет Forced : Нет

Текст #2 Идентификатор : 5 Формат : UTF-8 Идентификатор кодека : S_TEXT/UTF8 Идентификатор кодека/Информация : UTF-8 Plain Text Продолжительность : 1 ч. 34 м. Битрейт : 54 бит/сек Count of elements : 1164 Размер потока : 37,8 Кбайт (0%) Заголовок : SDH Язык : English Default : Нет Forced : Нет

Меню 00:00:00.000 : en:Chapter 01 00:09:13.428 : en:Chapter 02 00:16:38.289 : en:Chapter 03 00:20:26.475 : en:Chapter 04 00:30:19.860 : en:Chapter 05 00:39:57.562 : en:Chapter 06 00:46:02.468 : en:Chapter 07 01:00:26.748 : en:Chapter 08 01:04:05.800 : en:Chapter 09 01:11:37.126 : en:Chapter 10 01:18:46.639 : en:Chapter 11 01:22:42.541 : en:Chapter 12

krutor.org


Смотрите также