Эдди орел скачать торрент в хорошем качестве


Скачать фильм Эдди «Орел» через торрент в хорошем качестве бесплатно 1080p / Лицензия

Format : Matroska

Format version : Version 4 / Version 2

File size : 10.9 GiB

Duration : 1h 45mn

Overall bit rate : 14.7 Mbps

Movie name : released by aldershot

Encoded date : UTC 2016-08-18 09:08:59

Writing application : mkvmerge v6.9.1 ('Blue Panther') 64bit built on Apr 18 2014 18:23:38

Writing library : libebml v1.3.0 + libmatroska v1.4.1

Attachment : Yes

Video

ID : 1

Format : AVC

Format/Info : Advanced Video Codec

Format profile : [email protected]

Format settings, CABAC : Yes

Format settings, ReFrames : 5 frames

Codec ID : V_MPEG4/ISO/AVC

Duration : 1h 45mn

Bit rate : 11.7 Mbps

Width : 1 920 pixels

Height : 804 pixels

Display aspect ratio : 2.40:1

Frame rate mode : Constant

Frame rate : 23.976 fps

Color space : YUV

Chroma subsampling : 4:2:0

Bit depth : 8 bits

Scan type : Progressive

Bits/(Pixel*Frame) : 0.317

Stream size : 8.66 GiB (80%)

Title : EbP

Writing library : x264 core 142 r2431+42 c69a006 tMod [[email protected]:2:0 X86_64]

Encoding settings : cabac=1 / ref=5 / deblock=1:-3:-3 / analyse=0x3:0x133 / me=umh / subme=10 / psy=1 / fade_compensate=0.00 / psy_rd=1.00:0.00 / mixed_ref=1 / me_range=32 / chroma_me=1 / trellis=2 / 8x8dct=1 / cqm=0 / deadzone=21,11 / fast_pskip=0 / chroma_qp_offset=-2 / threads=12 / lookahead_threads=2 / sliced_threads=0 / nr=0 / decimate=0 / interlaced=0 / bluray_compat=0 / constrained_intra=0 / fgo=0 / bframes=9 / b_pyramid=2 / b_adapt=2 / b_bias=0 / direct=3 / weightb=1 / open_gop=0 / weightp=2 / keyint=250 / keyint_min=23 / scenecut=40 / intra_refresh=0 / rc_lookahead=60 / rc=crf / mbtree=0 / crf=14.7000 / qcomp=0.60 / qpmin=0:0:0 / qpmax=69:69:69 / qpstep=4 / vbv_maxrate=50000 / vbv_bufsize=62500 / crf_max=0.0 / nal_hrd=none / filler=0 / ip_ratio=1.35 / pb_ratio=1.25 / aq=3:0.84 / aq-sensitivity=10.00 / aq-factor=1.00:1.00:1.00 / aq2=0 / aq3=0

Language : English

Default : Yes

Forced : No

Audio #1

ID : 2

Format : DTS

Format/Info : Digital Theater Systems

Mode : 16

Format settings, Endianness : Big

Codec ID : A_DTS

Duration : 1h 45mn

Bit rate mode : Constant

Bit rate : 768 Kbps

Channel(s) : 6 channels

Channel positions : Front: L C R, Side: L R, LFE

Sampling rate : 48.0 KHz

Bit depth : 24 bits

Compression mode : Lossy

Stream size : 581 MiB (5%)

Title : DTS 5.1 @ 768 Kbps, Дубляж, Blu-Ray CEE

Language : Russian

Default : Yes

Forced : No

Audio #2

ID : 3

Format : AC-3

Format/Info : Audio Coding 3

Mode extension : CM (complete main)

Format settings, Endianness : Big

Codec ID : A_AC3

Duration : 1h 45mn

Bit rate mode : Constant

Bit rate : 448 Kbps

Channel(s) : 6 channels

Channel positions : Front: L C R, Side: L R, LFE

Sampling rate : 48.0 KHz

Bit depth : 16 bits

Compression mode : Lossy

Stream size : 339 MiB (3%)

Title : AC3 5.1 @ 448 Kbps, Дубляж, Blu-Ray CEE

Language : Ukrainian

Default : No

Forced : No

Audio #3

ID : 4

Format : DTS

Format/Info : Digital Theater Systems

Mode : 16

Format settings, Endianness : Big

Codec ID : A_DTS

Duration : 1h 45mn

Bit rate mode : Constant

Bit rate : 1 509 Kbps

Channel(s) : 6 channels

Channel positions : Front: L C R, Side: L R, LFE

Sampling rate : 48.0 KHz

Bit depth : 24 bits

Compression mode : Lossy

Stream size : 1.11 GiB (10%)

Title : DTS 5.1 @ 1536 Kbps, Original

Language : English

Default : No

Forced : No

Text #1

ID : 5

Format : UTF-8

Codec ID : S_TEXT/UTF8

Codec ID/Info : UTF-8 Plain Text

Title : full

Language : Romanian

Default : No

Forced : No

Text #2

ID : 6

Format : UTF-8

Codec ID : S_TEXT/UTF8

Codec ID/Info : UTF-8 Plain Text

Title : forced

Language : Russian

Default : Yes

Forced : No

Text #3

ID : 7

Format : UTF-8

Codec ID : S_TEXT/UTF8

Codec ID/Info : UTF-8 Plain Text

Title : full

Language : Russian

Default : No

Forced : No

Text #4

ID : 8

Format : UTF-8

Codec ID : S_TEXT/UTF8

Codec ID/Info : UTF-8 Plain Text

Title : forced

Language : English

Default : No

Forced : No

Text #5

ID : 9

Format : UTF-8

Codec ID : S_TEXT/UTF8

Codec ID/Info : UTF-8 Plain Text

Title : full

Language : English

Default : No

Forced : No

Text #6

ID : 10

Format : UTF-8

Codec ID : S_TEXT/UTF8

Codec ID/Info : UTF-8 Plain Text

Title : SDH

Language : English

Default : No

Forced : No

Text #7

ID : 11

Format : ASS

Codec ID : S_TEXT/ASS

Codec ID/Info : Advanced Sub Station Alpha

Compression mode : Lossless

Title : Styled

Language : English

Default : No

Forced : No

Menu

00:00:00.000 : en:00:00:00.000

00:03:33.171 : en:00:03:33.171

00:08:15.161 : en:00:08:15.161

00:12:06.684 : en:00:12:06.684

00:17:54.573 : en:00:17:54.573

00:21:31.081 : en:00:21:31.081

00:26:19.578 : en:00:26:19.578

00:31:41.566 : en:00:31:41.566

00:37:13.273 : en:00:37:13.273

00:41:46.963 : en:00:41:46.963

00:47:12.329 : en:00:47:12.329

00:50:19.350 : en:00:50:19.350

00:53:39.591 : en:00:53:39.591

00:56:57.581 : en:00:56:57.581

01:02:22.906 : en:01:02:22.906

01:08:16.884 : en:01:08:16.884

01:11:42.298 : en:01:11:42.298

01:17:05.788 : en:01:17:05.788

01:20:00.587 : en:01:20:00.587

01:23:23.457 : en:01:23:23.457

01:27:44.593 : en:01:27:44.593

01:31:40.120 : en:01:31:40.120

01:36:53.057 : en:01:36:53.057

01:40:42.078 : en:01:40:42.078

piratbit.ru

Скачать фильм Эдди «Орел» через торрент в хорошем качестве бесплатно 1080p от еnvy / NNNB] DUB

Format                      : MatroskaFormat version              : Version 2File size                   : 7.74 GiBDuration                    : 1h 45mnOverall bit rate            : 10.5 MbpsMovie name                  : Eddie the Eagle.(2016).BDRip.1080p.[envy]Encoded date                : UTC 2016-08-21 04:29:54Writing application         : mkvmerge v5.8.0 ('No Sleep / Pillow') built on Sep  2 2012 15:37:04Writing library             : libebml v1.2.3 + libmatroska v1.3.0

VideoID                          : 1Format                      : AVCFormat/Info                 : Advanced Video CodecFormat profile              : [email protected] settings, CABAC      : YesFormat settings, ReFrames   : 5 framesCodec ID                    : V_MPEG4/ISO/AVCDuration                    : 1h 45mnBit rate                    : 9 416 KbpsWidth                       : 1 920 pixelsHeight                      : 804 pixelsDisplay aspect ratio        : 2.40:1Frame rate mode             : ConstantFrame rate                  : 23.976 (24000/1001) fpsColor space                 : YUVChroma subsampling          : 4:2:0Bit depth                   : 8 bitsScan type                   : ProgressiveBits/(Pixel*Frame)          : 0.254Stream size                 : 6.79 GiB (88%)Title                       : Eddie the Eagle.(2016).BDRip.1080p.[envy]Writing library             : x264 core 148 r2705 3f5ed56Encoding settings           : cabac=1 / ref=5 / deblock=1:-3:-3 / analyse=0x3:0x113 / me=umh / subme=11 / psy=1 / psy_rd=1.00:0.00 / mixed_ref=1 / me_range=48 / chroma_me=1 / trellis=2 / 8x8dct=1 / cqm=0 / deadzone=21,11 / fast_pskip=0 / chroma_qp_offset=-2 / threads=12 / lookahead_threads=2 / sliced_threads=0 / nr=0 / decimate=1 / interlaced=0 / bluray_compat=0 / constrained_intra=0 / bframes=8 / b_pyramid=2 / b_adapt=2 / b_bias=0 / direct=3 / weightb=1 / open_gop=0 / weightp=2 / keyint=240 / keyint_min=23 / scenecut=40 / intra_refresh=0 / rc=2pass / mbtree=0 / bitrate=9416 / ratetol=2.0 / qcomp=0.60 / qpmin=0 / qpmax=69 / qpstep=4 / cplxblur=20.0 / qblur=0.5 / ip_ratio=1.40 / pb_ratio=1.30 / aq=2:0.70Language                    : EnglishDefault                     : YesForced                      : No

Audio #1ID                          : 2Format                      : AC-3Format/Info                 : Audio Coding 3Mode extension              : CM (complete main)Format settings, Endianness : BigCodec ID                    : A_AC3Duration                    : 1h 45mnBit rate mode               : ConstantBit rate                    : 448 KbpsChannel(s)                  : 6 channelsChannel positions           : Front: L C R, Side: L R, LFESampling rate               : 48.0 KHzFrame rate                  : 31.250 fps (1536 spf)Compression mode            : LossyStream size                 : 339 MiB (4%)Title                       : DubLanguage                    : RussianDefault                     : YesForced                      : No

Audio #2ID                          : 3Format                      : AC-3Format/Info                 : Audio Coding 3Mode extension              : CM (complete main)Format settings, Endianness : BigCodec ID                    : A_AC3Duration                    : 1h 45mnBit rate mode               : ConstantBit rate                    : 640 KbpsChannel(s)                  : 6 channelsChannel positions           : Front: L C R, Side: L R, LFESampling rate               : 48.0 KHzFrame rate                  : 31.250 fps (1536 spf)Compression mode            : LossyStream size                 : 484 MiB (6%)Title                       : EngLanguage                    : EnglishDefault                     : NoForced                      : No

Text #1ID                          : 4Format                      : UTF-8Codec ID                    : S_TEXT/UTF8Codec ID/Info               : UTF-8 Plain TextTitle                       : Rus forcedLanguage                    : RussianDefault                     : YesForced                      : Yes

Text #2ID                          : 5Format                      : UTF-8Codec ID                    : S_TEXT/UTF8Codec ID/Info               : UTF-8 Plain TextTitle                       : Rus fullLanguage                    : RussianDefault                     : NoForced                      : No

Text #3ID                          : 6Format                      : UTF-8Codec ID                    : S_TEXT/UTF8Codec ID/Info               : UTF-8 Plain TextTitle                       : Eng fullLanguage                    : EnglishDefault                     : NoForced                      : No

Menu00:00:00.000                : :00:00:00.00000:03:33.171                : :00:03:33.17100:08:15.161                : :00:08:15.16100:12:06.684                : :00:12:06.68400:17:54.573                : :00:17:54.57300:21:31.081                : :00:21:31.08100:26:19.578                : :00:26:19.57800:31:41.566                : :00:31:41.56600:37:13.273                : :00:37:13.27300:41:46.963                : :00:41:46.96300:47:12.329                : :00:47:12.32900:50:19.350                : :00:50:19.35000:53:39.591                : :00:53:39.59100:56:57.581                : :00:56:57.58101:02:22.906                : :01:02:22.90601:08:16.884                : :01:08:16.88401:11:42.298                : :01:11:42.29801:17:05.788                : :01:17:05.78801:20:00.587                : :01:20:00.58701:23:23.457                : :01:23:23.45701:27:44.593                : :01:27:44.59301:31:40.120                : :01:31:40.12001:36:53.057                : :01:36:53.05701:40:42.078                : :01:40:42.078

piratbit.ru

Скачать фильм Эдди «Орел» через торрент в хорошем качестве бесплатно TS

piratbit.ru

Раздают: 1 [ 0 KB/s ]
Размер: 1.46 GB | Добавлен: 1 год 5 мес. назад | Торрент скачан:257 раз
Реклама Дарим 3000 рублей за регистрацию, не упусти свой шанс получить шикарный бонус!!!

29-04-2016 05:04 Эдди «Орел» Скачать торрент  

Эдди «Орел» / Eddie the Eagle

Год выпуска: 2016Жанр: драма, комедия, биография, спортПродолжительность: 106 мин. / 01:46Перевод: Дубляж Звук с TSСубтитры: Китайские вшитые

Режиссер: Декстер ФлетчерПродюссер: Адам Болинг, Руперт Маконик, Дэвид РейдСценарий: Саймон Келтон, Шон Маколи

Бюджет: $23 000 000Премьера в мире: 26 января 2016

IMDB 7.60 (8859)

В ролях: Тэрон Эджертон, Хью Джекман, Кристофер Уокен, Джо Хартли, Том Костелло, Кит Аллен, Дикон Толсон, Джек Костелло, Марк Бентон, Тим МакИннерни, Александр Рахленко, Валерий Сторожик, Анастасия Лапина, Сергей Чихачев

Описание: Фильм повествует о трамплинисте Эдди, по прозвищу «Орел». Он прославился благодаря своим неудачам, ибо на всех соревнованиях он занимал последние места.

Доп. информация: Имеется реклама от спонсора показа.

Качество: WEBRipФормат: AVIВидео кодек: XviDАудио кодек: AC3Видео: XviD, 720x400 (16:9), 29.970 fps, 1 707 Kbps (0.198 bit/pixel)Аудио#1: AC-3, 48.0 KHz, 2 ch, 192 Kbps, CBR

сэмпл http://sendfile.su/1229269

Эдди «Орел» скачать торрент

Скачать Эдди «Орел» через торрент http://i79.fastpic.ru/big/2016/0429/b3/6daaadf2bbabc25704a1914edc04afb3.jpg Скачать фильм Эдди «Орел» через торрент бесплантно в хорошем качестве Описание: Фильм повествует о трамплинисте Эдди, по прозвищу «Орел». Он прославился благодаря своим неудачам, ибо на всех соревнованиях он ... 2016-04-29 05:04 10 10 8

Loading...

Loading...

% Раздел Тема Автор DL S | L
Фильмы (HD 720p, 1080p) (48-60 fps) [ 3.42 GB ] Эдди «Орел» / Eddie the Eagle [2016 биография BDRip 720p 60 fps от еnvy / NNNB] DUB еnvy Скачать
Фильмы 2016 [DVDrip, WEB-DLRip, HDrip] (DUB, MVO) [ 746 MB ] Эдди «Орел» / Eddie the Eagle [2016 Германия биография BDRip-AVC от sokol_ok] DUB sokol_ok Скачать
Фильмы 2016 [DVDrip, WEB-DLRip, HDrip] (DUB, MVO) [ 2.18 GB ] Эдди «Орел» / Eddie the Eagle [2016 Германия биография BDRip-AVC от sokol_ok] DUB [] sokol_ok Скачать
Фильмы 2016 [DVDrip, WEB-DLRip, HDrip] (DUB, MVO) [ 1.46 GB ] Эдди «Орел» / Eddie the Eagle [2016 биография BDRip] DUB Twi7ter Скачать
Фильмы [HD 720p, 1080p] (Хороший звук DUB, MVO) [ 7.74 GB ] Эдди «Орел» / Eddie the Eagle [2016 биография BDRip 1080p от еnvy / NNNB] DUB еnvy Скачать
Фильмы 2016 [DVDrip, WEB-DLRip, HDrip] (DUB, MVO) [ 1.46 GB ] Эдди «Орел» / Eddie the Eagle [2016 Германия биография BDRip-AVC от sokol_ok] DUB sokol_ok Скачать
Фильмы [HD 720p, 1080p] (Хороший звук DUB, MVO) [ 10.89 GB ] Эдди «Орел» / Eddie the Eagle [2016 биография BDRip 1080p / ] Ворон Скачать

Рекламный пират

29-04-2016 10:37 Эдди «Орел» Скачать торрент  

Дорогой пользователь! Огромная просьба, поблагодарите релизера, оцените раздачу и оставьте свои комментарий, если Вы скачали Эдди «Орел» через торрент бесплатно! Внесите свою лепту в развитие PiratBit!

Комментировать посты могут только пользователи прошедшие не сложную регистрацию

Эдди «Орел» через торрент Скачать бесплатно Эдди «Орел» Эдди «Орел» скачать торрент Эдди «Орел» смотреть онлайн Cкачать фильм Эдди «Орел» бесплатно Эдди «Орел» скачать торрент в хорошем качестве Эдди «Орел» смотреть онлайн бесплатно в хорошем качестве

Вы можете начинать темыВы можете отвечать на сообщенияВы не можете редактировать свои сообщенияВы не можете удалять свои сообщенияВы не можете голосовать в опросахВы не можете прикреплять файлы к сообщениямВы можете скачивать файлы

Скачать фильм Эдди «Орел» через торрент в хорошем качестве бесплатно 720p / Лицензия

General

Unique ID : 173681615694528063985059755190280795125 (0x82A9DCC93B8744E4A434905B035033F5)

Complete name : G:VideoEddie the Eagle.2016.D.BDRip.720p.ExKinoRay.mkv

Format : Matroska

Format version : Version 4 / Version 2

File size : 9.32 GiB

Duration : 1 h 45 min

Overall bit rate : 12.6 Mb/s

Movie name : Eddie the Eagle.2016.D.BDRip.720p.ExKinoRay

Encoded date : UTC 2016-08-18 12:22:10

Writing application : mkvmerge v8.3.0 ('Over the Horizon') 64bit

Writing library : libebml v1.3.1 + libmatroska v1.4.2

Video

ID : 1

Format : AVC

Format/Info : Advanced Video Codec

Format profile : [email protected]

Format settings, CABAC : Yes

Format settings, ReFrames : 12 frames

Codec ID : V_MPEG4/ISO/AVC

Duration : 1 h 45 min

Bit rate : 9 901 kb/s

Width : 1 280 pixels

Height : 536 pixels

Display aspect ratio : 2.40:1

Frame rate mode : Constant

Frame rate : 23.976 (24000/1001) FPS

Color space : YUV

Chroma subsampling : 4:2:0

Bit depth : 8 bits

Scan type : Progressive

Bits/(Pixel*Frame) : 0.602

Stream size : 7.30 GiB (78%)

Writing library : x264 core 146 r2538 121396c

Encoding settings : cabac=1 / ref=12 / deblock=1:-3:-3 / analyse=0x3:0x133 / me=tesa / subme=10 / psy=1 / psy_rd=1.10:0.00 / mixed_ref=1 / me_range=32 / chroma_me=1 / trellis=2 / 8x8dct=1 / cqm=0 / deadzone=21,11 / fast_pskip=0 / chroma_qp_offset=-2 / threads=6 / lookahead_threads=2 / sliced_threads=0 / nr=0 / decimate=0 / interlaced=0 / bluray_compat=0 / constrained_intra=0 / bframes=8 / b_pyramid=2 / b_adapt=2 / b_bias=0 / direct=3 / weightb=1 / open_gop=0 / weightp=2 / keyint=240 / keyint_min=23 / scenecut=40 / intra_refresh=0 / rc_lookahead=150 / rc=2pass / mbtree=1 / bitrate=9901 / ratetol=1.0 / qcomp=0.70 / qpmin=0 / qpmax=69 / qpstep=4 / cplxblur=20.0 / qblur=0.5 / vbv_maxrate=50000 / vbv_bufsize=62500 / nal_hrd=none / filler=0 / ip_ratio=1.40 / aq=3:0.80

Language : English

Default : Yes

Forced : No

Audio #1

ID : 2

Format : DTS

Format/Info : Digital Theater Systems

Mode : 16

Format settings, Endianness : Big

Codec ID : A_DTS

Duration : 1 h 45 min

Bit rate mode : Constant

Bit rate : 768 kb/s

Channel(s) : 6 channels

Channel positions : Front: L C R, Side: L R, LFE

Sampling rate : 48.0 kHz

Frame rate : 93.750 FPS (512 spf)

Bit depth : 24 bits

Compression mode : Lossy

Stream size : 581 MiB (6%)

Title : DUB-DTS [Blu-Ray CEE]

Language : Russian

Default : Yes

Forced : No

Audio #2

ID : 3

Format : AC-3

Format/Info : Audio Coding 3

Mode extension : CM (complete main)

Format settings, Endianness : Big

Codec ID : A_AC3

Duration : 1 h 45 min

Bit rate mode : Constant

Bit rate : 448 kb/s

Channel(s) : 6 channels

Channel positions : Front: L C R, Side: L R, LFE

Sampling rate : 48.0 kHz

Frame rate : 31.250 FPS (1536 spf)

Compression mode : Lossy

Stream size : 339 MiB (4%)

Title : DUB-AC3 [Blu-Ray CEE]

Language : Russian

Default : No

Forced : No

Audio #3

ID : 4

Format : DTS

Format/Info : Digital Theater Systems

Mode : 16

Format settings, Endianness : Big

Codec ID : A_DTS

Duration : 1 h 45 min

Bit rate mode : Constant

Bit rate : 1 509 kb/s

Channel(s) : 6 channels

Channel positions : Front: L C R, Side: L R, LFE

Sampling rate : 48.0 kHz

Frame rate : 93.750 FPS (512 spf)

Bit depth : 24 bits

Compression mode : Lossy

Stream size : 1.11 GiB (12%)

Title : Original

Language : English

Default : No

Forced : No

Text #1

ID : 5

Format : UTF-8

Codec ID : S_TEXT/UTF8

Codec ID/Info : UTF-8 Plain Text

Duration : 1 h 40 min

Bit rate : 2 b/s

Count of elements : 25

Stream size : 1.53 KiB (0%)

Title : Forced

Language : Russian

Default : Yes

Forced : No

Text #2

ID : 6

Format : UTF-8

Codec ID : S_TEXT/UTF8

Codec ID/Info : UTF-8 Plain Text

Duration : 1 h 40 min

Bit rate : 88 b/s

Count of elements : 1143

Stream size : 65.0 KiB (0%)

Title : Full

Language : Russian

Default : No

Forced : No

Text #3

ID : 7

Format : UTF-8

Codec ID : S_TEXT/UTF8

Codec ID/Info : UTF-8 Plain Text

Duration : 1 h 39 min

Bit rate : 55 b/s

Count of elements : 1105

Stream size : 40.5 KiB (0%)

Title : Full

Language : English

Default : No

Forced : No

Text #4

ID : 8

Format : UTF-8

Codec ID : S_TEXT/UTF8

Codec ID/Info : UTF-8 Plain Text

Duration : 1 h 44 min

Bit rate : 62 b/s

Count of elements : 1640

Stream size : 47.7 KiB (0%)

Title : SDH

Language : English

Default : No

Forced : No

Menu

00:00:00.000 : en:Chapter 01

00:03:33.171 : en:Chapter 02

00:08:15.161 : en:Chapter 03

00:12:06.684 : en:Chapter 04

00:17:54.573 : en:Chapter 05

00:21:31.081 : en:Chapter 06

00:26:19.578 : en:Chapter 07

00:31:41.566 : en:Chapter 08

00:37:13.272 : en:Chapter 09

00:41:46.962 : en:Chapter 10

00:47:12.329 : en:Chapter 11

00:50:19.349 : en:Chapter 12

00:53:39.591 : en:Chapter 13

00:56:57.580 : en:Chapter 14

01:02:22.905 : en:Chapter 15

01:08:16.884 : en:Chapter 16

01:11:42.298 : en:Chapter 17

01:17:05.787 : en:Chapter 18

01:20:00.587 : en:Chapter 19

01:23:23.456 : en:Chapter 20

01:27:44.592 : en:Chapter 21

01:31:40.119 : en:Chapter 22

01:36:53.057 : en:Chapter 23

01:40:42.077 : en:Chapter 24

piratbit.ru


Смотрите также