Джон уик 2 в хорошем качестве торрент


Скачать фильм Джон Уик 2 через торрент в хорошем качестве бесплатно 1080p

Раздают: 24 [ 0 KB/s ]
Размер: 4.06 GB | Добавлен: 5 мес. 3 д. назад | Торрент скачан:2783 раза
Реклама Дарим 3000 рублей за регистрацию, не упусти свой шанс получить шикарный бонус!!!

22-05-2017 19:42 Джон Уик 2 Скачать торрент  

Джон Уик 2 / John Wick: Chapter Two ««Never stab the devil in the back»» Год выпуска: 2017 Страна: США Жанр: боевик, триллер, криминал Продолжительность: 01:57:14 Перевод: Дубляж - [Лицензия / iTunes] Режиссер: Чад Стахелски В ролях: Киану Ривз (John Wick), Риккардо Скамарчо (Santino D'Antonio), Иэн МакШейн (Winston), Руби Роуз (Ares), Коммон (Cassian), Клаудия Джерини (Gianna D'Antonio), Лэнс Реддик (Charon), Лоренс Фишбёрн (Bowery King), Тобиаш Сигал (Earl), Джон Легуизамо (Aurelio), Бриджет Мойнэхэн (Helen), Томас Садоски (Jimmy)✦ Описание: Когда бывший коллега Джона решает взять под свой контроль таинственную гильдию убийц, Уик вынужден выйти из отставки. Ведомый кровавой клятвой Джон отправляется в Рим, где ему придется сразиться с одними из самых опасных киллеров в мире.✦ Мировая премьера: 30 января 2017 MPAA: R - Лицам до 17 лет обязательно присутствие взрослого Качество: WEB-DL 1080p Формат: MKV Видео: AVC, 1920x800 (2.40:1), 4473 kbps, 25 fps, 0,116 bpp Аудио: русский / AC3 / 5.1 / 48 kHz / 384 kbps / GeneralUnique ID : 181977856901753023046419414145179852528 (0x88E7A90ECFA747D292CD0C138E901EF0)Complete name : D:\download\John.Wick.Chapter.Two.2017.1080p.WEB-DL.Rus.HDCLUB.mkvFormat : MatroskaFormat version : Version 2File size : 4.06 GiBDuration : 1 h 57 minOverall bit rate : 4 956 kb/sMovie name : John Wick: Chapter Two (2017) - Release for HDCLUBEncoded date : UTC 2017-05-22 18:27:56Writing application : mkvmerge v3.4.0 ('Rapunzel') built on May 15 2010 09:38:20Writing library : libebml v0.8.0 + libmatroska v0.9.0

VideoID : 1Format : AVCFormat/Info : Advanced Video CodecFormat profile : [email protected] settings, CABAC : YesFormat settings, ReFrames : 5 framesCodec ID : V_MPEG4/ISO/AVCDuration : 1 h 57 minBit rate : 4 473 kb/sWidth : 1 920 pixelsHeight : 800 pixelsDisplay aspect ratio : 2.40:1Frame rate mode : ConstantFrame rate : 25.000 FPSColor space : YUVChroma subsampling : 4:2:0Bit depth : 8 bitsScan type : ProgressiveBits/(Pixel*Frame) : 0.116Stream size : 3.66 GiB (90%)Title : John Wick: Chapter Two (2017) - Release for HDCLUBLanguage : EnglishDefault : YesForced : NoColor range : LimitedColor primaries : BT.709Transfer characteristics : BT.709Matrix coefficients : BT.709

AudioID : 2Format : AC-3Format/Info : Audio Coding 3Mode extension : CM (complete main)Format settings, Endianness : BigCodec ID : A_AC3Duration : 1 h 57 minBit rate mode : ConstantBit rate : 384 kb/sChannel(s) : 6 channelsChannel positions : Front: L C R, Side: L R, LFESampling rate : 48.0 kHzFrame rate : 31.250 FPS (1536 spf)Compression mode : LossyStream size : 322 MiB (8%)Title : AC3 5.1 @ 384 kbps - DUB, iTunesLanguage : RussianDefault : YesForced : No

Menu00:00:00.000 : en:100:06:15.680 : en:200:12:56.000 : en:300:18:36.400 : en:400:25:30.280 : en:500:33:12.960 : en:600:38:58.080 : en:700:44:27.400 : en:800:51:40.600 : en:900:58:11.920 : en:1001:03:11.520 : en:1101:09:33.040 : en:1201:14:44.760 : en:1301:20:55.320 : en:1401:27:26.400 : en:1501:33:17.960 : en:1601:39:14.640 : en:1701:44:21.080 : en:18

Скачать Джон Уик 2 через торрент http://s1.piratpic.ru/images/10/ejpqs.jpg Скачать фильм Джон Уик 2 через торрент бесплантно в хорошем качестве Описание: Когда бывший коллега Джона решает взять под свой контроль таинственную гильдию убийц, Уик вынужден выйти из отставки. Ведомый ... 2017-05-22 19:42 9.8 10 97

Loading...

Loading...

% Раздел Тема Автор DL S | L
Ultra HD (UHD: 2K, 4K, 8K) — видео сверхвысокой чёткости [ 79.37 GB ] Джон Уик 2 / John Wick: Chapter Two [2017 UHD BDRemux 2160] DUB+2xAVO bober100 Скачать
Фильмы (Blu-ray, BD-Remux, HDDVD) [ 44.24 GB ] Джон Уик 2 / John Wick: Chapter Two [2017 BD Remux 1080p] DUB+2xAVO+2xVO bober100 Скачать
Фильмы [HD 720p, 1080p] (Хороший звук DUB, MVO) [ 10.93 GB ] Джон Уик 2 / John Wick: Chapter Two [2017 BDRip 1080p] Dub + 2xAVO sheker187 Скачать
Фильмы без перевода [ 30.28 GB ] Джон Уик 2 / John Wick: Chapter Two [2017 BD Remux] [Оригинал-ENG] smaster Скачать
Фильмы 2017 [DVDrip, WEB-DLRip, HDrip] (DUB, MVO) [ 2.13 GB ] Джон Уик 2 / John Wick: Chapter Two [2017 BDRip] - Twi7ter Скачать
Фильмы 2017 [DVDrip, WEB-DLRip, HDrip] (DUB, MVO) [ 1.46 GB ] Джон Уик 2 / John Wick: Chapter Two [2017 BDRip] - Twi7ter Скачать
Фильмы 2017 [DVDrip, WEB-DLRip, HDrip] (DUB, MVO) [ 2.35 GB ] Джон Уик 2 / John Wick: Chapter Two [2017 HDRip-AVC] - - ExKinoRay Enigma2010 Скачать

Рекламный пират

22-05-2017 19:49 Джон Уик 2 Скачать торрент  

как кинчик после 1-вого???

22-05-2017 19:56 Джон Уик 2 Скачать торрент  

Наконец то дождался!!!

22-05-2017 20:01 Джон Уик 2 Скачать торрент  

Ты сделал мой вечер чувак. Спасибо

22-05-2017 20:02 Джон Уик 2 Скачать торрент  

Читал в инете что Джон уик задумывался как трилогия, кто уже посмотрел говорят экшена стало больше чем в первой части заценим.

22-05-2017 20:26 Джон Уик 2 Скачать торрент  

Выложили то выложили, а раздавать кто будет???

22-05-2017 20:48 Джон Уик 2 Скачать торрент  

schultzСпасибо огромное! Очень давно ждал, респект!

22-05-2017 20:53 Джон Уик 2 Скачать торрент  

фильм агонь! Раздающему спасибо за качество!!! +10

23-05-2017 14:15 Джон Уик 2 Скачать торрент  

Спасибо schultz давно ждали,удачи всем и приятного просмотра!!!))

Pекламный агент PB

23-05-2017 15:24 Джон Уик 2 Скачать торрент  

DINO-UFO писал(а):

как кинчик после 1-вого???

Он стал жёсче, но тут больше драмы. Мне как то 1я часть больше порадовала, но это тоже норм. Жду 3ю!

23-05-2017 20:03 Джон Уик 2 Скачать торрент  

Много трупиков, вышибленных мозгов и драк. Даже сюжет есть) а в конце, как всегда, уходит в даль...Немного смущает нереальность всех этих принятых пуль, ран от ножей и сбитых машин, но смотреть можно.

24-05-2017 07:57 Джон Уик 2 Скачать торрент  

бред для детей,пачками трупы ,все раки,стр не могут,он один супер стрелок в непробиваемом костюмчике,сюжет нормальный, но перебор с убийствами,сколько он за весь фильм вальнул,мне кажется чел 50 минимум,если не больше

24-05-2017 12:05 Джон Уик 2 Скачать торрент  

Хороший боевик это, когда соплей мало, а экшена и угара много. И это факт, а не моё скромное мнение.

dimdim80, угадай, что взято за основу фильма. правильно-комикс. Так, что не скули

24-05-2017 18:02 Джон Уик 2 Скачать торрент  

25-05-2017 08:38 Джон Уик 2 Скачать торрент  

6666666666 писал(а):

Хороший боевик это, когда соплей мало, а экшена и угара много. И это факт, а не моё скромное мнение.

dimdim80, угадай, что взято за основу фильма. правильно-комикс. Так, что не скули

скулишь ты по ночам когда жрать хочешь,я высказал свое мнение,а твое мнение может в очечко тасануть себе пес

25-05-2017 12:58 Джон Уик 2 Скачать торрент  

фильм бред полнейший. первая часть еще кое как. а это полный шлак

26-05-2017 08:16 Джон Уик 2 Скачать торрент  

dimdim80 писал(а):

6666666666 писал(а):

Хороший боевик это, когда соплей мало, а экшена и угара много. И это факт, а не моё скромное мнение.

dimdim80, угадай, что взято за основу фильма. правильно-комикс. Так, что не скули

скулишь ты по ночам когда жрать хочешь,я высказал свое мнение,а твое мнение может в очечко тасануть себе песКаникулы начались?) Успокойся чёрт, не петушись)

Pекламный агент PB

26-05-2017 13:38 Джон Уик 2 Скачать торрент  

6666666666, dimdim80, в ЛС идите, там разбирайтесь

26-05-2017 15:48 Джон Уик 2 Скачать торрент  

В этой серии Джон Вик тестит новые версии аимбота и воллхака. ))

29-05-2017 08:45 Джон Уик 2 Скачать торрент  

Юный Чикатилла

29-05-2017 14:35 Джон Уик 2 Скачать торрент  

Первая часть больше понравилась. Она как-то проникновеннее. Здесь один и тот же его одинаковый приём бросок врага через себя задолбал уже к середине фильма. Да и когда в него 30 чилавег стреляют и не попадают за весь фильм, тоже как-то не кошерно и глуповато.

31-05-2017 18:31 Джон Уик 2 Скачать торрент  

отличный экшн

Дорогой пользователь! Огромная просьба, поблагодарите релизера, оцените раздачу и оставьте свои комментарий, если Вы скачали Джон Уик 2 через торрент бесплатно! Внесите свою лепту в развитие PiratBit!

Комментировать посты могут только пользователи прошедшие не сложную регистрацию

Джон Уик 2 через торрент Скачать бесплатно Джон Уик 2 Джон Уик 2 скачать торрент Джон Уик 2 смотреть онлайн Cкачать фильм Джон Уик 2 бесплатно Джон Уик 2 скачать торрент в хорошем качестве Джон Уик 2 смотреть онлайн бесплатно в хорошем качестве

Вы можете начинать темыВы можете отвечать на сообщенияВы не можете редактировать свои сообщенияВы не можете удалять свои сообщенияВы не можете голосовать в опросахВы не можете прикреплять файлы к сообщениямВы можете скачивать файлы

piratbit.ru

Скачать фильм Джон Уик 2 через торрент в хорошем качестве бесплатно 720p

ОбщееУникальный идентификатор : 206458566392205722377063534236546063922 (0x9B5279393254A992B6C638E73EEB5E32)Полное имя : D:\dzh0H.u1k.2.2017.D.WEB-DL.720p.mkvФормат : MatroskaВерсия формата : Version 4 / Version 2Размер файла : 3,62 ГбайтПродолжительность : 1 ч. 57 м.Общий поток : 4423 Кбит/секДата кодирования : UTC 2017-05-22 18:20:55Программа кодирования : mkvmerge v8.3.0 ('Over the Horizon') 64bitБиблиотека кодирования : libebml v1.3.1 + libmatroska v1.4.2

ВидеоИдентификатор : 1Формат : AVCФормат/Информация : Advanced Video CodecПрофиль формата : [email protected]Параметр CABAC формата : НетПараметр ReFrames формата : 2 кадраИдентификатор кодека : V_MPEG4/ISO/AVCПродолжительность : 1 ч. 57 м.Битрейт : 4037 Кбит/секШирина : 960 пикселейВысота : 532 пикселяСоотношение сторон : 2,40:1Режим частоты кадров : ПостоянныйЧастота кадров : 25,000 кадров/секЦветовое пространство : YUVСубдискретизация насыщенности : 4:2:0Битовая глубина : 8 битТип развёртки : ПрогрессивнаяБит/(Пиксели*Кадры) : 0.316Размер потока : 3,31 Гбайт (91%)Язык : RussianDefault : ДаForced : НетЦветовой диапазон : LimitedОсновные цвета : BT.709Характеристики трансфера : BT.709Коэффициенты матрицы : BT.709

АудиоИдентификатор : 2Формат : AC-3Формат/Информация : Audio Coding 3Расширение режима : CM (complete main)Параметр Endianness формата : BigИдентификатор кодека : A_AC3Продолжительность : 1 ч. 57 м.Вид битрейта : ПостоянныйБитрейт : 384 Кбит/секКаналы : 6 каналовРасположение каналов : Front: L C R, Side: L R, LFEЧастота : 48,0 КГцЧастота кадров : 31,250 кадров/сек (1536 spf)Метод сжатия : С потерямиРазмер потока : 322 Мбайт (9%)Язык : RussianDefault : ДаForced : Нет

Меню00:00:00.000 : en:Глава 100:06:15.680 : en:Глава 200:12:56.000 : en:Глава 300:18:36.400 : en:Глава 400:25:30.280 : en:Глава 500:33:12.960 : en:Глава 600:38:58.080 : en:Глава 700:44:27.400 : en:Глава 800:51:40.600 : en:Глава 900:58:11.920 : en:Глава 1001:03:11.520 : en:Глава 1101:09:33.040 : en:Глава 1201:14:44.760 : en:Глава 1301:20:55.320 : en:Глава 1401:27:26.400 : en:Глава 1501:33:17.960 : en:Глава 1601:39:14.640 : en:Глава 1701:44:21.080 : en:Глава 18

piratbit.ru

Скачать фильм Джон Уик 2 через торрент в хорошем качестве бесплатно 720p

x264 [info]: frame I:1281 Avg QP:12.30 size:122579x264 [info]: frame P:42816 Avg QP:15.30 size: 41495x264 [info]: frame B:131944 Avg QP:16.72 size: 13272

GeneralUnique ID : 244175411926661619863777306013204014114 (0xB7B27947C34BD172911A6CD09AC8E422)Complete name : D:\download\John.Wick.Chapter.2.2017.BDRip 720р by schultz R.G.Resident.mkvFormat : MatroskaFormat version : Version 4 / Version 2File size : 4.31 GiBDuration : 2 h 2 minOverall bit rate : 5 041 kb/sEncoded date : UTC 2017-06-04 14:02:23Writing application : mkvmerge v8.9.0 ('Father Daughter') 64bitWriting library : libebml v1.3.3 + libmatroska v1.4.4

VideoID : 1Format : AVCFormat/Info : Advanced Video CodecFormat profile : [email protected] settings, CABAC : YesFormat settings, ReFrames : 11 framesCodec ID : V_MPEG4/ISO/AVCDuration : 2 h 2 minBit rate : 4 021 kb/sWidth : 1 280 pixelsHeight : 536 pixelsDisplay aspect ratio : 2.40:1Frame rate mode : ConstantFrame rate : 23.976 (23976/1000) FPSColor space : YUVChroma subsampling : 4:2:0Bit depth : 8 bitsScan type : ProgressiveBits/(Pixel*Frame) : 0.244Stream size : 3.43 GiB (80%)Writing library : x264 core 146 r2538 121396cEncoding settings : cabac=1 / ref=11 / deblock=1:-3:-3 / analyse=0x3:0x113 / me=umh / subme=11 / psy=1 / psy_rd=1.00:0.00 / mixed_ref=1 / me_range=48 / chroma_me=1 / trellis=2 / 8x8dct=1 / cqm=0 / deadzone=21,11 / fast_pskip=0 / chroma_qp_offset=-2 / threads=12 / lookahead_threads=3 / sliced_threads=0 / nr=0 / decimate=0 / interlaced=0 / bluray_compat=0 / constrained_intra=0 / bframes=10 / b_pyramid=2 / b_adapt=2 / b_bias=0 / direct=3 / weightb=1 / open_gop=0 / weightp=2 / keyint=240 / keyint_min=23 / scenecut=40 / intra_refresh=0 / rc_lookahead=40 / rc=2pass / mbtree=0 / bitrate=4021 / ratetol=1.0 / qcomp=0.60 / qpmin=0 / qpmax=69 / qpstep=4 / cplxblur=20.0 / qblur=0.5 / vbv_maxrate=50000 / vbv_bufsize=62500 / nal_hrd=none / filler=0 / ip_ratio=1.40 / pb_ratio=1.30 / aq=1:1.00Language : EnglishDefault : YesForced : No

Audio #1ID : 2Format : AC-3Format/Info : Audio Coding 3Mode extension : CM (complete main)Format settings, Endianness : BigCodec ID : A_AC3Duration : 2 h 2 minBit rate mode : ConstantBit rate : 384 kb/sChannel(s) : 6 channelsChannel positions : Front: L C R, Side: L R, LFESampling rate : 48.0 kHzFrame rate : 31.250 FPS (1536 spf)Compression mode : LossyStream size : 336 MiB (8%)Language : RussianDefault : YesForced : No

Audio #2ID : 3Format : AC-3Format/Info : Audio Coding 3Mode extension : CM (complete main)Format settings, Endianness : BigCodec ID : A_AC3Duration : 2 h 2 minBit rate mode : ConstantBit rate : 640 kb/sChannel(s) : 6 channelsChannel positions : Front: L C R, Side: L R, LFESampling rate : 48.0 kHzFrame rate : 31.250 FPS (1536 spf)Compression mode : LossyStream size : 560 MiB (13%)Language : EnglishDefault : NoForced : No

Text #1ID : 4Format : UTF-8Codec ID : S_TEXT/UTF8Codec ID/Info : UTF-8 Plain TextDuration : 1 h 53 minBit rate : 37 b/sCount of elements : 500Stream size : 30.9 KiB (0%)Title : fullLanguage : RussianDefault : NoForced : No

Text #2ID : 5Format : UTF-8Codec ID : S_TEXT/UTF8Codec ID/Info : UTF-8 Plain TextDuration : 1 h 49 minBit rate : 21 b/sCount of elements : 658Stream size : 17.2 KiB (0%)Title : fullLanguage : EnglishDefault : NoForced : No

Menu00:00:00.000 : en:00:00:00.00000:06:31.683 : en:00:06:31.68300:16:57.934 : en:00:16:57.93400:26:35.594 : en:00:26:35.59400:34:38.034 : en:00:34:38.03400:42:07.817 : en:00:42:07.81700:48:07.051 : en:00:48:07.05100:56:41.648 : en:00:56:41.64801:01:42.782 : en:01:01:42.78201:10:27.682 : en:01:10:27.68201:17:15.923 : en:01:17:15.92301:24:22.641 : en:01:24:22.64101:32:11.234 : en:01:32:11.23401:40:01.329 : en:01:40:01.32901:46:34.763 : en:01:46:34.76301:54:01.042 : en:01:54:01.042

piratbit.ru

Скачать фильм Джон Уик 2 через торрент в хорошем качестве бесплатно BDRip-AVC

GeneralUnique ID : 249016192403015179148940082907756528459 (0xBB56C62F427CB142ADA7B25196EE834B)Complete name : D:\download\John.Wick.Chapter.2.2017.BDRip-AVC by schultz R.G.Resident.mkvFormat : MatroskaFormat version : Version 4 / Version 2File size : 2.47 GiBDuration : 2 h 2 minOverall bit rate : 2 885 kb/sEncoded date : UTC 2017-06-03 23:37:15Writing application : mkvmerge v8.9.0 ('Father Daughter') 64bitWriting library : libebml v1.3.3 + libmatroska v1.4.4

VideoID : 1Format : AVCFormat/Info : Advanced Video CodecFormat profile : [email protected] settings, CABAC : YesFormat settings, ReFrames : 11 framesCodec ID : V_MPEG4/ISO/AVCDuration : 2 h 2 minBit rate : 2 066 kb/sWidth : 1 024 pixelsHeight : 426 pixelsDisplay aspect ratio : 2.40:1Frame rate mode : ConstantFrame rate : 23.976 (23976/1000) FPSColor space : YUVChroma subsampling : 4:2:0Bit depth : 8 bitsScan type : ProgressiveBits/(Pixel*Frame) : 0.198Stream size : 1.75 GiB (71%)Writing library : x264 core 146 r2538 121396cEncoding settings : cabac=1 / ref=11 / deblock=1:-3:-3 / analyse=0x3:0x113 / me=umh / subme=11 / psy=1 / psy_rd=1.00:0.00 / mixed_ref=1 / me_range=48 / chroma_me=1 / trellis=2 / 8x8dct=1 / cqm=0 / deadzone=21,11 / fast_pskip=0 / chroma_qp_offset=-2 / threads=12 / lookahead_threads=3 / sliced_threads=0 / nr=0 / decimate=0 / interlaced=0 / bluray_compat=0 / constrained_intra=0 / bframes=10 / b_pyramid=2 / b_adapt=2 / b_bias=0 / direct=3 / weightb=1 / open_gop=0 / weightp=2 / keyint=240 / keyint_min=23 / scenecut=40 / intra_refresh=0 / rc_lookahead=40 / rc=2pass / mbtree=0 / bitrate=2066 / ratetol=1.0 / qcomp=0.60 / qpmin=0 / qpmax=69 / qpstep=4 / cplxblur=20.0 / qblur=0.5 / vbv_maxrate=50000 / vbv_bufsize=62500 / nal_hrd=none / filler=0 / ip_ratio=1.40 / pb_ratio=1.30 / aq=1:1.00Language : EnglishDefault : YesForced : No

Audio #1ID : 2Format : AC-3Format/Info : Audio Coding 3Mode extension : CM (complete main)Format settings, Endianness : BigCodec ID : A_AC3Duration : 2 h 2 minBit rate mode : ConstantBit rate : 384 kb/sChannel(s) : 6 channelsChannel positions : Front: L C R, Side: L R, LFESampling rate : 48.0 kHzFrame rate : 31.250 FPS (1536 spf)Compression mode : LossyStream size : 336 MiB (13%)Language : RussianDefault : YesForced : No

Audio #2ID : 3Format : AC-3Format/Info : Audio Coding 3Mode extension : CM (complete main)Format settings, Endianness : BigCodec ID : A_AC3Duration : 2 h 2 minBit rate mode : ConstantBit rate : 448 kb/sChannel(s) : 6 channelsChannel positions : Front: L C R, Side: L R, LFESampling rate : 48.0 kHzFrame rate : 31.250 FPS (1536 spf)Compression mode : LossyStream size : 392 MiB (16%)Language : EnglishDefault : NoForced : No

Text #1ID : 4Format : UTF-8Codec ID : S_TEXT/UTF8Codec ID/Info : UTF-8 Plain TextDuration : 1 h 53 minBit rate : 37 b/sCount of elements : 501Stream size : 31.0 KiB (0%)Title : fullLanguage : RussianDefault : NoForced : No

Text #2ID : 5Format : UTF-8Codec ID : S_TEXT/UTF8Codec ID/Info : UTF-8 Plain TextDuration : 1 h 49 minBit rate : 21 b/sCount of elements : 658Stream size : 17.2 KiB (0%)Title : fullLanguage : EnglishDefault : NoForced : No

Menu00:00:00.000 : en:00:00:00.00000:06:31.683 : en:00:06:31.68300:16:57.934 : en:00:16:57.93400:26:35.594 : en:00:26:35.59400:34:38.034 : en:00:34:38.03400:42:07.817 : en:00:42:07.81700:48:07.051 : en:00:48:07.05100:56:41.648 : en:00:56:41.64801:01:42.782 : en:01:01:42.78201:10:27.682 : en:01:10:27.68201:17:15.923 : en:01:17:15.92301:24:22.641 : en:01:24:22.64101:32:11.234 : en:01:32:11.23401:40:01.329 : en:01:40:01.32901:46:34.763 : en:01:46:34.76301:54:01.042 : en:01:54:01.042

piratbit.ru

Скачать фильм Джон Уик 2 через торрент в хорошем качестве бесплатно TS

Раздают: 2 [ 0.4 KB/s ]
Размер: 2.05 GB | Добавлен: 7 мес. назад | Торрент скачан:509 раз
Реклама Дарим 3000 рублей за регистрацию, не упусти свой шанс получить шикарный бонус!!!

07-03-2017 10:02 Джон Уик 2 Скачать торрент  

Джон Уик 2 / John Wick: Chapter Two Год выхода: 2017Жанр: боевик, триллер, криминалСтрана: СШАПродолжительность: 01:58:51Перевод: Дубляж

Режиссер: Чад Стахелски

В ролях: Киану Ривз, Риккардо Скамарчио, Иэн МакШейн, Руби Роуз, Коммон, Клаудия Джерини, Лэнс Реддик, Лоренс Фишбёрн, Тобиаш Сигал, Джон Легуизамо

Описание: Когда бывший коллега Джона решает взять под свой контроль таинственную гильдию убийц, Уик вынужден выйти из отставки. Ведомый кровавой клятвой Джон отправляется в Рим, где ему придется сразиться с одними из самых опасных киллеров в мире.

ФайлКачество: TSФормат: AVIВидео: 720x304 (2.37:1), 29.970 fps, XviD build 50 ~2080 kbps avg, 0.32 bit/pixelЗвук: 48 kHz, AC3 Dolby Digital, 2/0 (L,R) ch, ~384 kbps

Скачать Джон Уик 2 через торрент http://i89.fastpic.ru/big/2017/0307/5f/ab0fc753de14199ecab07c917ed0685f.jpg Скачать фильм Джон Уик 2 через торрент бесплантно в хорошем качестве Описание: Когда бывший коллега Джона решает взять под свой контроль таинственную гильдию убийц, Уик вынужден выйти из отставки. Ведомый ... 2017-03-07 10:02 9.4 10 14

Loading...

Loading...

% Раздел Тема Автор DL S | L
Ultra HD (UHD: 2K, 4K, 8K) — видео сверхвысокой чёткости [ 79.37 GB ] Джон Уик 2 / John Wick: Chapter Two [2017 UHD BDRemux 2160] DUB+2xAVO bober100 Скачать
Фильмы (Blu-ray, BD-Remux, HDDVD) [ 44.24 GB ] Джон Уик 2 / John Wick: Chapter Two [2017 BD Remux 1080p] DUB+2xAVO+2xVO bober100 Скачать
Фильмы [HD 720p, 1080p] (Хороший звук DUB, MVO) [ 10.93 GB ] Джон Уик 2 / John Wick: Chapter Two [2017 BDRip 1080p] Dub + 2xAVO sheker187 Скачать
Фильмы без перевода [ 30.28 GB ] Джон Уик 2 / John Wick: Chapter Two [2017 BD Remux] [Оригинал-ENG] smaster Скачать
Фильмы 2017 [DVDrip, WEB-DLRip, HDrip] (DUB, MVO) [ 2.13 GB ] Джон Уик 2 / John Wick: Chapter Two [2017 BDRip] - Twi7ter Скачать
Фильмы 2017 [DVDrip, WEB-DLRip, HDrip] (DUB, MVO) [ 1.46 GB ] Джон Уик 2 / John Wick: Chapter Two [2017 BDRip] - Twi7ter Скачать
Фильмы 2017 [DVDrip, WEB-DLRip, HDrip] (DUB, MVO) [ 2.35 GB ] Джон Уик 2 / John Wick: Chapter Two [2017 HDRip-AVC] - - ExKinoRay Enigma2010 Скачать

Рекламный пират

09-03-2017 22:32 Джон Уик 2 Скачать торрент  

ИЗБРАжение нормо км плеерр резкость on! ЗВУК не очень. голос всё СЛЫшно полосы размазанные неприятно посреди экрана! рандомно весь фильм

Дорогой пользователь! Огромная просьба, поблагодарите релизера, оцените раздачу и оставьте свои комментарий, если Вы скачали Джон Уик 2 через торрент бесплатно! Внесите свою лепту в развитие PiratBit!

Комментировать посты могут только пользователи прошедшие не сложную регистрацию

Джон Уик 2 через торрент Скачать бесплатно Джон Уик 2 Джон Уик 2 скачать торрент Джон Уик 2 смотреть онлайн Cкачать фильм Джон Уик 2 бесплатно Джон Уик 2 скачать торрент в хорошем качестве Джон Уик 2 смотреть онлайн бесплатно в хорошем качестве

Вы можете начинать темыВы можете отвечать на сообщенияВы не можете редактировать свои сообщенияВы не можете удалять свои сообщенияВы не можете голосовать в опросахВы не можете прикреплять файлы к сообщениямВы можете скачивать файлы

piratbit.ru


Смотрите также