Дворецкий скачать торрент в хорошем качестве


Скачать фильм Дворецкий (2013) через торрент

gig-torrent.net

17 мая 2016 13:53 Дворецкий / The Butler (2013) BDRip-AVC от New-Team | P | лицензия .torrent   [Информация о файле (нажмите для просмотра)] Перевод: Профессиональный (многоголосый закадровый)Качество: BDRip-AVC /BDRemux 1080p + DVD9 R5 от "Lizard Cinema Trade"Формат: MKVВидео: 1024x554 (1.85:1), 23.976 fps, MPEG-4 AVC ~ 1919 kbps avg, 0.141 bit/pixelАудио 1: 48 kHz, Dolby AC3, 6 ch, 448 kbps,русскийАудио 2: 48 kHz, Dolby AC3, 6 ch, 448 kbps, английский (отдельным файлом)Видео: Идентификатор : 1 Формат : AVC Формат/Информация : Advanced Video Codec Профиль формата : [email protected] Параметр CABAC формата : Да Параметр ReFrames формата : 8 кадров Идентификатор кодека : V_MPEG4/ISO/AVC Продолжительность : 2 ч. 12 м. Битрейт : 1919 Кбит/сек Ширина : 1024 пикселя Высота : 554 пикселя Соотношение сторон : 1,85:1 Режим частоты кадров : Постоянный Частота кадров : 23,976 кадра/сек Цветовое пространство : YUV Субдискретизация насыщенности : 4:2:0 Битовая глубина : 8 бит Тип развёртки : Прогрессивная Бит/(Пиксели*Кадры) : 0.141 Размер потока : 1,73 Гбайт (79%) Библиотека кодирования : x264 core 138 r2356 a1d3d17 Настройки программы : cabac=1 / ref=8 / deblock=1:-3:-2 / analyse=0x3:0x113 / me=umh / subme=10 / psy=1 / psy_rd=1.00:0.05 / mixed_ref=1 / me_range=32 / chroma_me=1 / trellis=2 / 8x8dct=1 / cqm=0 / deadzone=21,11 / fast_pskip=0 / chroma_qp_offset=-3 / threads=9 / lookahead_threads=1 / sliced_threads=0 / nr=0 / decimate=0 / interlaced=0 / bluray_compat=0 / constrained_intra=0 / bframes=8 / b_pyramid=2 / b_adapt=2 / b_bias=0 / direct=3 / weightb=1 / open_gop=0 / weightp=2 / keyint=240 / keyint_min=24 / scenecut=40 / intra_refresh=0 / rc_lookahead=40 / rc=2pass / mbtree=1 / bitrate=1919 / ratetol=1.0 / qcomp=0.60 / qpmin=0 / qpmax=69 / qpstep=4 / cplxblur=20.0 / qblur=0.5 / ip_ratio=1.40 / aq=1:1.00 Язык : English Default : Да Forced : НетАудио: Идентификатор : 2 Формат : AC-3 Формат/Информация : Audio Coding 3 Расширение режима : CM (complete main) Параметр Endianness формата : Big Идентификатор кодека : A_AC3 Продолжительность : 2 ч. 12 м. Вид битрейта : Постоянный Битрейт : 448 Кбит/сек Каналы : 6 каналов Расположение каналов : Front: L C R, Side: L R, LFE Частота : 48,0 КГц Битовая глубина : 16 бит Метод сжатия : С потерями Размер потока : 423 Мбайт (19%) Язык : Russian Default : Да Forced : Нет 2,6 Gb 6 4
17 мая 2016 13:53 Дворецкий / The Butler (2013) Blu-Ray .torrent   [Информация о файле (нажмите для просмотра)] Перевод: Профессиональный (многоголосый, закадровый)Формат: m2tsКачество: Blu-RayВидео: MPEG-4 AVC Video 27776 kbps 1080p / 23,976 fps / 16:9 / High Profile 4.1Аудио: DTS-HD Master Audio English 3352 kbps 5.1 / 48 kHz / 3352 kbps / 24-bit (DTS Core: 5.1 / 48 kHz / 1509 kbps / 24-bit)Аудио 2: DTS-HD Master Audio Russian 3407 kbps 5.1 / 48 kHz / 3407 kbps / 24-bit (DTS Core: 5.1 / 48 kHz / 1509 kbps / 24-bit) (MVO -> BD RUS)Аудио 3: Dolby Digital Audio French 448 kbps 5.1 / 48 kHz / 448 kbps 45,51 Gb 3 3
17 мая 2016 13:53 Дворецкий / The Butler (2013) BDRip от HQCLUB | USA Transfer | Лицензия .torrent   [Информация о файле (нажмите для просмотра)] Перевод: Профессиональный (многоголосый, закадровый)Субтитры: русские, английские (обычные, SDH, SDH-Colored)Формат: AVIКачество: BDRip (источник:Видео: 704x384 (1.83:1), 23.976 fps, XviD build 65 ~1911 kbps avg, 0.29 bit/pixelАудио #1: 48 kHz, AC3 Dolby Digital, 3/2 (L,C,R,l,r) + LFE ch, ~448 kbps avg (RUS)Аудио #2: 48 kHz, AC3 Dolby Digital, 3/2 (L,C,R,l,r) + LFE ch, ~448 kbps avg (ENG)(отдельно) 2,18 Gb 3 3
17 мая 2016 13:53 Дворецкий / The Butler (2013) BDRip-AVC от Leo.pard | P .torrent   [Информация о файле (нажмите для просмотра)] Перевод: Профессиональный (многоголосый закадровый)Формат: MKVВидео: x264, 688x376 (1.85:1), 715 Kbps, 23.976 fpsАудио: AAC, 72 Kbps, 48 KHz, 2 channelsСубтитры: Русские, английские 744,67 Mb 7 1
17 мая 2016 13:53 Дворецкий / The Butler (2013) BDRip 720p от Leonardo and Scarabey | Лицензия .torrent   [Информация о файле (нажмите для просмотра)] Перевод: Профессиональный (многоголосый закадровый) ЛицензияФормат: MKVВидео кодек: MPEG-4 AVC Аудио кодек: AC3Видео: AVC, 1280x694 (1.85:1) at 23.976 fps, AVC at 5645 kbps avg, 0.260 bit/pixelАудио: 48 kHz, AC3 Dolby Digital, 3/2 (L,C,R,l,r) + LFE ch, 448.00 kbps - Russian; MVO, ЛицензияСубтитры: Русские, английские 5,62 Gb 11 2
17 мая 2016 13:53 Дворецкий / The Butler (2013) BDRip-AVC | iPad | P .torrent   [Информация о файле (нажмите для просмотра)] Перевод: Русский профессиональный многоголосый закадровый, авторский одноголосый закадровыйКодек: H.264Качество: BDRip [576p]Видео: 1024x554 (1.85:1) at 23.976 fps, AVC at 2400 kbpsЗвук: 1: АAС 2.0 129 kbps - Русский профессиональный многоголосый закадровыйСубтитры: отсутствуют 2,38 Gb 3 1
17 мая 2016 13:53 Дворецкий / The Butler (2013) HDRip от Scarabey | Лицензия .torrent   [Информация о файле (нажмите для просмотра)] Перевод: Профессиональный (многоголосый, закадровый) - ЛицензияВидео: 704x384 (1.83:1), 23.976 fps, XviD build 73 ~1904 kbps avg, 0.29 bit/pixelАудио: 48 kHz, AC3 Dolby Digital, 3/2 (L,C,R,l,r) + LFE ch, ~448 kbps 2,18 Gb 8 1
17 мая 2016 13:53 Дворецкий / The Butler (2013) HDRip от Scarabey | Лицензия .torrent   [Информация о файле (нажмите для просмотра)] Перевод: Профессиональный (многоголосый, закадровый) - ЛицензияВидео: 704x384 (1.83:1), 23.976 fps, XviD build 73 ~1367 kbps avg, 0.21 bit/pixelАудио: 48 kHz, AC3 Dolby Digital, 2/0 (L,R) ch, ~192 kbps 1,45 Gb 8 1
17 мая 2016 13:53 Дворецкий / The Butler (2013) HDRip от Scarabey | Лицензия .torrent   [Информация о файле (нажмите для просмотра)] Перевод: Профессиональный (многоголосый, закадровый) - ЛицензияВидео: 592x320 (1.85:1), 23.976 fps, XviD build 73 ~700 kbps avg, 0.15 bit/pixelАудио: 48 kHz, MPEG Layer 3, 2 ch, ~128.00 kbps avg 792,13 Mb 5 1
17 мая 2016 13:53 Дворецкий / The Butler (2013) BDRip-AVC от HELLYWOOD | Лицензия .torrent   [Информация о файле (нажмите для просмотра)] Перевод: Профессиональный (многоголосый, закадровый) [лицензия R5]Субтитры: Русские, английские (Full + SDH)Качество: BDRip-AVCФормат: MKVВидео: х.264, 1056x572 (1,85:1), 23,976 fps, 2324 Кbps, 0.160 bit/pixelАудио#1: 48 kHz, AC3 Dolby Digital, 3/2 (L,C,R,l,r) + LFE ch, 448.00 kbps |RUSАудио#2: 48 kHz, AC3 Dolby Digital, 3/2 (L,C,R,l,r) + LFE ch, 448.00 kbps |ENG 2,96 Gb 3 5
17 мая 2016 13:53 Дворецкий / The Butler (2013) BDRip 720p от New-Team | P, L2, L1 | лицензия .torrent   [Информация о файле (нажмите для просмотра)] Перевод: Профессиональный (многоголосый закадровый) + Любительский (двухголосый) + Любительский (одноголосый, VANO)Качество: BDRip 1080p /The.Butler.2013.720p.BluRay.x264.RUs.Eng.Subs-DON + DVD9 R5 от "Lizard Cinema Trade"Формат: MKVВидео: 1280x694 (1.85:1), 23.976 fps, MPEG-4 AVC, 7620 Кбит/сек, 0.358 bit/pixelАудио 1: 48 kHz, Dolby AC3, 6 ch, 448 kbps,русский - ПрофессиональныйАудио 2: 48 kHz, Dolby AC3, 6 ch, 448 kbps,русский - Любительский двухголосыйАудио 3: 48 kHz, Dolby AC3, 6 ch, 448 kbps,русский - Любительский одноголосый (VANO)Аудио 4: 48 kHz, DTS, 6 ch, 1536 Кбит/с, английскийВидео: Идентификатор : 1 Формат : AVC Формат/Информация : Advanced Video Codec Профиль формата : [email protected] Параметр CABAC формата : Да Параметр ReFrames формата : 9 кадров Идентификатор кодека : V_MPEG4/ISO/AVC Продолжительность : 2 ч. 12 м. Битрейт : 7620 Кбит/сек Ширина : 1280 пикселей Высота : 694 пикселя Соотношение сторон : 1,85:1 Режим частоты кадров : Постоянный Частота кадров : 23,976 кадра/сек Цветовое пространство : YUV Субдискретизация насыщенности : 4:2:0 Битовая глубина : 8 бит Тип развёртки : Прогрессивная Бит/(Пиксели*Кадры) : 0.358 Размер потока : 7,03 Гбайт (72%) Библиотека кодирования : x264 core 140 r2377+40 929f149 tMod [[email protected]:2:0 X86] Настройки программы : cabac=1 / ref=9 / deblock=1:-3:-3 / analyse=0x3:0x113 / me=tesa / subme=10 / psy=1 / fade_compensate=0.00 / psy_rd=1.10:0.00 / mixed_ref=1 / me_range=32 / chroma_me=1 / trellis=2 / 8x8dct=1 / cqm=0 / deadzone=21,11 / fast_pskip=0 / chroma_qp_offset=-2 / threads=12 / lookahead_threads=3 / sliced_threads=0 / nr=0 / decimate=0 / interlaced=0 / bluray_compat=0 / constrained_intra=0 / fgo=0 / bframes=12 / b_pyramid=2 / b_adapt=2 / b_bias=0 / direct=3 / weightb=1 / open_gop=0 / weightp=2 / keyint=250 / keyint_min=23 / scenecut=40 / intra_refresh=0 / rc=crf / mbtree=0 / crf=18.5000 / qcomp=0.70 / qpmin=0:0:0 / qpmax=69:69:69 / qpstep=4 / ip_ratio=1.30 / pb_ratio=1.00 / aq=4:0.70 / aq-sensitivity=10.00 / aq-factor=1.00:1.00:1.00 / aq2=0 / aq3=0 Язык : English Default : Да Forced : НетАудио #1: Идентификатор : 2 Формат : AC-3 Формат/Информация : Audio Coding 3 Расширение режима : CM (complete main) Параметр Endianness формата : Big Идентификатор кодека : A_AC3 Продолжительность : 2 ч. 12 м. Вид битрейта : Постоянный Битрейт : 448 Кбит/сек Каналы : 6 каналов Расположение каналов : Front: L C R, Side: L R, LFE Частота : 48,0 КГц Битовая глубина : 16 бит Метод сжатия : С потерями Размер потока : 423 Мбайт (4%) Заголовок : MVO 448 kbps Язык : Russian Default : Да Forced : НетАудио #2: Идентификатор : 3 Формат : AC-3 Формат/Информация : Audio Coding 3 Расширение режима : CM (complete main) Параметр Endianness формата : Big Идентификатор кодека : A_AC3 Продолжительность : 2 ч. 12 м. Вид битрейта : Постоянный Битрейт : 384 Кбит/сек Каналы : 6 каналов Расположение каналов : Front: L C R, Side: L R, LFE Частота : 48,0 КГц Битовая глубина : 16 бит Метод сжатия : С потерями Размер потока : 363 Мбайт (4%) Заголовок : DVO Язык : Russian Default : Нет Forced : НетАудио #3: Идентификатор : 4 Формат : AC-3 Формат/Информация : Audio Coding 3 Расширение режима : CM (complete main) Параметр Endianness формата : Big Идентификатор кодека : A_AC3 Продолжительность : 2 ч. 12 м. Вид битрейта : Постоянный Битрейт : 384 Кбит/сек Каналы : 6 каналов Расположение каналов : Front: L C R, Side: L R, LFE Частота : 48,0 КГц Битовая глубина : 16 бит Метод сжатия : С потерями Размер потока : 363 Мбайт (4%) Заголовок : VO (VANO) Язык : Russian Default : Нет Forced : НетАудио #4: Идентификатор : 5 Формат : DTS Формат/Информация : Digital Theater Systems Режим : 16 Параметр Endianness формата : Big Идентификатор кодека : A_DTS Продолжительность : 2 ч. 12 м. Вид битрейта : Постоянный Битрейт : 1509 Кбит/сек Каналы : 6 каналов Расположение каналов : Front: L C R, Side: L R, LFE Частота : 48,0 КГц Битовая глубина : 24 бит Метод сжатия : С потерями Размер потока : 1,39 Гбайт (14%) Язык : English Default : Нет Forced : Нет 9,74 Gb 5 3
17 мая 2016 13:53 Дворецкий / The Butler (2013) BDRip 1080p от New-Team | P, L2, L1 | лицензия .torrent   [Информация о файле (нажмите для просмотра)] Перевод: Профессиональный (многоголосый закадровый) + Любительский (двухголосый) + Любительский (одноголосый, VANO)Качество: BDRip 1080p /The.Butler.2013.BluRay.1080p.x264.Rus.Eng.Subs-HDWinG + DVD9 R5 от "Lizard Cinema Trade"Формат: MKVВидео: 1920x800 (2.40:1), 23.976 fps, MPEG-4 AVC, 14,9 Мбит/сек, 0.405 bit/pixelАудио 1: 48 kHz, Dolby AC3, 6 ch, 448 kbps,русский - ПрофессиональныйАудио 2: 48 kHz, Dolby AC3, 6 ch, 448 kbps,русский - Любительский двухголосыйАудио 3: 48 kHz, Dolby AC3, 6 ch, 448 kbps,русский - Любительский одноголосый (VANO)Аудио 4: 48 kHz, DTS, 6 ch, 1536 Кбит/с, английскийВидео: Идентификатор : 1 Формат : AVC Формат/Информация : Advanced Video Codec Профиль формата : [email protected] Параметр CABAC формата : Да Параметр ReFrames формата : 5 кадров Идентификатор кодека : V_MPEG4/ISO/AVC Продолжительность : 2 ч. 12 м. Битрейт : 14,9 Мбит/сек Ширина : 1920 пикселей Высота : 800 пикселей Соотношение сторон : 2,40:1 Режим частоты кадров : Постоянный Частота кадров : 23,976 кадра/сек Цветовое пространство : YUV Субдискретизация насыщенности : 4:2:0 Битовая глубина : 8 бит Тип развёртки : Прогрессивная Бит/(Пиксели*Кадры) : 0.405 Размер потока : 13,8 Гбайт (83%) Библиотека кодирования : x264 core 140 r2377+40 929f149 tMod [[email protected]:2:0 X86_64] Настройки программы : cabac=1 / ref=5 / deblock=1:-3:-3 / analyse=0x3:0x113 / me=umh / subme=11 / psy=1 / fade_compensate=0.00 / psy_rd=1.15:0.00 / mixed_ref=1 / me_range=32 / chroma_me=1 / trellis=2 / 8x8dct=1 / cqm=0 / deadzone=21,11 / fast_pskip=0 / chroma_qp_offset=-2 / threads=18 / lookahead_threads=3 / sliced_threads=0 / nr=0 / decimate=0 / interlaced=0 / bluray_compat=0 / constrained_intra=0 / fgo=0 / bframes=8 / b_pyramid=2 / b_adapt=2 / b_bias=0 / direct=3 / weightb=1 / open_gop=0 / weightp=2 / keyint=240 / keyint_min=24 / scenecut=40 / intra_refresh=0 / rc=crf / mbtree=0 / crf=18.0000 / qcomp=0.70 / qpmin=0:0:0 / qpmax=69:69:69 / qpstep=4 / ip_ratio=1.15 / pb_ratio=1.15 / aq=4:0.70 / aq-sensitivity=10.00 / aq-factor=1.00:1.00:1.00 / aq2=0 / aq3=0 Язык : English Default : Да Forced : НетАудио #1: Идентификатор : 2 Формат : AC-3 Формат/Информация : Audio Coding 3 Расширение режима : CM (complete main) Параметр Endianness формата : Big Идентификатор кодека : A_AC3 Продолжительность : 2 ч. 12 м. Вид битрейта : Постоянный Битрейт : 448 Кбит/сек Каналы : 6 каналов Расположение каналов : Front: L C R, Side: L R, LFE Частота : 48,0 КГц Битовая глубина : 16 бит Метод сжатия : С потерями Размер потока : 423 Мбайт (2%) Заголовок : MVO 448 kbps Язык : Russian Default : Да Forced : НетАудио #2: Идентификатор : 3 Формат : AC-3 Формат/Информация : Audio Coding 3 Расширение режима : CM (complete main) Параметр Endianness формата : Big Идентификатор кодека : A_AC3 Продолжительность : 2 ч. 12 м. Вид битрейта : Постоянный Битрейт : 384 Кбит/сек Каналы : 6 каналов Расположение каналов : Front: L C R, Side: L R, LFE Частота : 48,0 КГц Битовая глубина : 16 бит Метод сжатия : С потерями Размер потока : 363 Мбайт (2%) Заголовок : DVO Язык : Russian Default : Нет Forced : НетАудио #3: Идентификатор : 4 Формат : AC-3 Формат/Информация : Audio Coding 3 Расширение режима : CM (complete main) Параметр Endianness формата : Big Идентификатор кодека : A_AC3 Продолжительность : 2 ч. 12 м. Вид битрейта : Постоянный Битрейт : 384 Кбит/сек Каналы : 6 каналов Расположение каналов : Front: L C R, Side: L R, LFE Частота : 48,0 КГц Битовая глубина : 16 бит Метод сжатия : С потерями Размер потока : 363 Мбайт (2%) Заголовок : VO (VANO) Язык : Russian Default : Нет Forced : НетАудио #4: Идентификатор : 5 Формат : DTS Формат/Информация : Digital Theater Systems Режим : 16 Параметр Endianness формата : Big Идентификатор кодека : A_DTS Продолжительность : 2 ч. 12 м. Вид битрейта : Постоянный Битрейт : 1509 Кбит/сек Каналы : 6 каналов Расположение каналов : Front: L C R, Side: L R, LFE Частота : 48,0 КГц Битовая глубина : 24 бит Метод сжатия : С потерями Размер потока : 1,39 Гбайт (8%) Язык : English Default : Нет Forced : Нет 16,62 Gb 4 1
17 мая 2016 13:53 Дворецкий / The Butler (2013) BDRemux 1080p от New-Team | P, L2, L1 | лицензия .torrent   [Информация о файле (нажмите для просмотра)] Перевод: Профессиональный (многоголосый закадровый) + Любительский (двухголосый) + Любительский (одноголосый, VANO)Качество: BDRemux 1080p /Dvoreckiy.2013.BD-Remux.1080p + DVD9 R5 от "Lizard Cinema Trade"Формат: MKVВидео: 1920x1080 (16:9), 23.976 fps, MPEG-4 AVC, 27776 Кбит/cАудио 1: 48 kHz, Dolby AC3, 6 ch, 448 kbps,русский - ПрофессиональныйАудио 2: 48 kHz, Dolby AC3, 6 ch, 448 kbps,русский - Любительский двухголосыйАудио 3: 48 kHz, Dolby AC3, 6 ch, 448 kbps,русский - Любительский одноголосый (VANO)Аудио 4: 48 kHz, DTS-HD MA, 6 ch, 3352 Кбит/с, английскийВидео: Идентификатор : 1 Формат : AVC Формат/Информация : Advanced Video Codec Профиль формата : [email protected] Параметр CABAC формата : Да Параметр ReFrames формата : 2 кадра Идентификатор кодека : V_MPEG4/ISO/AVC Продолжительность : 2 ч. 12 м. Вид битрейта : Переменный Ширина : 1920 пикселей Высота : 1080 пикселей Соотношение сторон : 16:9 Режим частоты кадров : Постоянный Частота кадров : 23,976 кадра/сек Цветовое пространство : YUV Субдискретизация насыщенности : 4:2:0 Битовая глубина : 8 бит Тип развёртки : Прогрессивная Язык : English Default : Да Forced : НетАудио #1: Идентификатор : 2 Формат : AC-3 Формат/Информация : Audio Coding 3 Расширение режима : CM (complete main) Параметр Endianness формата : Big Идентификатор кодека : A_AC3 Продолжительность : 2 ч. 12 м. Вид битрейта : Постоянный Битрейт : 448 Кбит/сек Каналы : 6 каналов Расположение каналов : Front: L C R, Side: L R, LFE Частота : 48,0 КГц Битовая глубина : 16 бит Метод сжатия : С потерями Размер потока : 423 Мбайт (1%) Заголовок : MVO 448 kbps Язык : Russian Default : Да Forced : НетАудио #2: Идентификатор : 3 Формат : AC-3 Формат/Информация : Audio Coding 3 Расширение режима : CM (complete main) Параметр Endianness формата : Big Идентификатор кодека : A_AC3 Продолжительность : 2 ч. 12 м. Вид битрейта : Постоянный Битрейт : 384 Кбит/сек Каналы : 6 каналов Расположение каналов : Front: L C R, Side: L R, LFE Частота : 48,0 КГц Битовая глубина : 16 бит Метод сжатия : С потерями Размер потока : 363 Мбайт (1%) Заголовок : DVO Язык : Russian Default : Нет Forced : НетАудио #3: Идентификатор : 4 Формат : AC-3 Формат/Информация : Audio Coding 3 Расширение режима : CM (complete main) Параметр Endianness формата : Big Идентификатор кодека : A_AC3 Продолжительность : 2 ч. 12 м. Вид битрейта : Постоянный Битрейт : 384 Кбит/сек Каналы : 6 каналов Расположение каналов : Front: L C R, Side: L R, LFE Частота : 48,0 КГц Битовая глубина : 16 бит Метод сжатия : С потерями Размер потока : 363 Мбайт (1%) Заголовок : VO (VANO) Язык : Russian Default : Нет Forced : НетАудио #4: Идентификатор : 5 Формат : DTS Формат/Информация : Digital Theater Systems Профиль формата : MA / Core Режим : 16 Параметр Endianness формата : Big Идентификатор кодека : A_DTS Продолжительность : 2 ч. 12 м. Вид битрейта : Переменный Битрейт : Неизвестно / 1509 Кбит/сек Каналы : 6 каналов Расположение каналов : Front: L C R, Side: L R, LFE Частота : 48,0 КГц Битовая глубина : 24 бит Метод сжатия : Без потерь / Lossy Заголовок : Original Язык : English Default : Нет Forced : Нет 29,85 Gb 1 2
17 мая 2016 13:53 Дворецкий / The Butler (2013) BDRip от New-Team | P | лицензия .torrent   [Информация о файле (нажмите для просмотра)] Перевод: Профессиональный (многоголосый закадровый)Качество: BDRip /BDRemux 1080p + DVD9 R5 от "Lizard Cinema Trade"Формат: AVIВидео: 720x384 (1.85:1), 23.976 fps, XViD ~ 1913 kbps avg, 0.289 bit/pixelАудио 1: 48 kHz, Dolby AC3, 6 ch, 448 kbps,русскийАудио 2: 48 kHz, Dolby AC3, 6 ch, 448 kbps, английский (отдельным файлом)Видео: Идентификатор : 0 Формат : MPEG-4 Visual Профиль формата : Advanced [email protected] Параметр BVOP формата : 1 Параметр QPel формата : Нет Параметр GMC формата : Без точки перехода Параметр матрицы формата : Выборочная Идентификатор кодека : XVID Идентификатор кодека/Подсказка : XviD Продолжительность : 2 ч. 12 м. Битрейт : 1913 Кбит/сек Ширина : 720 пикселей Высота : 384 пикселя Соотношение сторон : 1,85:1 Частота кадров : 23,976 кадра/сек Цветовое пространство : YUV Субдискретизация насыщенности : 4:2:0 Битовая глубина : 8 бит Тип развёртки : Прогрессивная Метод сжатия : С потерями Бит/(Пиксели*Кадры) : 0.289 Размер потока : 1,77 Гбайт (81%) Библиотека кодирования : XviD 73Аудио: Идентификатор : 1 Формат : AC-3 Формат/Информация : Audio Coding 3 Расширение режима : CM (complete main) Параметр Endianness формата : Big Идентификатор кодека : 2000 Продолжительность : 2 ч. 12 м. Вид битрейта : Постоянный Битрейт : 448 Кбит/сек Каналы : 6 каналов Расположение каналов : Front: L C R, Side: L R, LFE Частота : 48,0 КГц Битовая глубина : 16 бит Метод сжатия : С потерями Размер потока : 423 Мбайт (19%) Выравнивание : Разделение по промежуткам Продолжительность промежутка : 42 мс. (1,00 видеокадр) Время предзагрузки промежутка : 500 мс. 2,6 Gb 4 2
17 мая 2016 13:53 Дворецкий / The Butler (2013) BDRip от New-Team | P | лицензия .torrent   [Информация о файле (нажмите для просмотра)] Перевод: Профессиональный (многоголосый закадровый)Качество: BDRip /BDRemux 1080p + DVD9 R5 от "Lizard Cinema Trade"Формат: AVIВидео: 720x384 (1.85:1), 23.976 fps, XViD ~ 1442 kbps avg, 0.217 bit/pixelАудио: 48 kHz, MP3, 2 ch, 128 kbps,русскийВидео: Идентификатор : 0 Формат : MPEG-4 Visual Профиль формата : Advanced [email protected] Параметр BVOP формата : 1 Параметр QPel формата : Нет Параметр GMC формата : Без точки перехода Параметр матрицы формата : Выборочная Идентификатор кодека : XVID Идентификатор кодека/Подсказка : XviD Продолжительность : 2 ч. 12 м. Битрейт : 1442 Кбит/сек Ширина : 720 пикселей Высота : 384 пикселя Соотношение сторон : 1,85:1 Частота кадров : 23,976 кадра/сек Цветовое пространство : YUV Субдискретизация насыщенности : 4:2:0 Битовая глубина : 8 бит Тип развёртки : Прогрессивная Метод сжатия : С потерями Бит/(Пиксели*Кадры) : 0.217 Размер потока : 1,33 Гбайт (91%) Библиотека кодирования : XviD 73Аудио: Идентификатор : 1 Формат : MPEG Audio Версия формата : Version 1 Профиль формата : Layer 3 Режим : Joint stereo Расширение режима : MS Stereo Идентификатор кодека : 55 Идентификатор кодека/Подсказка : MP3 Продолжительность : 2 ч. 12 м. Вид битрейта : Постоянный Битрейт : 128 Кбит/сек Каналы : 2 канала Частота : 48,0 КГц Метод сжатия : С потерями Размер потока : 121 Мбайт (8%) Выравнивание : Соединение по промежуткам Продолжительность промежутка : 42 мс. (1,00 видеокадр) Время предзагрузки промежутка : 504 мс. 1,46 Gb 9 3

Скачать торрент Дворецкий / The Butler (2013) BDRip-AVC от New-Team | P

«One quiet voice can ignite a revolution»

Страна: США / AI-Film, Follow Through Productions, Laura Ziskin Productions, Lee Daniels Entertainment, Pam Williams Productions, Salamander Pictures, Windy Hill Pictures

Жанр: драма, биографияГод выпуска: 2013Продолжительность: 02:12:06

Перевод: Профессиональный (многоголосый закадровый)Cубтитры: русские, английскиеОригинальная аудиодорожка: английский (отдельным файлом)

Режиссер: Джеймс Грэй / James Gray

В ролях: Форест Уитакер, Опра Уинфри, Кьюба Гудинг мл., Дэвид Ойелоуо, Терренс Ховард, Робин Уильямс, Лив Шрайбер, Алан Рикман, Джон Кьюсак, Дэвид Баннер...

Описание: В фильме, основанном на статье из Washington Post, рассказывается о дворецком Юджине Аллене, служившем в Белом Доме под началом восьми разных президентов.

Качество: BDRip-AVC / BDRemux 1080p + DVD9 R5 от "Lizard Cinema Trade"Формат: MKV

Видео: 1024x554 (1.85:1), 23.976 fps, MPEG-4 AVC ~ 1919 kbps avg, 0.141 bit/pixelАудио 1: 48 kHz, Dolby AC3, 6 ch, 448 kbps, русскийАудио 2: 48 kHz, Dolby AC3, 6 ch, 448 kbps, английский (отдельным файлом)Формат субтитров: SoftSub (srt), субтитры с лицензионного DVD9 R5 от "Lizard Cinema Trade"

Раздача от:

MediaInfo

Общее Полное имя : Dvoretskiy.2013.P.BDRip-AVC_[New-Team]_by_avproh.mkv Формат : Matroska Версия формата : Version 4 / Version 2 Размер файла : 2,18 Гбайт Продолжительность : 2 ч. 12 м. Общий поток : 2366 Кбит/сек Дата кодирования : UTC 2014-05-23 12:26:40 Программа кодирования : mkvmerge v6.9.1 ('Blue Panther') 64bit built on Apr 18 2014 18:23:38 Библиотека кодирования : libebml v1.3.0 + libmatroska v1.4.1

Видео Идентификатор : 1 Формат : AVC Формат/Информация : Advanced Video Codec Профиль формата : [email protected] Параметр CABAC формата : Да Параметр ReFrames формата : 8 кадров Идентификатор кодека : V_MPEG4/ISO/AVC Продолжительность : 2 ч. 12 м. Битрейт : 1919 Кбит/сек Ширина : 1024 пикселя Высота : 554 пикселя Соотношение сторон : 1,85:1 Режим частоты кадров : Постоянный Частота кадров : 23,976 кадра/сек Цветовое пространство : YUV Субдискретизация насыщенности : 4:2:0 Битовая глубина : 8 бит Тип развёртки : Прогрессивная Бит/(Пиксели*Кадры) : 0.141 Размер потока : 1,73 Гбайт (79%) Библиотека кодирования : x264 core 138 r2356 a1d3d17 Настройки программы : cabac=1 / ref=8 / deblock=1:-3:-2 / analyse=0x3:0x113 / me=umh / subme=10 / psy=1 / psy_rd=1.00:0.05 / mixed_ref=1 / me_range=32 / chroma_me=1 / trellis=2 / 8x8dct=1 / cqm=0 / deadzone=21,11 / fast_pskip=0 / chroma_qp_offset=-3 / threads=9 / lookahead_threads=1 / sliced_threads=0 / nr=0 / decimate=0 / interlaced=0 / bluray_compat=0 / constrained_intra=0 / bframes=8 / b_pyramid=2 / b_adapt=2 / b_bias=0 / direct=3 / weightb=1 / open_gop=0 / weightp=2 / keyint=240 / keyint_min=24 / scenecut=40 / intra_refresh=0 / rc_lookahead=40 / rc=2pass / mbtree=1 / bitrate=1919 / ratetol=1.0 / qcomp=0.60 / qpmin=0 / qpmax=69 / qpstep=4 / cplxblur=20.0 / qblur=0.5 / ip_ratio=1.40 / aq=1:1.00 Язык : English Default : Да Forced : Нет

Аудио Идентификатор : 2 Формат : AC-3 Формат/Информация : Audio Coding 3 Расширение режима : CM (complete main) Параметр Endianness формата : Big Идентификатор кодека : A_AC3 Продолжительность : 2 ч. 12 м. Вид битрейта : Постоянный Битрейт : 448 Кбит/сек Каналы : 6 каналов Расположение каналов : Front: L C R, Side: L R, LFE Частота : 48,0 КГц Битовая глубина : 16 бит Метод сжатия : С потерями Размер потока : 423 Мбайт (19%) Язык : Russian Default : Да Forced : Нет

Текст #1 Идентификатор : 3 Формат : UTF-8 Идентификатор кодека : S_TEXT/UTF8 Идентификатор кодека/Информация : UTF-8 Plain Text Язык : Russian Default : Нет Forced : Нет

Текст #2 Идентификатор : 4 Формат : UTF-8 Идентификатор кодека : S_TEXT/UTF8 Идентификатор кодека/Информация : UTF-8 Plain Text Язык : English Default : Нет Forced : Нет

krutor.org

Скачать фильм Дворецкий через торрент в хорошем качестве бесплатно BDRip-AVC

ОбщееУникальный идентификатор : 239664413137366367554216054585514613782 (0xB44DAFDE59509AE9B36A251031795C16)Полное имя : Dvoreckiy.2013.DUAL.BDRip.x264.-HELLYWOOD.mkvФормат : MatroskaВерсия формата : Version 4 / Version 2Размер файла : 2,96 ГбайтПродолжительность : 2 ч. 12 м.Общий поток : 3205 Кбит/секНазвание фильма : HELLYWOOD - rip by potroksДата кодирования : UTC 2014-05-23 13:01:27Программа кодирования : mkvmerge v5.9.0 ('On The Loose') built on Dec 15 2012 16:39:58Библиотека кодирования : libebml v1.3.0 + libmatroska v1.4.0

ВидеоИдентификатор : 1Формат : AVCФормат/Информация : Advanced Video CodecПрофиль формата : [email protected]Параметр CABAC формата : ДаПараметр ReFrames формата : 12 кадровИдентификатор кодека : V_MPEG4/ISO/AVCПродолжительность : 2 ч. 12 м.Битрейт : 2324 Кбит/секШирина : 1056 пикселейВысота : 572 пикселяСоотношение сторон : 1,85:1Режим частоты кадров : ПостоянныйЧастота кадров : 23,976 кадра/секЦветовое пространство : YUVСубдискретизация насыщенности : 4:2:0Битовая глубина : 8 битТип развёртки : ПрогрессивнаяБит/(Пиксели*Кадры) : 0.160Размер потока : 2,07 Гбайт (70%)Заголовок : The ButlerБиблиотека кодирования : x264 core 130 r2273 b3065e6Настройки программы : cabac=1 / ref=12 / deblock=1:-3:-2 / analyse=0x3:0x133 / me=umh / subme=11 / psy=1 / psy_rd=1.03:0.00 / mixed_ref=1 / me_range=32 / chroma_me=1 / trellis=2 / 8x8dct=1 / cqm=0 / deadzone=21,11 / fast_pskip=0 / chroma_qp_offset=-2 / threads=9 / lookahead_threads=8 / sliced_threads=0 / nr=0 / decimate=0 / interlaced=0 / bluray_compat=0 / constrained_intra=0 / bframes=12 / b_pyramid=2 / b_adapt=2 / b_bias=0 / direct=3 / weightb=1 / open_gop=0 / weightp=2 / keyint=250 / keyint_min=23 / scenecut=40 / intra_refresh=0 / rc_lookahead=60 / rc=2pass / mbtree=0 / bitrate=2324 / ratetol=1.0 / qcomp=0.70 / qpmin=0 / qpmax=69 / qpstep=4 / cplxblur=20.0 / qblur=0.5 / vbv_maxrate=20000 / vbv_bufsize=25000 / nal_hrd=none / ip_ratio=1.35 / pb_ratio=1.25 / aq=1:0.70Язык : EnglishDefault : ДаForced : Нет

Аудио #1Идентификатор : 2Формат : AC-3Формат/Информация : Audio Coding 3Расширение режима : CM (complete main)Параметр Endianness формата : BigИдентификатор кодека : A_AC3Продолжительность : 2 ч. 12 м.Вид битрейта : ПостоянныйБитрейт : 448 Кбит/секКаналы : 6 каналовРасположение каналов : Front: L C R, Side: L R, LFEЧастота : 48,0 КГцБитовая глубина : 16 битМетод сжатия : С потерямиРазмер потока : 423 Мбайт (14%)Заголовок : MVO | DD 5.1 @ 448 kbps - R5Язык : RussianDefault : ДаForced : Нет

Аудио #2Идентификатор : 3Формат : AC-3Формат/Информация : Audio Coding 3Расширение режима : CM (complete main)Параметр Endianness формата : BigИдентификатор кодека : A_AC3Продолжительность : 2 ч. 12 м.Вид битрейта : ПостоянныйБитрейт : 448 Кбит/секКаналы : 6 каналовРасположение каналов : Front: L C R, Side: L R, LFEЧастота : 48,0 КГцБитовая глубина : 16 битМетод сжатия : С потерямиРазмер потока : 423 Мбайт (14%)Заголовок : Original | DD 5.1 @ 448 kbpsЯзык : EnglishDefault : НетForced : Нет

Текст #1Идентификатор : 4Формат : UTF-8Идентификатор кодека : S_TEXT/UTF8Идентификатор кодека/Информация : UTF-8 Plain TextЯзык : RussianDefault : НетForced : Нет

Текст #2Идентификатор : 5Формат : UTF-8Идентификатор кодека : S_TEXT/UTF8Идентификатор кодека/Информация : UTF-8 Plain TextЗаголовок : FullЯзык : EnglishDefault : НетForced : Нет

Текст #3Идентификатор : 6Формат : UTF-8Идентификатор кодека : S_TEXT/UTF8Идентификатор кодека/Информация : UTF-8 Plain TextЗаголовок : SDH-ColoredЯзык : EnglishDefault : НетForced : Нет

Меню00:00:00.000 : en:(01)00:00:00:00000:07:27.071 : en:(02)00:07:27:07100:13:51.497 : en:(03)00:13:51:49700:22:26.678 : en:(04)00:22:26:67800:28:57.736 : en:(05)00:28:57:73600:36:38.529 : en:(06)00:36:38:52900:45:13.293 : en:(07)00:45:13:29300:51:56.196 : en:(08)00:51:56:19600:59:22.475 : en:(09)00:59:22:47501:07:08.399 : en:(10)01:07:08:39901:15:09.379 : en:(11)01:15:09:37901:20:14.100 : en:(12)01:20:14:10001:27:25.865 : en:(13)01:27:25:86501:35:12.707 : en:(14)01:35:12:70701:42:12.292 : en:(15)01:42:12:29201:49:09.251 : en:(16)01:49:09:25101:56:22.141 : en:(17)01:56:22:14102:04:42.057 : en:(18)02:04:42:05702:12:05.709 : en:(19)02:12:05:709

piratbit.ru

(1 ) HDTVRip

Fonts (5 )

AcademyCTT.TTF (67.74 kB) Arbat.ttf (141.99 kB) Matilda.ttf (82.92 kB) Victorian Gothic One.ttf (161.38 kB) ds_UnFunH.ttf (212.43 kB)

rus_subtitles_[Kitsune&Stan WarHammer&Sashamoon] (10 )

Kuroshitsuji_15_[Anything-group].ass (33.92 kB) Kuroshitsuji_16_[Anything-group].ass (45.14 kB) Kuroshitsuji_17_[Anything-group].ass (37.51 kB) Kuroshitsuji_18_[Anything-group].ass (29.03 kB) Kuroshitsuji_19_[Anything-group].ass (34.85 kB) Kuroshitsuji_20_[Anything-group].ass (34.54 kB) Kuroshitsuji_21_[Anything-group].ass (28.02 kB) Kuroshitsuji_22_[Anything-group].ass (29.99 kB) Kuroshitsuji_23_[Anything-group].ass (28.33 kB) Kuroshitsuji_24_[Anything-group].ass (28.47 kB)

rus_subtitles_[] (14 )

Kuroshitsuji_01_[Anything-group].ass (42.62 kB) Kuroshitsuji_02_[Anything-group].ass (44.75 kB) Kuroshitsuji_03_[Anything-group].ass (43.16 kB) Kuroshitsuji_04_[Anything-group].ass (47.41 kB) Kuroshitsuji_05_[Anything-group].ass (43.80 kB) Kuroshitsuji_06_[Anything-group].ass (43.09 kB) Kuroshitsuji_07_[Anything-group].ass (42.74 kB) Kuroshitsuji_08_[Anything-group].ass (35.34 kB) Kuroshitsuji_09_[Anything-group].ass (36.91 kB) Kuroshitsuji_10_[Anything-group].ass (46.45 kB) Kuroshitsuji_11_[Anything-group].ass (35.13 kB) Kuroshitsuji_12_[Anything-group].ass (34.83 kB) Kuroshitsuji_13_[Anything-group].ass (46.78 kB) Kuroshitsuji_14_[Anything-group].ass (43.83 kB) Kuroshitsuji_01_[Anything-group].mkv (226.70 MB) Kuroshitsuji_02_[Anything-group].mkv (226.82 MB) Kuroshitsuji_03_[Anything-group].mkv (226.73 MB) Kuroshitsuji_04_[Anything-group].mkv (226.44 MB) Kuroshitsuji_05_[Anything-group].mkv (226.33 MB) Kuroshitsuji_06_[Anything-group].mkv (226.41 MB) Kuroshitsuji_07_[Anything-group].mkv (226.39 MB) Kuroshitsuji_08_[Anything-group].mkv (226.36 MB) Kuroshitsuji_09_[Anything-group].mkv (231.16 MB) Kuroshitsuji_10_[Anything-group].mkv (231.18 MB) Kuroshitsuji_11_[Anything-group].mkv (231.16 MB) Kuroshitsuji_12_[Anything-group].mkv (231.19 MB) Kuroshitsuji_13_[Anything-group].mkv (231.16 MB) Kuroshitsuji_14_[Anything-group].mkv (231.12 MB) Kuroshitsuji_15_[Anything-group].mkv (230.13 MB) Kuroshitsuji_16_[Anything-group].mkv (231.53 MB) Kuroshitsuji_17_[Anything-group].mkv (240.89 MB) Kuroshitsuji_18_[Anything-group].mkv (227.66 MB) Kuroshitsuji_19_[Anything-group].mkv (240.91 MB) Kuroshitsuji_20_[Anything-group].mkv (240.90 MB) Kuroshitsuji_21_[Anything-group].mkv (227.05 MB) Kuroshitsuji_22_[Anything-group].mkv (227.22 MB) Kuroshitsuji_23_[Anything-group].mkv (227.77 MB) Kuroshitsuji_24_[Anything-group].mkv (229.59 MB)

gighub.net


Смотрите также