Доктор стрэндж скачать торрент в хорошем качестве hd 1080 торрент


Доктор Стрэндж (2016) HD 1080p скачать торрент в хорошем качестве

Страна: СШАЖанр: фантастика, фэнтези, боевик, приключения

Перевод: Профессиональный (полное дублирование) [Blu-ray EUR]Cубтитры: русские (форсированные, полные x2), английские (полные, SDH, SDH цветные)Оригинальная аудиодорожка: английский

В ролях: Бенедикт Камбербэтч, Тильда Суинтон, Мадс Миккельсен, Чиветель Эджиофор, Рэйчел МакАдамс, Бенедикт Вонг, Майкл Стулбарг, Бенджамин Брэтт, Скотт Эдкинс, Зара Питиан, Алаа Умузун, Катрина Дерден

Описание:Американский врач-нейрохирург Стивен Стрэндж знаменит и счастлив. Но все меняется после неудачного полета. В результате крушения самолета врачу удалось выжить, но вот жить прежней жизнью и заниматься любимым делом он больше не может.Но экс-нейрохирург не намерен сдаваться и ищет способы исправить ошибку судьбы и стать прежним. Для этого он отправляется в кругосветное путешествие. Знакомство со Старейшиной открывает перед Стивеном новую жизнь. Старейшина помогает бывшему врачу смириться со своим состоянием и учит его магическим премудростям. Жуткая катастрофа изменила главного героя не только внешне, но и внутренне - у него появилась суперсила, для развития которой нужно использовать древние артефакты.Также наставником Стрэнджа становится Карл Мордо. Но не обойдется в фильме и без "темных сил" - их олицетворяет Каэцилиус. Его мечты - поработить всех обычных, не владеющих магией, людей.

Качество видео: BDRip-AVC [Doctor Strange (2016) Blu-ray EUR 1080p AVC DD5.1 HDCLUB]Формат видео: MKVВидео кодек: AVCАудио кодек: AC3Видео: 1850 Кбит/сек, 1094*458 (2,40:1), в 23,976 (24000/1001) кадра/сек, AVCАудио #1: русский, 448 Кбит/сек, 48 КГц, 16 бит, 5.1, AC3Аудио #2: английский, 448 Кбит/сек, 48 КГц, 16 бит, 5.1, AC3Навигация по главам: есть

x264 [info]: frame I:884 Avg QP:14.17 size: 52663x264 [info]: frame P:22907 Avg QP:15.80 size: 20274x264 [info]: frame B:83064 Avg QP:18.79 size: 5705

ОбщееУникальный идентификатор : 218598749131013774854930399568488126095 (0xA4749671EA2D99B58FAC8B9F0741568F)Полное имя : M:!!!!!!!!!!!!!!!!!!!Doctor Strange (2016)Doctor.Strange.2016.BDRip-AVC.RUS.ENG.stalkerok.new-team.mkvФормат : MatroskaВерсия формата : Version 4 / Version 2Размер файла : 2,21 ГбайтПродолжительность : 1 ч. 54 м.Общий поток : 2749 Кбит/секНазвание фильма : Doctor Strange (2016) (Rip by stalkerok)Дата кодирования : UTC 2017-03-03 10:47:18Программа кодирования : mkvmerge v8.6.1 ('Flying') 64bitБиблиотека кодирования : libebml v1.3.3 + libmatroska v1.4.4

ВидеоИдентификатор : 1Формат : AVCФормат/Информация : Advanced Video CodecПрофиль формата : [email protected]Параметр CABAC формата : ДаПараметр ReFrames формата : 13 кадровИдентификатор кодека : V_MPEG4/ISO/AVCПродолжительность : 1 ч. 54 м.Битрейт : 1850 Кбит/секШирина : 1094 пикселяВысота : 458 пикселейСоотношение сторон : 2,40:1Режим частоты кадров : ПостоянныйЧастота кадров : 23,976 (24000/1001) кадра/секЦветовое пространство : YUVСубдискретизация насыщенности : 4:2:0Битовая глубина : 8 битТип развёртки : ПрогрессивнаяБит/(Пиксели*Кадры) : 0.154Размер потока : 1,49 Гбайт (67%)Заголовок : Doctor Strange (2016) (Rip by stalkerok)Библиотека кодирования : x264 core 148 r2705+54 9f484c1 t_mod_Custom [[email protected] X86_64]Настройки программы : cabac=1 / ref=13 / deblock=1:-3:-2 / analyse=0x3:0x133 / me=umh / subme=10 / psy=1 / fade_compensate=0.00 / psy_rd=1.00:0.00 / mixed_ref=1 / me_range=32 / chroma_me=1 / trellis=2 / 8x8dct=1 / cqm=0 / deadzone=21,11 / fast_pskip=0 / chroma_qp_offset=-2 / threads=12 / lookahead_threads=3 / sliced_threads=0 / nr=0 / decimate=1 / interlaced=0 / bluray_compat=0 / constrained_intra=0 / fgo=0 / bframes=14 / b_pyramid=2 / b_adapt=2 / b_bias=0 / direct=3 / weightb=1 / open_gop=0 / weightp=2 / keyint=240 / keyint_min=23 / scenecut=40 / intra_refresh=0 / rc_lookahead=60 / rc=crf / mbtree=0 / crf=18.2000 / qcomp=0.65 / qpmin=0:0:0 / qpmax=69:69:69 / qpstep=4 / vbv_maxrate=50000 / vbv_bufsize=62500 / crf_max=0.0 / nal_hrd=none / filler=0 / ip_ratio=1.40 / pb_ratio=1.30 / aq=3:0.90 / aq-sensitivity=10.00 / aq-factor=1.00:1.00:1.00 / aq2=0 / aq3=0Default : ДаForced : Нет

Аудио #1Идентификатор : 2Формат : AC-3Формат/Информация : Audio Coding 3Расширение режима : CM (complete main)Параметр Endianness формата : BigИдентификатор кодека : A_AC3Продолжительность : 1 ч. 54 м.Вид битрейта : ПостоянныйБитрейт : 448 Кбит/секКаналы : 6 каналовРасположение каналов : Front: L C R, Side: L R, LFEЧастота : 48,0 КГцЧастота кадров : 31,250 кадров/сек (1536 spf)Метод сжатия : С потерямиРазмер потока : 368 Мбайт (16%)Язык : RussianDefault : ДаForced : Нет

Аудио #2Идентификатор : 3Формат : AC-3Формат/Информация : Audio Coding 3Расширение режима : CM (complete main)Параметр Endianness формата : BigИдентификатор кодека : A_AC3Продолжительность : 1 ч. 54 м.Вид битрейта : ПостоянныйБитрейт : 448 Кбит/секКаналы : 6 каналовРасположение каналов : Front: L C R, Side: L R, LFEЧастота : 48,0 КГцЧастота кадров : 31,250 кадров/сек (1536 spf)Метод сжатия : С потерямиРазмер потока : 368 Мбайт (16%)Язык : EnglishDefault : НетForced : Нет

Текст #1Идентификатор : 4Формат : UTF-8Идентификатор кодека : S_TEXT/UTF8Идентификатор кодека/Информация : UTF-8 Plain TextПродолжительность : 1 ч. 33 м.Битрейт : 0 бит/секCount of elements : 3Размер потока : 86,0 байт (0%)Заголовок : ForcedЯзык : RussianDefault : ДаForced : Нет

Текст #2Идентификатор : 5Формат : UTF-8Идентификатор кодека : S_TEXT/UTF8Идентификатор кодека/Информация : UTF-8 Plain TextПродолжительность : 1 ч. 52 м.Битрейт : 73 бит/секCount of elements : 1286Размер потока : 60,6 Кбайт (0%)Заголовок : iTunesЯзык : RussianDefault : НетForced : Нет

Текст #3Идентификатор : 6Формат : UTF-8Идентификатор кодека : S_TEXT/UTF8Идентификатор кодека/Информация : UTF-8 Plain TextПродолжительность : 1 ч. 52 м.Битрейт : 76 бит/секCount of elements : 1097Размер потока : 62,6 Кбайт (0%)Язык : RussianDefault : НетForced : Нет

Текст #4Идентификатор : 7Формат : UTF-8Идентификатор кодека : S_TEXT/UTF8Идентификатор кодека/Информация : UTF-8 Plain TextПродолжительность : 1 ч. 52 м.Битрейт : 43 бит/секCount of elements : 1319Размер потока : 36,1 Кбайт (0%)Заголовок : FullЯзык : EnglishDefault : НетForced : Нет

Текст #5Идентификатор : 8Формат : UTF-8Идентификатор кодека : S_TEXT/UTF8Идентификатор кодека/Информация : UTF-8 Plain TextПродолжительность : 1 ч. 54 м.Битрейт : 49 бит/секCount of elements : 1584Размер потока : 41,3 Кбайт (0%)Заголовок : SDHЯзык : EnglishDefault : НетForced : Нет

Текст #6Идентификатор : 9Формат : UTF-8Идентификатор кодека : S_TEXT/UTF8Идентификатор кодека/Информация : UTF-8 Plain TextПродолжительность : 1 ч. 54 м.Битрейт : 63 бит/секCount of elements : 1584Размер потока : 52,6 Кбайт (0%)Заголовок : SDH-ColoredЯзык : EnglishDefault : НетForced : Нет

Меню00:00:00.000 : en:Chapter 100:04:34.565 : en:Chapter 200:10:16.824 : en:Chapter 300:18:32.152 : en:Chapter 400:24:37.017 : en:Chapter 500:31:40.481 : en:Chapter 600:38:33.811 : en:Chapter 700:43:16.135 : en:Chapter 800:48:24.526 : en:Chapter 900:55:34.497 : en:Chapter 1001:05:04.358 : en:Chapter 1101:12:38.437 : en:Chapter 1201:22:14.346 : en:Chapter 1301:28:28.636 : en:Chapter 1401:35:00.903 : en:Chapter 1501:45:06.508 : en:Chapter 16

rutorg2.ru

Скачать фильм Доктор Стрэндж через торрент в хорошем качестве бесплатно 1080p / 60fps

Раздают: 7 [ 380 KB/s ] Качают: 1 [ 568 KB/s ]
Размер: 11.45 GB | Добавлен: 8 мес. назад | Торрент скачан:1064 раза
Реклама Дарим 3000 рублей за регистрацию, не упусти свой шанс получить шикарный бонус!!!

17-02-2017 07:47 Доктор Стрэндж Скачать торрент  

Доктор Стрэндж / Doctor Strange

Год выпуска: 2016Страна: США / Marvel Studios, Walt Disney Studios Motion PicturesЖанр: фантастика, фэнтези, боевик, приключенияПродолжительность: 01:54:58Перевод: Дубляж iTunes

Режиссер: Скотт Дерриксон

В ролях: Бенедикт Камбербэтч, Тильда Суинтон, Мадс Миккельсен, Чиветель Эджиофор, Рэйчел МакАдамс, Бенедикт Вонг, Майкл Стулбарг, Бенджамин Брэтт, Скотт Эдкинс, Зара Питиан

Описание: Страшная автокатастрофа поставила крест на карьере успешного нейрохирурга Доктора Стрэнджа. Отчаявшись, он отправляется в путешествие в поисках исцеления и открывает в себе невероятные способности к трансформации пространства и времени. Теперь он - связующее звено между параллельными измерениями, а его миссия - защищать жителей Земли и противодействовать Злу, какое бы обличие оно ни принимало.

Качество: BDRip 1080pФормат: MKVВидео кодек: H.264Аудио кодек: AC3Видео: 1920x800, 59.94fps, 14 Mb/s, high L4.2Аудио#1: 48 kHz, AC3 Dolby Digital, 3/2 (L,C,R,l,r) + LFE ch, ~384 kbps

Format : MatroskaFormat version : Version 4 / Version 2File size : 11.4 GiBDuration : 1 h 55 minOverall bit rate : 14.2 Mb/sEncoded date : UTC 2017-02-16 17:05:17Writing application : mkvmerge v9.8.0 ('Kuglblids') 64bitWriting library : libebml v1.3.4 + libmatroska v1.4.5Cover : YesAttachments : Cover.jpg

VideoID : 1Format : AVCFormat/Info : Advanced Video CodecFormat profile : [email protected] settings, CABAC : YesFormat settings, ReFrames : 4 framesCodec ID : V_MPEG4/ISO/AVCDuration : 1 h 54 minBit rate : 14.0 Mb/sWidth : 1 920 pixelsHeight : 800 pixelsDisplay aspect ratio : 2.40:1Frame rate mode : ConstantFrame rate : 59.940 (60000/1001) FPSOriginal frame rate : 59.940 (59940/1000) FPSColor space : YUVChroma subsampling : 4:2:0Bit depth : 8 bitsScan type : ProgressiveBits/(Pixel*Frame) : 0.152Stream size : 11.1 GiB (97%)Writing library : x264 core 146 r2538 121396cEncoding settings : cabac=1 / ref=4 / deblock=1:0:0 / analyse=0x3:0x113 / me=umh / subme=9 / psy=1 / psy_rd=1.00:0.10 / mixed_ref=1 / me_range=32 / chroma_me=1 / trellis=2 / 8x8dct=1 / cqm=0 / deadzone=21,11 / fast_pskip=0 / chroma_qp_offset=-3 / threads=6 / lookahead_threads=1 / sliced_threads=0 / nr=0 / decimate=1 / interlaced=0 / bluray_compat=0 / constrained_intra=0 / bframes=16 / b_pyramid=2 / b_adapt=2 / b_bias=0 / direct=3 / weightb=1 / open_gop=0 / weightp=2 / keyint=250 / keyint_min=25 / scenecut=40 / intra_refresh=0 / rc_lookahead=40 / rc=2pass / mbtree=1 / bitrate=14000 / ratetol=1.0 / qcomp=0.60 / qpmin=0 / qpmax=69 / qpstep=4 / cplxblur=20.0 / qblur=0.5 / vbv_maxrate=14000 / vbv_bufsize=14000 / nal_hrd=none / filler=0 / ip_ratio=1.40 / aq=1:1.00Default : YesForced : No

AudioID : 2Format : AC-3Format/Info : Audio Coding 3Mode extension : CM (complete main)Format settings, Endianness : BigCodec ID : A_AC3Duration : 1 h 55 minBit rate mode : ConstantBit rate : 384 kb/sChannel(s) : 6 channelsChannel positions : Front: L C R, Side: L R, LFESampling rate : 48.0 kHzFrame rate : 31.250 FPS (1536 spf)Bit depth : 16 bitsCompression mode : LossyStream size : 317 MiB (3%)Default : YesForced : No

Скачать Доктор Стрэндж через торрент http://pic1.pb.wtf/images/11/2a5od.jpg Скачать фильм Доктор Стрэндж через торрент бесплантно в хорошем качестве Описание: Страшная автокатастрофа поставила крест на карьере успешного нейрохирурга Доктора Стрэнджа. Отчаявшись, он отправляется в ... 2017-02-17 07:47 9.9 10 21

Loading...

Loading...

% Раздел Тема Автор DL S | L
Фильмы (Blu-ray, BD-Remux, HDDVD) [ 26.49 GB ] Доктор Стрэндж / Doctor Strange [2016 BDRemux 1080p] от ExKinoRay / Russian Mafia Скачать
3D Фильмы [ 7.85 GB ] Доктор Стрэндж в 3D / Doctor Strange in 3D [2016 BDRip 1080p ] Анаглиф slaventi-69 Скачать
Фильмы (HD 720p, 1080p) (48-60 fps) [ 4.3 GB ] Доктор Стрэндж / Doctor Strange [2016 BDRip 720p 60 fps от еnvy / NNNB] DUB / еnvy Скачать
3D Фильмы [ 10.96 GB ] Доктор Стрэндж в 3Д / Doctor Strange 3D [2016 BDrip 1080p] DUB () / OverUnder / Вертикальная стереопара serega768 Скачать
Фильмы 2016 [DVDrip, WEB-DLRip, HDrip] (DUB, MVO) [ 2.21 GB ] Доктор Стрэндж / Doctor Strange [2016 BDRip-AVC от sokol_ok] [] sokol_ok Скачать
Фильмы 2016 [DVDrip, WEB-DLRip, HDrip] (DUB, MVO) [ 746 MB ] Доктор Стрэндж / Doctor Strange [2016 BDRip-AVC от sokol_ok] [] sokol_ok Скачать
Фильмы 2016 [DVDrip, WEB-DLRip, HDrip] (DUB, MVO) [ 1.4 GB ] Доктор Стрэндж / Doctor Strange [2016 BDRip-AVC от sokol_ok] [] sokol_ok Скачать

Рекламный пират

17-02-2017 15:58 Доктор Стрэндж Скачать торрент  

люблю серию марвел, но доктор не зашел, на один раз не более

18-02-2017 07:19 Доктор Стрэндж Скачать торрент  

Мне понравился. К чувакам в трусах поверх колготок прохладно отношусь.

Дорогой пользователь! Огромная просьба, поблагодарите релизера, оцените раздачу и оставьте свои комментарий, если Вы скачали Доктор Стрэндж через торрент бесплатно! Внесите свою лепту в развитие PiratBit!

Комментировать посты могут только пользователи прошедшие не сложную регистрацию

Доктор Стрэндж через торрент Скачать бесплатно Доктор Стрэндж Доктор Стрэндж скачать торрент Доктор Стрэндж смотреть онлайн Cкачать фильм Доктор Стрэндж бесплатно Доктор Стрэндж скачать торрент в хорошем качестве Доктор Стрэндж смотреть онлайн бесплатно в хорошем качестве

Вы не можете начинать темыВы не можете отвечать на сообщенияВы не можете редактировать свои сообщенияВы не можете удалять свои сообщенияВы не можете голосовать в опросахВы не можете прикреплять файлы к сообщениямВы можете скачивать файлы

piratbit.ru

Скачать торрент Доктор Стрэндж / Doctor Strange (2016) BDRip 1080p | IMAX Edition | 3D Video | HSBS

Информация о фильмеНазвание: Доктор СтрэнджОригинальное название: Doctor StrangeГод выхода: 2016Жанр: Фантастика, фэнтези, боевик, приключенияРежиссер: Скотт ДерриксонВ ролях: Бенедикт Камбербэтч, Тильда Суинтон, Мадс Миккельсен, Чиветел Эджиофор, Рэйчел МакАдамс, Бенедикт Вонг, Майкл Стулбарг, Бенджамин Брэтт, Скотт Эдкинс, Зара Питиан

О фильме: Страшная автокатастрофа поставила крест на карьере успешного нейрохирурга Доктора Стрэнджа. Отчаявшись, он отправляется в путешествие в поисках исцеления и открывает в себе невероятные способности к трансформации пространства и времени. Теперь он — связующее звено между параллельными измерениями, а его миссия — защищать жителей Земли и противодействовать Злу, какое бы обличие оно ни принимало.

Страна: США Студия: Marvel Studios Inc., Walt Disney Studios Motion PicturesПродолжительность: 01:54:55Перевод: Дублированный | iTunes

ФайлКачество: BDRip 1080pВидео: MPEG-4 AVC, 9385 Kбит/с, 1920x1016, 23,976 кадра/секЗвук: Русский (AC3, 6 ch, 384 Кбит/с) английский (DTS, 6 ch, 1509 Кбит/с)Субтитры: Русские (полные, форсированные), английские

Формат 3D: Half SideBySide / Горизонтальная анаморфная стереопараПорядок ракурсов: левый ракурс первый

Mediainfo:

Общее Уникальный идентификатор : 229536404325782062872094701255984914996 (0xACAF1A7B296BD68F8B030349D023A234) Полное имя C:Doctor.Strange.2016.3D.HSBS.BDRip.1080p.mkv Формат : Matroska Версия формата : Version 4 / Version 2 Размер файла : 9,06 Гбайт Продолжительность : 1 ч. 55 м. Общий поток : 11,2 Мбит/сек Дата кодирования : UTC 2017-02-17 06:22:40 Программа кодирования : mkvmerge v8.3.0 ('Over the Horizon') 64bit Библиотека кодирования : libebml v1.3.1 + libmatroska v1.4.2

Видео Идентификатор : 1 Формат : AVC Формат/Информация : Advanced Video Codec Профиль формата : [email protected] Параметр CABAC формата : Да Параметр ReFrames формата : 4 кадра Идентификатор кодека : V_MPEG4/ISO/AVC Продолжительность : 1 ч. 54 м. Битрейт : 9385 Кбит/сек Ширина : 1920 пикселей Высота : 1016 пикселей Соотношение сторон : 1,890 Режим частоты кадров : Постоянный Частота кадров : 23,976 кадра/сек Цветовое пространство : YUV Субдискретизация насыщенности : 4:2:0 Битовая глубина : 8 бит Тип развёртки : Прогрессивная Бит/(Пиксели*Кадры) : 0.201 Размер потока : 7,53 Гбайт (83%) Библиотека кодирования : x264 core 148 r2744 b97ae06 Настройки программы : cabac=1 / ref=4 / deblock=1:0:0 / analyse=0x3:0x133 / me=umh / subme=7 / psy=1 / psy_rd=1.00:0.00 / mixed_ref=1 / me_range=16 / chroma_me=1 / trellis=1 / 8x8dct=1 / cqm=0 / deadzone=21,11 / fast_pskip=0 / chroma_qp_offset=-2 / threads=24 / lookahead_threads=4 / sliced_threads=0 / nr=0 / decimate=1 / interlaced=0 / bluray_compat=0 / constrained_intra=0 / bframes=3 / b_pyramid=2 / b_adapt=1 / b_bias=0 / direct=1 / weightb=1 / open_gop=0 / weightp=2 / keyint=250 / keyint_min=23 / scenecut=40 / intra_refresh=0 / rc_lookahead=40 / rc=2pass / mbtree=1 / bitrate=9385 / ratetol=1.0 / qcomp=0.60 / qpmin=0 / qpmax=69 / qpstep=4 / cplxblur=20.0 / qblur=0.5 / ip_ratio=1.40 / aq=1:1.00 Язык : English Default : Да Forced : Нет

Аудио #1 Идентификатор : 2 Формат : AC-3 Формат/Информация : Audio Coding 3 Расширение режима : CM (complete main) Параметр Endianness формата : Big Идентификатор кодека : A_AC3 Продолжительность : 1 ч. 55 м. Вид битрейта : Постоянный Битрейт : 384 Кбит/сек Каналы : 6 каналов Расположение каналов : Front: L C R, Side: L R, LFE Частота : 48,0 КГц Частота кадров : 31,250 кадров/сек (1536 spf) Битовая глубина : 16 бит Метод сжатия : С потерями Размер потока : 317 Мбайт (3%) Заголовок : iTunes Язык : Russian Default : Да Forced : Нет

Аудио #2 Идентификатор : 3 Формат : DTS Формат/Информация : Digital Theater Systems Режим : 16 Параметр Endianness формата : Big Идентификатор кодека : A_DTS Продолжительность : 1 ч. 54 м. Вид битрейта : Постоянный Битрейт : 1509 Кбит/сек Каналы : 6 каналов Расположение каналов : Front: L C R, Side: L R, LFE Частота : 48,0 КГц Частота кадров : 93,750 кадра/сек (512 spf) Битовая глубина : 24 бит Метод сжатия : С потерями Размер потока : 1,21 Гбайт (13%) Заголовок : Original Язык : English Default : Нет Forced : Нет

Текст #1 Идентификатор : 4 Формат : UTF-8 Идентификатор кодека : S_TEXT/UTF8 Идентификатор кодека/Информация : UTF-8 Plain Text Продолжительность : 1 ч. 33 м. Битрейт : 0 бит/сек Count of elements : 3 Размер потока : 86,0 байт (0%) Заголовок : Forced Язык : Russian Default : Да Forced : Нет

Текст #2 Идентификатор : 5 Формат : UTF-8 Идентификатор кодека : S_TEXT/UTF8 Идентификатор кодека/Информация : UTF-8 Plain Text Продолжительность : 1 ч. 52 м. Битрейт : 73 бит/сек Count of elements : 1289 Размер потока : 60,7 Кбайт (0%) Заголовок : Full-lenth Язык : Russian Default : Нет Forced : Нет

Текст #3 Идентификатор : 6 Формат : UTF-8 Идентификатор кодека : S_TEXT/UTF8 Идентификатор кодека/Информация : UTF-8 Plain Text Продолжительность : 1 ч. 52 м. Битрейт : 43 бит/сек Count of elements : 1319 Размер потока : 36,1 Кбайт (0%) Заголовок : Full Язык : English Default : Нет Forced : Нет

Текст #4 Идентификатор : 7 Формат : UTF-8 Идентификатор кодека : S_TEXT/UTF8 Идентификатор кодека/Информация : UTF-8 Plain Text Продолжительность : 1 ч. 54 м. Битрейт : 49 бит/сек Count of elements : 1584 Размер потока : 41,3 Кбайт (0%) Заголовок : SDH Язык : English Default : Нет Forced : Нет

Меню 00:00:00.000 : en:00:00:00.000 00:04:34.566 : en:00:04:34.566 00:10:16.825 : en:00:10:16.825 00:18:32.153 : en:00:18:32.153 00:24:37.017 : en:00:24:37.017 00:31:40.482 : en:00:31:40.482 00:38:33.811 : en:00:38:33.811 00:43:16.135 : en:00:43:16.135 00:48:24.527 : en:00:48:24.527 00:55:34.498 : en:00:55:34.498 01:05:04.359 : en:01:05:04.359 01:12:38.437 : en:01:12:38.437 01:22:14.346 : en:01:22:14.346 01:28:28.637 : en:01:28:28.637 01:35:00.904 : en:01:35:00.904 01:45:06.509 : en:01:45:06.509

krutor.org

Скачать торрент Доктор Стрэндж / Doctor Strange (2017) BDRip 1080p HEVC

Общее Уникальный идентификатор : 226760924275696037931164808782216140896 (0xAA9890BFE2D4F8DA9CB26473B5A79860) Полное имя : f:HEVCDoctor Strange (2016)Doctor.Strange.2016.1080p_HEVCCLUB.mkv Формат : Matroska Версия формата : Version 4 / Version 2 Размер файла : 7,00 Гбайт Продолжительность : 1 ч. 54 м. Общий поток : 8710 Кбит/сек Название фильма : Doctor Strange (2016) - HEVC.CLUB Дата кодирования : UTC 2017-03-01 15:28:03 Программа кодирования : mkvmerge v9.5.0 ('Quiet Fire') 64bit Библиотека кодирования : libebml v1.3.4 + libmatroska v1.4.5 Обложка : Yes Attachments : cover.jpg

Видео Идентификатор : 1 Формат : HEVC Формат/Информация : High Efficiency Video Coding Профиль формата : Main [email protected]@High Идентификатор кодека : V_MPEGH/ISO/HEVC Продолжительность : 1 ч. 54 м. Битрейт : 6558 Кбит/сек Ширина : 1920 пикселей Высота : 804 пикселя Соотношение сторон : 2,40:1 Режим частоты кадров : Постоянный Частота кадров : 23,976 (24000/1001) кадра/сек Цветовое пространство : YUV Субдискретизация насыщенности : 4:2:0 Битовая глубина : 10 бит Бит/(Пиксели*Кадры) : 0.177 Размер потока : 5,27 Гбайт (75%) Заголовок : HEVC.CLUB Библиотека кодирования : x265 2.2+36-9b975fec584a:[Windows][GCC 6.3.0][64 bit] 10bit Настройки программы : cpuid=1173503 / frame-threads=3 / numa-pools=8 / wpp / no-pmode / no-pme / no-psnr / ssim / log-level=2 / input-csp=1 / input-res=1920x804 / interlace=0 / total-frames=0 / level-idc=41 / high-tier=1 / uhd-bd=0 / ref=6 / no-allow-non-conformance / repeat-headers / annexb / aud / hrd / info / hash=0 / no-temporal-layers / open-gop / min-keyint=23 / keyint=250 / bframes=10 / b-adapt=2 / b-pyramid / bframe-bias=0 / rc-lookahead=60 / lookahead-slices=1 / scenecut=40 / no-intra-refresh / ctu=64 / min-cu-size=8 / no-rect / no-amp / max-tu-size=32 / tu-inter-depth=4 / tu-intra-depth=4 / limit-tu=0 / rdoq-level=1 / dynamic-rd=2.00 / signhide / no-tskip / nr-intra=0 / nr-inter=0 / no-constrained-intra / no-strong-intra-smoothing / max-merge=2 / limit-refs=3 / no-limit-modes / me=1 / subme=4 / merange=64 / temporal-mvp / weightp / weightb / no-analyze-src-pics / deblock=-3:-3 / no-sao / no-sao-non-deblock / rd=4 / no-early-skip / no-rskip / no-fast-intra / no-tskip-fast / no-cu-lossless / no-b-intra / rdpenalty=0 / psy-rd=1.60 / psy-rdoq=2.30 / no-rd-refine / analysis-mode=0 / no-lossless / cbqpoffs=0 / crqpoffs=0 / rc=crf / crf=21.5 / qcomp=0.90 / qpstep=6 / stats-write=0 / stats-read=0 / vbv-maxrate=50000 / vbv-bufsize=50000 / vbv-init=0.9 / crf-max=0.0 / crf-min=0.0 / ipratio=1.50 / pbratio=1.00 / aq-mode=1 / aq-strength=1.20 / no-cutree / zone-count=0 / no-strict-cbr / qg-size=32 / no-rc-grain / qpmax=69 / qpmin=0 / sar=1 / overscan=0 / videoformat=5 / range=0 / colorprim=2 / transfer=2 / colormatrix=1 / chromaloc=0 / display-window=0 / max-cll=0,0 / min-luma=0 / max-luma=1023 / log2-max-poc-lsb=8 / vui-timing-info / vui-hrd-info / slices=1 / opt-qp-pps / opt-ref-list-length-pps / no-multi-pass-opt-rps / scenecut-bias=0.05 / no-opt-cu-delta-qp / aq-motion / no-hdr Default : Да Forced : Да Цветовой диапазон : Limited Коэффициенты матрицы : BT.709

Аудио #1 Идентификатор : 2 Формат : AC-3 Формат/Информация : Audio Coding 3 Расширение режима : CM (complete main) Параметр Endianness формата : Big Идентификатор кодека : A_AC3 Продолжительность : 1 ч. 54 м. Вид битрейта : Постоянный Битрейт : 640 Кбит/сек Каналы : 6 каналов Расположение каналов : Front: L C R, Side: L R, LFE Частота : 48,0 КГц Частота кадров : 31,250 кадров/сек (1536 spf) Метод сжатия : С потерями Размер потока : 526 Мбайт (7%) Заголовок : Dub Язык : Russian Default : Да Forced : Нет

Аудио #2 Идентификатор : 3 Формат : DTS Формат/Информация : Digital Theater Systems Режим : 16 Параметр Endianness формата : Big Идентификатор кодека : A_DTS Продолжительность : 1 ч. 54 м. Вид битрейта : Постоянный Битрейт : 1509 Кбит/сек Каналы : 6 каналов Расположение каналов : Front: L C R, Side: L R, LFE Частота : 48,0 КГц Частота кадров : 93,750 кадра/сек (512 spf) Битовая глубина : 24 бит Метод сжатия : С потерями Размер потока : 1,21 Гбайт (17%) Заголовок : Original Язык : English Default : Нет Forced : Нет

Текст #1 Идентификатор : 4 Формат : UTF-8 Идентификатор кодека : S_TEXT/UTF8 Идентификатор кодека/Информация : UTF-8 Plain Text Продолжительность : 1 ч. 33 м. Битрейт : 0 бит/сек Count of elements : 3 Размер потока : 86,0 байт (0%) Заголовок : Forced Язык : Russian Default : Да Forced : Да

Текст #2 Идентификатор : 5 Формат : UTF-8 Идентификатор кодека : S_TEXT/UTF8 Идентификатор кодека/Информация : UTF-8 Plain Text Продолжительность : 1 ч. 52 м. Битрейт : 73 бит/сек Count of elements : 1289 Размер потока : 60,7 Кбайт (0%) Заголовок : Full Язык : Russian Default : Нет Forced : Нет

Текст #3 Идентификатор : 6 Формат : UTF-8 Идентификатор кодека : S_TEXT/UTF8 Идентификатор кодека/Информация : UTF-8 Plain Text Продолжительность : 6 с. 340 мс. Битрейт : 18 бит/сек Count of elements : 1 Размер потока : 15,0 байт (0%) Заголовок : Forced Язык : English Default : Нет Forced : Нет

Текст #4 Идентификатор : 7 Формат : UTF-8 Идентификатор кодека : S_TEXT/UTF8 Идентификатор кодека/Информация : UTF-8 Plain Text Продолжительность : 1 ч. 52 м. Битрейт : 43 бит/сек Count of elements : 1286 Размер потока : 35,9 Кбайт (0%) Заголовок : Full Язык : English Default : Нет Forced : Нет

Текст #5 Идентификатор : 8 Формат : UTF-8 Идентификатор кодека : S_TEXT/UTF8 Идентификатор кодека/Информация : UTF-8 Plain Text Продолжительность : 1 ч. 54 м. Битрейт : 49 бит/сек Count of elements : 1584 Размер потока : 41,3 Кбайт (0%) Заголовок : SDH Язык : English Default : Нет Forced : Нет

Меню 00:00:00.000 : en:1 00:04:35.000 : en:2 00:10:17.000 : en:3 00:18:33.000 : en:4 00:24:38.000 : en:5 00:31:41.000 : en:6 00:38:34.000 : en:7 00:43:17.000 : en:8 00:48:25.000 : en:9 00:55:35.000 : en:10 01:05:05.000 : en:11 01:12:39.000 : en:12 01:22:15.000 : en:13 01:28:29.000 : en:14 01:35:02.000 : en:15 01:45:07.000 : en:16

krutor.org


Смотрите также