Чудо женщина торрент в хорошем качестве hd 1080


Скачать торрент Чудо-женщина / Wonder Woman (2017) WEB-DL 1080p

krutor.org

Информация о фильмеНазвание: Чудо-женщинаОригинальное название: Wonder WomanГод выхода: 2017Жанр: Фэнтези, фантастика, боевик, приключенияРежиссер: Патти ДженкинсВ ролях: Галь Гадот, Робин Райт, Дэвид Тьюлис, Конни Нильсен, Крис Пайн, Елена Анайя, Люси Дэвис, Юэн Бремнер, Даутцен Крёз, Дэнни Хьюстон

О фильме: Перед тем как стать Чудо-Женщиной, она была Дианой — принцессой амазонок, обученной быть непобедимой воительницей. И когда на берегах ограждённого от внешнего мира райского острова, который служил ей родиной, терпит крушение американский пилот и рассказывает о серьёзном конфликте, бушующем во внешнем мире, Диана покидает свой дом, чтобы справиться с этой угрозой. И там, сражаясь бок о бок с человеком в войне за мир, Диана обнаружит всю полноту своей власти… и своё истинное предназначение.

Страна: СШАСтудия: Atlas Entertainment, Cruel & Unusual Films, DC Entertainment, Dune Entertainment, Tencent Pictures, WanDa Pictures, Warner Bros. PicturesПродолжительность: 02:21:12Перевод: Дублированный | iTunes

ФайлКачество: WEB-DL 1080p | AmazonКодек: MPEG-4 AVCВидео: 1920x800 (2,40:1), 23,976 fps, MPEG-4 AVC ~ 8726 Кbps avg, 0.237 bit/pixelАудио: 48 kHz, AC3, 6 ch, ~384.00 kbps avg | русский | Дублированный | iTunesАудио: 48 kHz, AAC, 2 ch, ~160.00 kbps avg | украинский | Дублированный | iTunesАудио: 48 kHz, E-AC-3, 6 ch, ~384.00 kbps avg | английский | Оригинал

Субтитры: Русские, английские, украинские

Инфо-файл

Общее Уникальный идентификатор : 201399107743231836504017129150774297711 (0x97840EA71ED7BACA959B5AFC2194C46F) Полное имя : WONDER_WOMAN_WEB_DL_1080p_AMZN.mkv Формат : Matroska Версия формата : Version 4 / Version 2 Размер файла : 9,74 Гбайт Продолжительность : 2 ч. 21 м. Режим общего битрейта : Переменный Общий поток : 9877 Кбит/сек Название фильма : WONDER_WOMAN_WEB_DL_1080p_AMZN Дата кодирования : UTC 2017-08-30 06:13:37 Программа кодирования : mkvmerge v9.7.1 ('Pandemonium') 64bit Библиотека кодирования : libebml v1.3.4 + libmatroska v1.4.5

Видео Идентификатор : 1 Формат : AVC Формат/Информация : Advanced Video Codec Профиль формата : [email protected] Параметр CABAC формата : Да Параметр ReFrames формата : 4 кадра Идентификатор кодека : V_MPEG4/ISO/AVC Продолжительность : 2 ч. 21 м. Вид битрейта : Переменный Битрейт : 8726 Кбит/сек Максимальный битрейт : 15,0 Мбит/сек Ширина : 1920 пикселей Высота : 800 пикселей Соотношение сторон : 2,40:1 Режим частоты кадров : Постоянный Частота кадров : 23,976 (24000/1001) кадра/сек Цветовое пространство : YUV Субдискретизация насыщенности : 4:2:0 Битовая глубина : 8 бит Тип развёртки : Прогрессивная Бит/(Пиксели*Кадры) : 0.237 Размер потока : 8,61 Гбайт (88%) Default : Да Forced : Нет Цветовой диапазон : Limited Основные цвета : BT.709 Характеристики трансфера : BT.709 Коэффициенты матрицы : BT.709

Аудио #1 Идентификатор : 2 Формат : AC-3 Формат/Информация : Audio Coding 3 Параметр Endianness формата : Big Идентификатор кодека : A_AC3 Продолжительность : 2 ч. 21 м. Вид битрейта : Постоянный Битрейт : 384 Кбит/сек Каналы : 6 каналов Расположение каналов : Front: L C R, Side: L R, LFE Частота : 48,0 КГц Частота кадров : 31,250 кадров/сек (1536 spf) Битовая глубина : 16 бит Метод сжатия : С потерями Размер потока : 388 Мбайт (4%) Заголовок : [DUB] DD 5.1 @ 384 kbps (iTunes) Язык : Russian Default : Да Forced : Нет

Аудио #2 Идентификатор : 3 Формат : AAC Формат/Информация : Advanced Audio Codec Профиль формата : LC Идентификатор кодека : A_AAC Продолжительность : 2 ч. 21 м. Битрейт : 160 Кбит/сек Каналы : 2 канала Расположение каналов : Front: L R Частота : 44,1 КГц Частота кадров : 43,066 кадра/сек (1024 spf) Метод сжатия : С потерями Размер потока : 127 Мбайт (1%) Заголовок : [DUB] AAC 2.0 @ 160 kbps Язык : Ukrainian Default : Нет Forced : Нет

Аудио #3 Идентификатор : 4 Формат : E-AC-3 Формат/Информация : Enhanced Audio Coding 3 Параметр Endianness формата : Big Идентификатор кодека : A_EAC3 Продолжительность : 2 ч. 21 м. Вид битрейта : Постоянный Битрейт : 640 Кбит/сек Каналы : 6 каналов Расположение каналов : Front: L C R, Side: L R, LFE Частота : 48,0 КГц Частота кадров : 187,500 кадров/сек (256 spf) Метод сжатия : С потерями Размер потока : 646 Мбайт (6%) Заголовок : [ORIGINAL] DD 5.1 @ 384 kbps (iTunes) Язык : English Default : Нет Forced : Нет

Текст #1 Идентификатор : 5 Формат : UTF-8 Идентификатор кодека : S_TEXT/UTF8 Идентификатор кодека/Информация : UTF-8 Plain Text Продолжительность : 2 ч. 12 м. Битрейт : 80 бит/сек ElementCount : 1300 Размер потока : 78,2 Кбайт (0%) Заголовок : Full-lenth Язык : Russian Default : Нет Forced : Нет

Текст #2 Идентификатор : 6 Формат : UTF-8 Идентификатор кодека : S_TEXT/UTF8 Идентификатор кодека/Информация : UTF-8 Plain Text Продолжительность : 2 ч. 7 м. Битрейт : 1 бит/сек ElementCount : 15 Размер потока : 1,08 Кбайт (0%) Заголовок : Forced Язык : Russian Default : Да Forced : Да

Текст #3 Идентификатор : 7 Формат : UTF-8 Идентификатор кодека : S_TEXT/UTF8 Идентификатор кодека/Информация : UTF-8 Plain Text Продолжительность : 2 ч. 8 м. Битрейт : 1 бит/сек ElementCount : 24 Размер потока : 1,13 Кбайт (0%) Заголовок : Forced Язык : Ukrainian Default : Нет Forced : Нет

Текст #4 Идентификатор : 8 Формат : UTF-8 Идентификатор кодека : S_TEXT/UTF8 Идентификатор кодека/Информация : UTF-8 Plain Text Продолжительность : 2 ч. 16 м. Битрейт : 51 бит/сек ElementCount : 2000 Размер потока : 51,3 Кбайт (0%) Язык : English Default : Нет Forced : Нет

Меню 00:00:00.000 : en:Studio Logo 00:00:45.000 : en:Story of mankind and creation of Amazons 00:10:25.000 : en:Atiope trains Diana harder than ever 00:17:31.000 : en:Someone infiltrates the island and the surprise attack 00:23:11.000 : en:Trevor tells the Amazonians about the war raging the world 00:28:03.000 : en:Diana makes up her mind to save the mankind 00:35:27.000 : en:Diana and Trevor leave the island 00:43:53.000 : en:Diana arrives in London and clothes to fit in society 00:52:12.000 : en:Trevor is being followed 00:54:24.000 : en:Trevor hands over the notebook and secrets it revealed 01:00:28.000 : en:Trevor goes against the system, making a team 01:07:37.000 : en:Ludendorff is not ready to give in 01:12:22.000 : en:Diana can't sit on the sidelines anymore 01:24:07.000 : en:Favorite pass time when there is no war to fight 01:29:15.000 : en:Attending the gala and Diana understands the way of the world 01:45:10.000 : en:Diana finally meets Ares who shows her the truth 01:57:41.000 : en:Diana understand the flaws of humanity to save them 02:06:40.000 : en:Only love can save this humankind 02:10:40.000 : en:End Credits

Чудо Женщина торрент скачать | Скачать торренты в BDRip и HDRip качестве

Чудо-женщина / Wonder Woman (2017) WEBRip | Line2.05 GBЧудо-женщина / Wonder Woman / 2017 / ДБ, СТ / WEB-DL (1080p) / 9.74 ГБ9.74 GBЧудо-женщина / Wonder Woman (2017) WEBRip от ImperiaFilm | Звук с TS1.38 GBЧудо-женщина / Wonder Woman (Пэтти Дженкинс / Patty Jenkins) [2017, США, Китай, Гонконг, фантастика, фэнтези, боевик, приключения, WEB-DLRip] Dub + Sub Rus1.47 GBЧудо-женщина / Wonder Woman (2017) BDRip 1080p | iTunes10.21 GBЧудо-женщина / Wonder Woman (2017) HDRip | iTunes2.05 GBЧудо-женщина / Wonder Woman (2017) HDRip | iTunes2.05 GBЧудо-женщина / Wonder Woman (Пэтти Дженкинс / Patty Jenkins) [2017, США, Китай, Гонконг, Великобритания, Италия, Канада, Новая Зеландия, фантастика, фэнтези, боевик, приключения, WEB-DL 1080p] Dub (iTunes) + Original (eng) + Sub (rus, ukr, eng)2.94 GBЧудо-женщина / Wonder Woman / 2017 / ДБ, СТ / BDRip (1080p) / 12.72 ГБ12.72 GBЧудо-женщина / Wonder Woman / 2017 / ДБ / BDRip / 2.12 ГБ2.12 GBЧудо-Женщина / Wonder Woman (2017) WEBRip 1080p | Трейлер355.91 MBЧудо-женщина / Wonder Woman (Пэтти Дженкинс / Patty Jenkins) [2017, США, Китай, Гонконг, фантастика, фэнтези, боевик, приключения, BDRip] Dub + Sub Rus1.41 GBЧудо-женщина / Wonder Woman (Пэтти Дженкинс / Patty Jenkins) [2017 г., фантастика, фэнтези, боевик, приключения, TS-AVC] Dub + Original (Eng) + hardsub (Kor)1.9 GBЧудо-женщина / Wonder Woman (2017) BDRip 720р от ExKinoRay | iTunes6.84 GBЧудо-женщина / Wonder Woman (Пэтти Дженкинс / Patty Jenkins) [2017 г., фантастика, фэнтези, боевик, приключения, HDTV 1080p] Dub (звук с TS)+ hardsub (Kor)5.17 GBЧудо-женщина / Wonder Woman / 2017 / ДБ, СТ / BDRip (1080p) / 12.78 ГБ12.78 GBЧудо-женщина / Wonder Woman / 2017 / ДБ / BDRip / 2.05 ГБ2.05 GBЧудо-женщина / Wonder Woman (Пэтти Дженкинс / Patty Jenkins) [2017 г., фантастика, фэнтези, боевик, приключения, HDTVRip] Dub (звук с TS)+ hardsub (Kor)1.37 GBЧудо-женщина в 3Д / Wonder Woman 3D (Пэтти Дженкинс / Patty Jenkins) [2017, Фантастика, Фэнтези, Боевик, Приключения, Военный, BDrip] iTunes, Half OverUnder / Вертикальная анаморфная стереопара12.54 GBЧудо-женщина / Wonder Woman / 2017 / ДБ / BDRip / 2.18 ГБ2.18 GBЧудо-женщина / Wonder Woman (2017) BDRip 1080р от ExKinoRay | Лицензия12.78 GBЧудо-женщина / Wonder Woman / 2017 / ДБ, СТ / Blu-Ray Remux (1080p) / 25.33 ГБ25.33 GBЧудо-женщина / Wonder Woman / 2017 / ДБ / BDRip / 1.46 ГБ1.46 GBЧудо-женщина / Wonder Woman / 2017 / ДБ, СТ / BDRip (720p) / 6.84 ГБ6.84 GBЧудо-женщина / Wonder Woman (Патти Дженкинс) [2017 г., фантастика, фэнтези, боевик, приключения, HDTVRip] Dub (Line)1.37 GBЧудо-женщина / Wonder Woman (2017) BDRip 720р от ExKinoRay | Лицензия6.9 GBЧудо-женщина / Wonder Woman / 2017 / ДБ / BDRip / 1.37 ГБ1.37 GBЧудо-женщина / Wonder Woman (Пэтти Дженкинс / Patty Jenkins) [2017, США, Китай, Гонконг, Великобритания, Италия, Канада, Новая Зеландия, фантастика, фэнтези, боевик, приключения, военный, BDRip 1080p] Dub + Ukr + Original (Eng) + Sub (Rus, Ukr, Eng)16.78 GBЧудо-женщина / Wonder Woman (Пэтти Дженкинс / Patty Jenkins) [2017, США, фантастика, фэнтези, боевик, приключения, WEB-DLRip-AVC] Dub + Original + Sub (rus, eng)2.21 GBЧудо-женщина / Wonder Woman (Пэтти Дженкинс / Patty Jenkins) [2017 г., фантастика, фэнтези, боевик, приключения, HDTVRip] Dub (звук с TS) + hardsub (Kor)2.05 GBЧудо-женщина / Wonder Woman / 2017 / ДБ, СТ / 3D (HSBS) / BDRip (1080p) / 10.46 ГБ10.46 GBЧудо-женщина / Wonder Woman (Патти Дженкинс) [2017 г., фантастика, фэнтези, боевик, приключения, HDTVRip] Dub (Line)1.37 GBЧудо-женщина / Wonder Woman / 2017 / ДБ, СТ / WEB-DLRip (AVC) / 2.94 ГБ2.94 GBЧудо-женщина / Wonder Woman / 2017 / ДБ, СТ / 2D, 3D / Blu-Ray Remux (1080p) / 37.85 ГБ37.85 GBЧудо-женщина / Wonder Woman (Патти Дженкинс) [2017 г., фантастика, фэнтези, боевик, приключения, BDRip 1080p] Dub (iTunes) + Original + Sub10.21 GBЧудо-женщина / Wonder Woman (Пэтти Дженкинс / Patty Jenkins) [2017, США, фантастика, фэнтези, боевик, приключения, BDRip-AVC] Dub + Original + Sub (rus, eng)4.12 GBЧудо-женщина / Wonder Woman (Патти Дженкинс) [2017 г., фантастика, фэнтези, боевик, приключения, HDTVRip 1080p] Dub (Line)5.72 GB[ATV3] Чудо-женщина / Wonder Woman (Пэтти Дженкинс / Patty Jenkins ) [2017, США, Китай, Гонконг, Великобритания, Италия, Канада, Фантастика, фэнтези, боевик, приключения, военный, WEB-DL, HD (1080p)] DUB + Original + sub (rus, ukr, eng)5.71 GBЧудо-женщина / Wonder Woman (Пэтти Дженкинс / Patty Jenkins) [2017, США, Китай, Гонконг, фантастика, фэнтези, боевик, приключения, BDRip] Dub + Sub Rus, Eng + Original Eng2.19 GBЧудо-женщина / Wonder Woman (Пэтти Дженкинс / Patty Jenkins) [2017, США, Китай, Гонконг, Великобритания, Италия, Канада, Новая Зеландия, фантастика, фэнтези, боевик, приключения, военный, BDRip 720p] Dub + Sub Rus + Original Eng7.16 GBЧудо-женщина / Wonder Woman (Патти Дженкинс) [2017 г., фантастика, фэнтези, боевик, приключения, HDRip] Dub (iTunes)2.05 GBЧудо-женщина / Wonder Woman (Пэтти Дженкинс / Patty Jenkins) [2017, США, Китай, Гонконг, фантастика, фэнтези, боевик, приключения, Blu-ray disc 1080p] [EUR] Dub + Sub Rus, Eng + Original Eng43.41 GBЧудо-женщина / Wonder Woman (Пэтти Дженкинс / Patty Jenkins) [2017 г., фантастика, фэнтези, боевик, приключения, HDTV 720p] Dub (звук с TS)+ hardsub (Kor)4.37 GBЧудо-женщина / Wonder Woman / 2017 / ДБ, СТ / Blu-Ray Remux (1080p) / 25.84 ГБ25.84 GBЧудо-женщина / Wonder Woman / 2017 / ДБ, СТ / UHD 4K (2160p) / 21.55 ГБ21.55 GBЧудо-женщина / Wonder Woman / 2017 / ДБ, СТ / 3D (HOU) / BDRip (1080p) / 12.61 ГБ12.61 GBЧудо-женщина / Wonder Woman (Пэтти Дженкинс / Patty Jenkins) [2017, США, Китай, Гонконг, Великобритания, Италия, Канада, Новая Зеландия, фантастика, фэнтези, боевик, приключения, военный, BDRip 720p] Dub + Ukr + Original (Eng) + Sub (Rus, Ukr, Eng)8.67 GBЧудо-женщина / Wonder Woman (2017) CAMRip | D698.86 MBЧудо-женщина / Wonder Woman (Пэтти Дженкинс / Patty Jenkins ) [2017, США, Китай, Гонконг, Великобритания, Италия, Канада, Фантастика, фэнтези, боевик, приключения, военный, WEB-DL, HD (720p)] DUB + Original + sub (rus, ukr, eng)5.23 GBЧудо-женщина в 3Д / Wonder Woman 3D (Пэтти Дженкинс / Patty Jenkins) [2017, Фантастика, Фэнтези, Боевик, Приключения, Военный, BDrip] Half OverUnder / Вертикальная анаморфная стереопара12.61 GB tparser.org – торрент поисковик по популярным торрент трекерам. Находить и скачивать новинки кино в HDRip и BDRip качестве через tparser намного проще! Добро пожаловать на крупный торрент архив фильмов и игр tparser.org. Вам больше не придется искать торренты на основных торрент трекерах в поисках нужной раздачи – мы предлагаем найти и скачать фильмы в хорошем качестве прямо на нашем сайте. Наш сервис поиска торрентов в реальном времени собирает информацию с крупных торрент трекеров и сортирует полученные результаты в удобную таблицу. Скачивайте торренты без ограничений и без всяких регистраций на трекерах. Начните скачивать торрент Чудо Женщина прямо сейчас!

tparser.org

Скачать торрент Чудо-женщина / Wonder Woman (2017) WEBRip 1080p

krutor.org

Информация о фильмеНазвание: Чудо-женщинаОригинальное название: Wonder WomanГод выпуска: 2017Страна: США, Китай, Гонконг, Великобритания, Италия, Канада, Новая ЗеландияЖанр: фантастика, фэнтези, боевик, приключения, военныйПеревод: Дубляж - [Звук с TS]Примечание: Релиз без рекламыСубтитры: Корейские (вшитые)Продолжительность: 02:21:10Режиссер: Пэтти Дженкинс В ролях: Галь Гадот (Wonder Woman), Крис Пайн (Steve Trevor), Конни Нильсен (Hippolyta), Робин Райт (Antiope), Дэнни Хьюстон (Ludendorff), Дэвид Тьюлис (Sir Patrick), Саид Тагмауи (Sameer), Юэн Бремнер (Charlie), Юджин «Храбрый камень» (The Chief), Люси Дэвис (Etta), Елена Анайя (Dr. Maru), Lilly Aspell (Young Diana (8))Описание: Перед тем как стать Чудо-Женщиной, она была Дианой - принцессой амазонок, обученной быть непобедимой воительницей. И когда на берегах ограждённого от внешнего мира райского острова, который служил ей родиной, терпит крушение американский пилот и рассказывает о серьёзном конфликте, бушующем во внешнем мире, Диана покидает свой дом, чтобы справиться с этой угрозой. И там, сражаясь бок о бок с человеком в войне за мир, Диана обнаружит всю полноту своей власти... и своё истинное предназначение.Рейтинг: MPAA: PG-13 - Детям до 13 лет просмотр не желателенКачество: WEBRip 1080pФормат: MKVВидео: AVC, 1920x800 (2.40:1), 3941 kbps, 23,976 fps, 0,107 bppАудио №1: русский / AC3 / 2.0 / 48 kHz / 384 kbps / |DUB| Аудио №2: английский / AC3 / 5.1 / 48 kHz / 384 kbps /Сэмпл

ОтчетМедиаИнфо

Общее Уникальный идентификатор : 254920206304240085429791765182512231655 (0xBFC7D88B44C580438FFC9F696EDDF4E7) Полное имя : E:Wonder.Woman.2017.1080p.WEBRip.mkv Формат : Matroska Версия формата : Version 4 / Version 2 Размер файла : 4,61 Гбайт Продолжительность : 2 ч. 21 м. Общий поток : 4676 Кбит/сек Дата кодирования : UTC 2017-07-08 18:52:28 Программа кодирования : mkvmerge v13.0.0 ('The Juggler') 64bit Библиотека кодирования : libebml v1.3.4 + libmatroska v1.4.5

Видео Идентификатор : 1 Формат : AVC Формат/Информация : Advanced Video Codec Профиль формата : [email protected] Параметр CABAC формата : Да Параметр RefFrames формата : 4 кадра Идентификатор кодека : V_MPEG4/ISO/AVC Продолжительность : 2 ч. 21 м. Битрейт : 3941 Кбит/сек Ширина : 1920 пикселей Высота : 800 пикселей Соотношение сторон : 2,40:1 Режим частоты кадров : Постоянный Частота кадров : 23,976 (24000/1001) кадра/сек Цветовое пространство : YUV Субдискретизация насыщенности : 4:2:0 Битовая глубина : 8 бит Тип развёртки : Прогрессивная Бит/(Пиксели*Кадры) : 0.107 Размер потока : 3,85 Гбайт (84%) Библиотека кодирования : x264 core 148 r2708 86b7198 Настройки программы : cabac=1 / ref=1 / deblock=1:0:0 / analyse=0x1:0x111 / me=hex / subme=2 / psy=1 / psy_rd=1.00:0.00 / mixed_ref=0 / me_range=16 / chroma_me=1 / trellis=0 / 8x8dct=0 / cqm=0 / deadzone=21,11 / fast_pskip=1 / chroma_qp_offset=0 / threads=12 / lookahead_threads=4 / sliced_threads=0 / nr=0 / decimate=1 / interlaced=0 / bluray_compat=0 / constrained_intra=0 / bframes=3 / b_pyramid=2 / b_adapt=1 / b_bias=0 / direct=1 / weightb=1 / open_gop=0 / weightp=1 / keyint=240 / keyint_min=24 / scenecut=40 / intra_refresh=0 / rc_lookahead=10 / rc=abr / mbtree=1 / bitrate=3941 / ratetol=1.0 / qcomp=0.60 / qpmin=0 / qpmax=69 / qpstep=4 / vbv_maxrate=50000 / vbv_bufsize=62500 / nal_hrd=none / filler=0 / ip_ratio=1.40 / aq=1:1.00 Язык : English Default : Да Forced : Нет Цветовой диапазон : Limited Основные цвета : BT.709 Характеристики трансфера : BT.709 Коэффициенты матрицы : BT.709

Аудио #1 Идентификатор : 2 Формат : AC-3 Формат/Информация : Audio Coding 3 Параметр Endianness формата : Big Идентификатор кодека : A_AC3 Продолжительность : 2 ч. 21 м. Вид битрейта : Постоянный Битрейт : 384 Кбит/сек Каналы : 2 канала Расположение каналов : Front: L R Частота : 48,0 КГц Частота кадров : 31,250 кадров/сек (1536 SPF) Битовая глубина : 16 бит Метод сжатия : С потерями Задержка видео : -5 мс. Размер потока : 388 Мбайт (8%) Заголовок : DUB | TS Язык : Russian Default : Да Forced : Нет

Аудио #2 Идентификатор : 3 Формат : AC-3 Формат/Информация : Audio Coding 3 Параметр Endianness формата : Big Идентификатор кодека : A_AC3 Продолжительность : 2 ч. 21 м. Вид битрейта : Постоянный Битрейт : 384 Кбит/сек Каналы : 6 каналов Расположение каналов : Front: L C R, Side: L R, LFE Частота : 48,0 КГц Частота кадров : 31,250 кадров/сек (1536 SPF) Битовая глубина : 16 бит Метод сжатия : С потерями Задержка видео : -5 мс. Размер потока : 388 Мбайт (8%) Заголовок : Original Язык : English Default : Нет Forced : Нет

Скачать фильм Чудо-женщина через торрент в хорошем качестве бесплатно 1080p

piratbit.ru

Раздают: 13 [ 0 KB/s ]
Размер: 2.5 GB | Добавлен: 3 мес. 14 д. назад | Торрент скачан:1169 раз
Реклама Дарим 3000 рублей за регистрацию, не упусти свой шанс получить шикарный бонус!!!

12-07-2017 07:59 Чудо-женщина Скачать торрент  

Чудо-женщина / Wonder Woman Год выпуска фильма: 2017Страна: СШАЖанр: Фантастика, Фэнтези, Боевик, ПриключенияПродолжительность: 02:21:10Перевод: Дублированный [Звук TS - Очищенный] субтитры: Корейские (неотключаемые)Работа над звуком: Автор чистки звука [DENZEL519]

Режиссер: Пэтти Дженкинс

В ролях: Галь Гадот, Крис Пайн, Робин Райт, Конни Нильсен, Елена Анайя, Люси Дэвис, Юэн Бремнер

Описание:Перед тем как стать Чудо-Женщиной, она была Дианой — принцессой амазонок, обученной быть непобедимой воительницей.И когда на берегах огражденного от внешнего мира райского острова, который служил ей родиной, терпит крушение американский пилоти рассказывает о серьезном конфликте, бушующем во внешнем мире, Диана покидает свой дом, чтобы справиться с этой угрозой.И там, сражаясь бок о бок с человеком в войне за мир, Диана обнаружит всю полноту своей власти… и свое истинное предназначение.

Качество: WEBRip [1080p]Формат видео: MKVВидео кодек: AVCАудио кодек: AC3Видео: 1920x1080 (16:9), 23.976 fps, AVC, 2 000 KbpsАудио: AC3, 384 Kbps, 48.0 KHz, 2 ch [Rus]Аудио: AC3, 96.0 Kbps, 44.1 KHz, 2 ch [Eng]

GeneralUnique ID : 245023720181191528057767264707084297429 (0xB855DA1B3E7BA846A8F610B030B824D5)Complete name : Wonder.Women.2017.WEBRip.1080p.x264.AC3.mkvFormat : MatroskaFormat version : Version 4 / Version 2File size : 2.50 GiBDuration : 2h 21mnOverall bit rate : 2 530 KbpsEncoded date : UTC 2017-07-11 22:27:38Writing application : mkvmerge v13.0.0 ('The Juggler') 64bitWriting library : libebml v1.3.4 + libmatroska v1.4.5DURATION : 02:21:09.351000000NUMBER_OF_FRAMES : 243163NUMBER_OF_BYTES : 101632208_STATISTICS_WRITING_APP : mkvmerge v13.0.0 ('The Juggler') 64bit_STATISTICS_WRITING_DATE_UTC : 2017-07-11 22:27:38_STATISTICS_TAGS : BPS DURATION NUMBER_OF_FRAMES NUMBER_OF_BYTES

VideoID : 2Format : AVCFormat/Info : Advanced Video CodecFormat profile : [email protected] settings, CABAC : YesFormat settings, ReFrames : 2 framesFormat settings, GOP : M=3, N=30Codec ID : V_MPEG4/ISO/AVCDuration : 2h 21mnBit rate : 2 000 KbpsWidth : 1 920 pixelsHeight : 1 080 pixelsDisplay aspect ratio : 16:9Frame rate mode : ConstantFrame rate : 23.976 fpsColor space : YUVChroma subsampling : 4:2:0Bit depth : 8 bitsScan type : ProgressiveBits/(Pixel*Frame) : 0.040Stream size : 1.97 GiB (79%)Language : RussianDefault : YesForced : No

Audio #1ID : 1Format : AC-3Format/Info : Audio Coding 3Mode extension : CM (complete main)Format settings, Endianness : BigCodec ID : A_AC3Duration : 2h 21mnBit rate mode : ConstantBit rate : 384 KbpsChannel(s) : 2 channelsChannel positions : Front: L RSampling rate : 48.0 KHzBit depth : 16 bitsCompression mode : LossyStream size : 388 MiB (15%)Title : Очищенный!Language : RussianDefault : YesForced : No

Audio #2ID : 3Format : AC-3Format/Info : Audio Coding 3Mode extension : CM (complete main)Format settings, Endianness : BigCodec ID : A_AC3Duration : 2h 21mnBit rate mode : ConstantBit rate : 96.0 KbpsChannel(s) : 2 channelsChannel positions : Front: L RSampling rate : 44.1 KHzBit depth : 16 bitsCompression mode : LossyStream size : 96.9 MiB (4%)Language : EnglishDefault : NoForced : No

Скачать Чудо-женщина через торрент http://i92.fastpic.ru/big/2017/0606/b3/95d7080136e157436d3cd279b39673b3.jpg Скачать фильм Чудо-женщина через торрент бесплантно в хорошем качестве Описание:Перед тем как стать Чудо-Женщиной, она была Дианой — принцессой амазонок, обученной быть непобедимой воительницей.И когда на ... 2017-07-12 07:59 9.6 10 35

Loading...

Loading...

% Раздел Тема Автор DL S | L
3D Фильмы [ 20.57 GB ] Чудо-женщина в 3Д / Wonder Woman 3D [2017 Военный BDrip 1080p] DUB / OverUnder / Вертикальная стереопара serega768 Скачать
Фильмы (HD 720p, 1080p) (48-60 fps) [ 6.39 GB ] Чудо-женщина / Wonder Woman [2017 военный BDRip 720p 60 fps от еnvy / NNNB] DUB еnvy Скачать
Фильмы (Blu-ray, BD-Remux, HDDVD) [ 25.84 GB ] Чудо-женщина / Wonder Woman [2017 BD Remux 1080p] DUB [] bober100 Скачать
Фильмы 2017 [DVDrip, WEB-DLRip, HDrip] (DUB, MVO) [ 1.46 GB ] Чудо-женщина / Wonder Woman [2017 BDRip] - [] Twi7ter Скачать
Фильмы [HD 720p, 1080p] (Хороший звук DUB, MVO) [ 10.25 GB ] Чудо-женщина / Wonder Woman [2017 BDRip 1080p] potroks Скачать
Фильмы [HD 720p, 1080p] (Хороший звук DUB, MVO) [ 5.76 GB ] Чудо-женщина / Wonder Woman [2017 BDRip 720p] potroks Скачать
3D Фильмы [ 12.54 GB ] Чудо-женщина в 3Д / Wonder Woman 3D [2017 Военный BDRip 1080p] Dub / Вертикальная анаморфная стереопара sheker187 Скачать

Рекламный пират

12-07-2017 08:00 Чудо-женщина Скачать торрент  

Цитата:

Рекламы нет, [Звук TS - Очищенный] + не обрезанная картинка

12-07-2017 08:55 Чудо-женщина Скачать торрент  

звук хорошо почистил!

12-07-2017 13:25 Чудо-женщина Скачать торрент  

Опа, качаю. Буду смотреть уже третий раз. На Галь Гадот можно любоваться бесконечно))

19-07-2017 07:22 Чудо-женщина Скачать торрент  

еслип все ТС были такого качества !!! респект реализёру !!!

19-07-2017 20:06 Чудо-женщина Скачать торрент  

звук прям порадовал !!! не ожидал такова от TS! спасибо огромное

07-08-2017 06:48 Чудо-женщина Скачать торрент  

и в правду качество прям ОЧЕНЬ для webRip и TS!! Качайте, не пожалеете)

11-08-2017 18:13 Чудо-женщина Скачать торрент  

Шикарное качество, автору плюсиков

29-08-2017 19:49 Чудо-женщина Скачать торрент  

Pекламный агент PB

Дорогой пользователь! Огромная просьба, поблагодарите релизера, оцените раздачу и оставьте свои комментарий, если Вы скачали Чудо-женщина через торрент бесплатно! Внесите свою лепту в развитие PiratBit!

Комментировать посты могут только пользователи прошедшие не сложную регистрацию

Чудо-женщина через торрент Скачать бесплатно Чудо-женщина Чудо-женщина скачать торрент Чудо-женщина смотреть онлайн Cкачать фильм Чудо-женщина бесплатно Чудо-женщина скачать торрент в хорошем качестве Чудо-женщина смотреть онлайн бесплатно в хорошем качестве

Вы можете начинать темыВы можете отвечать на сообщенияВы не можете редактировать свои сообщенияВы не можете удалять свои сообщенияВы не можете голосовать в опросахВы не можете прикреплять файлы к сообщениямВы можете скачивать файлы


Смотрите также