Чудо на гудзоне скачать в хорошем качестве торрент


Фильм Чудо на Гудзоне (2016) скачать торрент в хорошем качестве WEBRip 1080р

Страна: США Производство: Warner Bros. Pictures, Village Roadshow Pictures, Malpaso Productions, Flashlight Films Год выпуска: 2016 Жанр: драма, биография Продолжительность: 01:35:46 Режиссер: Клинт Иствуд Авторы сценария: Тодд Комарники, Чесли Салленбергер, Джеффри Зеслоу В ролях: Том Хэнкс, Аарон Экхарт, Валери Махаффей, Делфи Хэррингтон, Майк О’Мэлли, Джейми Шеридан, Анна Ганн, Холт МакКэллани, Лора Линни

Спасение человеческих жизней может быть сопряжено с высокими рисками и впоследствии все равно могут преследовать серьезные догадки и невероятные утверждения. Даже если вы стали героем и спасли большое количество жизней, нет уверенности, что все ваши действия были сделаны верно. Так и в данной истории, которая потрясла весь мир, сделав практически невозможное и невероятное. Так как капитан рейса 1549 Чесли Салленбергер, смог создать беспредметное решение и позволить выжить большому количеству людей. Создавая основание для собственного жизненного нейтралитета. Но теперь над им нависла настоящая угроза, которая может разрушить полностью его жизнь. Практично выполнил аварийную посадку самолета A320.Сюжетом к данной киноленте послужила реальная история из жизни капитана авиалайнера, но и героя, которому удалось посадить самолет на воды холодного Гудзона. Ведь, совершая аварийную посадку самолета A320, он выполнил все маневры и предписания, но такому дол этого момента не учили ни в одном учебнике. Так как перестали работать два двигателя и на огромной высоте самолет мог просто разбиться и убить большое количество людей. Но все получилось и экипаж справился с задачей. А именно капитан рейса 1549 Чесли Салленбергер, смог сделать невероятное и спасти большое количество человеческих жизней. Но после этого всего над ним началось разбирательство и серьезный ход событий навсегда изменит его представление о жизни и создании своего счастья.Невероятный накал страстей и событий, которые показали насколько может быть безграничным мир и суждение о свободе действий, заставляющее понять, стоимость своей свободы и действия на перекос всем событиям. За это данная историческая драма, получает столь высокие и значительные 10 из 10, интригуя великолепно исполненными ролями и неординарным ракурсом показанных событий..

Перевод: Профессиональный (полное дублирование) | LineСубтитры: корейские (вшитые)

Качество: WEBRip 1080р Формат: МКV Видео кодек: AVC Аудио кодек: АС3 Видео: 1920x800 (2.40:1), 29.970 fps, MPEG-4 AVC ~4 442 kbps avg Аудио: 48 kHz, AC3 Dolby Digital, 2/0 (L,R) ch, ~192 kbps

Поиск торрент раздач, пожалуйста подождите!

Информация о торрент файле

Скачать торрент Торрент: Зарегистрирован Статус: v Проверено Просмотров: 3 306 Категория: драмы Общий размер: 3.83 GB

Поделитесь ссылкой на наш сайт с друзьями в соц.сетях ↓

mega-torrent.co

Скачать фильм Чудо на Гудзоне через торрент в хорошем качестве бесплатно 720p

piratbit.ru

Раздают: 5 [ 0 KB/s ]
Размер: 4.24 GB | Добавлен: 10 мес. назад | Торрент скачан:1079 раз
Реклама Дарим 3000 рублей за регистрацию, не упусти свой шанс получить шикарный бонус!!!

07-12-2016 07:23 Чудо на Гудзоне Скачать торрент  

Чудо на ГудзонеSully«Правдивая история о чудесном спасении» Год выпуска: 2016Страна: СШАЖанр: драма, биографияПродолжительность: 01:35:50Перевод: Профессиональный (дублированный) [iTunes]Режиссер: Клинт Иствуд / Clint EastwoodВ ролях: Том Хэнкс (Chesley «Sully» Sullenberger), Аарон Экхарт (Jeff Skiles), Валери Махаффей (Diane Higgins), Делфи Хэррингтон (Lucille Palmer), Майк О’Мэлли (Charles Porter), Джейми Шеридан (Ben Edwards), Анна Ганн (Elizabeth Davis), Холт МакКэллани (Mike Cleary), Ахмед Хуссэйн (Egyptian Driver), Лора Линни (Lorraine Sullenberger), Лаура Ланди Уил (Reporter #1), Онира Саттервайт (Reporter #2)Описание: Произошедшее 15 января 2009 года назовут «Чудом на Гудзоне». В тот день капитан рейса 1549 Чесли Салленбергер совершил аварийную посадку самолета A320 на холодные воды реки Гудзон в Нью-Йорке. При этом никто из находившихся на борту 155 человек не пострадал. Но, несмотря на все почести со стороны общественности и СМИ, было начато расследование, которое угрожало профессиональной репутации и многолетней карьере капитана Салли.Рейтинг: MPAA: PG-13 - Детям до 13 лет просмотр не желателенПремьера (мир): 2 сентября 2016Премьера (РФ): 8 сентября 2016, «Каро-Премьер»Качество: BDRip 720pФормат: MKVВидео: AVC, 1280x536, 23,976 fps, 5300 kbps 0,322 bppАудио: Русский / AC3 / 5.1 / 48 kHz / 384 kbps /Аудио: Английский / AC3 / 5.1 / 48 kHz / 640 kbps /Навигация по главам: естьx264 [info]: frame I:1332 Avg QP:11.91 size:113207x264 [info]: frame P:32573 Avg QP:13.36 size: 49296x264 [info]: frame B:103973 Avg QP:13.46 size: 19745

Format : MatroskaFormat version : Version 4 / Version 2File size : 4.24 GiBDuration : 1h 35mnOverall bit rate : 6 326 KbpsMovie name : Чудо на Гудзоне. (Tonik)Encoded date : UTC 2016-12-07 05:07:12Writing application : mkvmerge v7.1.0 ('Good Love') 64bit built on Jul 27 2014 13:06:55Writing library : libebml v1.3.0 + libmatroska v1.4.1DURATION : 01:31:55.557000000NUMBER_OF_FRAMES : 1157NUMBER_OF_BYTES : 78428_STATISTICS_WRITING_APP : mkvmerge v7.1.0 ('Good Love') 64bit built on Jul 27 2014 13:06:55_STATISTICS_WRITING_DATE_UTC : 2016-12-07 05:07:12_STATISTICS_TAGS : BPS DURATION NUMBER_OF_FRAMES NUMBER_OF_BYTES

VideoID : 1Format : AVCFormat/Info : Advanced Video CodecFormat profile : [email protected] settings, CABAC : YesFormat settings, ReFrames : 12 framesCodec ID : V_MPEG4/ISO/AVCBit rate : 5 300 KbpsWidth : 1 280 pixelsHeight : 536 pixelsDisplay aspect ratio : 2.40:1Frame rate mode : VariableOriginal frame rate : 23.976 fpsColor space : YUVChroma subsampling : 4:2:0Bit depth : 8 bitsScan type : ProgressiveBits/(Pixel*Frame) : 0.322Writing library : x264 core 148 r2665kMod a01e339Encoding settings : cabac=1 / ref=12 / deblock=1:-3:-3 / analyse=0x3:0x133 / me=umh / subme=11 / psy=1 / fade_compensate=0.00 / psy_rd=1.05:0.00 / mixed_ref=1 / me_range=32 / chroma_me=1 / trellis=2 / 8x8dct=1 / cqm=0 / deadzone=21,11 / fast_pskip=0 / chroma_qp_offset=-2 / threads=17 / lookahead_threads=2 / sliced_threads=0 / nr=0 / decimate=0 / interlaced=0 / bluray_compat=0 / constrained_intra=0 / fgo=0 / bframes=8 / b_pyramid=2 / b_adapt=2 / b_bias=0 / direct=3 / weightb=1 / open_gop=0 / weightp=2 / keyint=240 / keyint_min=24 / scenecut=40 / intra_refresh=0 / rc=2pass / mbtree=0 / bitrate=5300 / ratetol=1.0 / qcomp=0.70 / qpmin=0 / qpmax=69 / qpstep=4 / cplxblur=20.0 / qblur=0.5 / ip_ratio=1.20 / pb_ratio=1.20 / aq=3:0.85Language : EnglishDefault : YesForced : NoDURATION : 01:35:50.662000000NUMBER_OF_FRAMES : 137878NUMBER_OF_BYTES : 3809493736_STATISTICS_WRITING_APP : mkvmerge v7.1.0 ('Good Love') 64bit built on Jul 27 2014 13:06:55_STATISTICS_WRITING_DATE_UTC : 2016-12-07 05:07:12_STATISTICS_TAGS : BPS DURATION NUMBER_OF_FRAMES NUMBER_OF_BYTES

Audio #1ID : 2Format : AC-3Format/Info : Audio Coding 3Mode extension : CM (complete main)Format settings, Endianness : BigCodec ID : A_AC3Duration : 1h 35mnBit rate mode : ConstantBit rate : 384 KbpsChannel(s) : 6 channelsChannel positions : Front: L C R, Side: L R, LFESampling rate : 48.0 KHzBit depth : 16 bitsCompression mode : LossyStream size : 263 MiB (6%)Title : iTunesLanguage : RussianDefault : YesForced : No

Audio #2ID : 3Format : AC-3Format/Info : Audio Coding 3Mode extension : CM (complete main)Format settings, Endianness : BigCodec ID : A_AC3Duration : 1h 35mnBit rate mode : ConstantBit rate : 640 KbpsChannel(s) : 6 channelsChannel positions : Front: L C R, Side: L R, LFESampling rate : 48.0 KHzBit depth : 16 bitsCompression mode : LossyStream size : 439 MiB (10%)Language : EnglishDefault : NoForced : No

Text #1ID : 4Format : UTF-8Codec ID : S_TEXT/UTF8Codec ID/Info : UTF-8 Plain TextTitle : ForcedLanguage : RussianDefault : YesForced : No

Text #2ID : 5Format : UTF-8Codec ID : S_TEXT/UTF8Codec ID/Info : UTF-8 Plain TextLanguage : RussianDefault : NoForced : No

Text #3ID : 6Format : UTF-8Codec ID : S_TEXT/UTF8Codec ID/Info : UTF-8 Plain TextLanguage : EnglishDefault : NoForced : No

Menu00:00:00.000 : en:00:00:00.00000:11:12.505 : en:00:11:12.50500:18:06.168 : en:00:18:06.16800:29:57.921 : en:00:29:57.92100:38:55.416 : en:00:38:55.41600:49:20.749 : en:00:49:20.74901:00:50.856 : en:01:00:50.85601:08:16.384 : en:01:08:16.38401:18:09.810 : en:01:18:09.81001:26:59.798 : en:01:26:59.798

Скриншоты            Скачать Чудо на Гудзоне через торрент http://i83.fastpic.ru/big/2016/1207/c8/141fed9bc7bfdcd7e64200e8c530d0c8.png Скачать фильм Чудо на Гудзоне через торрент бесплантно в хорошем качестве Описание: Произошедшее 15 января 2009 года назовут «Чудом на Гудзоне». В тот день капитан рейса 1549 Чесли Салленбергер совершил аварийную ... 2016-12-07 07:23 9.5 10 17

Loading...

Loading...

% Раздел Тема Автор DL S | L
Ultra HD (UHD: 2K, 4K, 8K) — видео сверхвысокой чёткости [ 45.48 GB ] Чудо на Гудзоне / Sully [2016 биография UHD BDRemux 2160p] DUB [] bober100 Скачать
Фильмы с авторской озвучкой [ 2.01 GB ] Чудо на Гудзоне / Sully [2016 биография BDRip] [AVO] killermax2013 Скачать
Ultra HD (UHD: 2K, 4K, 8K) — видео сверхвысокой чёткости [ 44.03 GB ] Чудо на Гудзоне / Sully [2016 биография UHDWEBRip 2160p] [] killermax2013 Скачать
Фильмы 2016 [DVDrip, WEB-DLRip, HDrip] (DUB, MVO) [ 1.42 GB ] Чудо на Гудзоне / Sully [2016 биография BDRip] - Twi7ter Скачать
Фильмы (Blu-ray, BD-Remux, HDDVD) [ 32.85 GB ] Чудо на Гудзоне / Sully [2016 биография Blu-ray disc 1080p CEE] Dub + Sub Rus + Original Eng voovaz Скачать
Фильмы 2016 [DVDrip, WEB-DLRip, HDrip] (DUB, MVO) [ 1.46 GB ] Чудо на Гудзоне / Sully [2016 биография BDRip] - [] Twi7ter Скачать
Фильмы [HD 720p, 1080p] (Хороший звук DUB, MVO) [ 8.19 GB ] Чудо на Гудзоне / Sully [2016 биография BDRip 1080p] - -Lexx- Скачать

Рекламный пират

07-12-2016 10:09 Чудо на Гудзоне Скачать торрент  

Это нормально?

07-12-2016 13:05 Чудо на Гудзоне Скачать торрент  

Demon83666 писал(а):

Это нормально? у меня также. с утра качается с такой скоростью. а отдача от 1.5 до 3.5 мб/с

Дорогой пользователь! Огромная просьба, поблагодарите релизера, оцените раздачу и оставьте свои комментарий, если Вы скачали Чудо на Гудзоне через торрент бесплатно! Внесите свою лепту в развитие PiratBit!

Комментировать посты могут только пользователи прошедшие не сложную регистрацию

Чудо на Гудзоне через торрент Скачать бесплатно Чудо на Гудзоне Чудо на Гудзоне скачать торрент Чудо на Гудзоне смотреть онлайн Cкачать фильм Чудо на Гудзоне бесплатно Чудо на Гудзоне скачать торрент в хорошем качестве Чудо на Гудзоне смотреть онлайн бесплатно в хорошем качестве

Вы не можете начинать темыВы не можете отвечать на сообщенияВы не можете редактировать свои сообщенияВы не можете удалять свои сообщенияВы не можете голосовать в опросахВы не можете прикреплять файлы к сообщениямВы можете скачивать файлы

Скачать фильм Чудо на Гудзоне через торрент в хорошем качестве бесплатно HDRip

piratbit.ru

Раздают: 3 [ 0 KB/s ]
Размер: 1.46 GB | Добавлен: 10 мес. назад | Торрент скачан:656 раз
Реклама Дарим 3000 рублей за регистрацию, не упусти свой шанс получить шикарный бонус!!!

07-12-2016 05:21 Чудо на Гудзоне Скачать торрент  

Чудо на Гудзоне / Sully Год выпуска: 2016Страна: СШАЖанр: драма, биография

Продолжительность: 01:35:50Перевод: Дубляж - [Лицензия / iTunes]Субтитры: Русские форсированные (отдельно)

Режиссер: Клинт ИствудВ ролях: Том Хэнкс (Chesley «Sully» Sullenberger), Аарон Экхарт (Jeff Skiles), Валери Махаффей (Diane Higgins), Делфи Хэррингтон (Lucille Palmer), Майк О’Мэлли (Charles Porter), Джейми Шеридан (Ben Edwards), Анна Ганн (Elizabeth Davis), Холт МакКэллани (Mike Cleary), Ахмед Хуссэйн (Egyptian Driver), Лора Линни (Lorraine Sullenberger), Лаура Ланди Уил (Reporter #1), Онира Саттервайт (Reporter #2)Описание: Произошедшее 15 января 2009 года назовут «Чудом на Гудзоне». В тот день капитан рейса 1549 Чесли Салленбергер совершил аварийную посадку самолета A320 на холодные воды реки Гудзон в Нью-Йорке. При этом никто из находившихся на борту 155 человек не пострадал. Но, несмотря на все почести со стороны общественности и СМИ, было начато расследование, которое угрожало профессиональной репутации и многолетней карьере капитана Салли.Рейтинг: MPAA: PG-13 - Детям до 13 лет просмотр не желателенКачество: HDRipФормат: AVIВидео: XviD, 720x304 (2.35:1), 1789 kbps, 23,976 fps, 0,341 bppАудио: AC3 / 5.1 / 48 kHz / 384 kbps /Релиз от: MegaPeerGeneralComplete name : E:\Torrent\film\Sully.2016.HDRip.1.46Gb.MegaPeer\Sully.2016.HDRip.1.46Gb.MegaPeer.aviFormat : AVIFormat/Info : Audio Video InterleaveFile size : 1.46 GiBDuration : 1 h 35 minOverall bit rate : 2 181 kb/s

VideoID : 0Format : MPEG-4 VisualFormat profile : Advanced [email protected] settings, BVOP : 1Format settings, QPel : NoFormat settings, GMC : No warppointsFormat settings, Matrix : CustomCodec ID : XVIDCodec ID/Hint : XviDDuration : 1 h 35 minBit rate : 1 790 kb/sWidth : 720 pixelsHeight : 304 pixelsDisplay aspect ratio : 2.35:1Frame rate : 23.976 (24000/1001) FPSColor space : YUVChroma subsampling : 4:2:0Bit depth : 8 bitsScan type : ProgressiveCompression mode : LossyBits/(Pixel*Frame) : 0.341Stream size : 1.20 GiB (82%)Writing library : XviD 73

AudioID : 1Format : AC-3Format/Info : Audio Coding 3Mode extension : CM (complete main)Format settings, Endianness : BigCodec ID : 2000Duration : 1 h 35 minBit rate mode : ConstantBit rate : 384 kb/sChannel(s) : 6 channelsChannel positions : Front: L C R, Side: L R, LFESampling rate : 48.0 kHzFrame rate : 31.250 FPS (1536 spf)Compression mode : LossyStream size : 263 MiB (18%)Alignment : Aligned on interleavesInterleave, duration : 64 ms (1.53 video frames)Interleave, preload duration : 192 msTitle : iTunes

Скачать Чудо на Гудзоне через торрент http://i6.imageban.ru/out/2016/12/07/da91f6cdc9e217de6871b0259b8f735e.jpg Скачать фильм Чудо на Гудзоне через торрент бесплантно в хорошем качестве Описание: Произошедшее 15 января 2009 года назовут «Чудом на Гудзоне». В тот день капитан рейса 1549 Чесли Салленбергер совершил аварийную ... 2016-12-07 05:21 9.2 10 22

Loading...

Loading...

% Раздел Тема Автор DL S | L
Ultra HD (UHD: 2K, 4K, 8K) — видео сверхвысокой чёткости [ 45.48 GB ] Чудо на Гудзоне / Sully [2016 биография UHD BDRemux 2160p] DUB [] bober100 Скачать
Фильмы с авторской озвучкой [ 2.01 GB ] Чудо на Гудзоне / Sully [2016 биография BDRip] [AVO] killermax2013 Скачать
Ultra HD (UHD: 2K, 4K, 8K) — видео сверхвысокой чёткости [ 44.03 GB ] Чудо на Гудзоне / Sully [2016 биография UHDWEBRip 2160p] [] killermax2013 Скачать
Фильмы 2016 [DVDrip, WEB-DLRip, HDrip] (DUB, MVO) [ 1.42 GB ] Чудо на Гудзоне / Sully [2016 биография BDRip] - Twi7ter Скачать
Фильмы (Blu-ray, BD-Remux, HDDVD) [ 32.85 GB ] Чудо на Гудзоне / Sully [2016 биография Blu-ray disc 1080p CEE] Dub + Sub Rus + Original Eng voovaz Скачать
Фильмы 2016 [DVDrip, WEB-DLRip, HDrip] (DUB, MVO) [ 1.46 GB ] Чудо на Гудзоне / Sully [2016 биография BDRip] - [] Twi7ter Скачать
Фильмы [HD 720p, 1080p] (Хороший звук DUB, MVO) [ 8.19 GB ] Чудо на Гудзоне / Sully [2016 биография BDRip 1080p] - -Lexx- Скачать

Рекламный пират

Дорогой пользователь! Огромная просьба, поблагодарите релизера, оцените раздачу и оставьте свои комментарий, если Вы скачали Чудо на Гудзоне через торрент бесплатно! Внесите свою лепту в развитие PiratBit!

Комментировать посты могут только пользователи прошедшие не сложную регистрацию

Чудо на Гудзоне через торрент Скачать бесплатно Чудо на Гудзоне Чудо на Гудзоне скачать торрент Чудо на Гудзоне смотреть онлайн Cкачать фильм Чудо на Гудзоне бесплатно Чудо на Гудзоне скачать торрент в хорошем качестве Чудо на Гудзоне смотреть онлайн бесплатно в хорошем качестве

Вы не можете начинать темыВы не можете отвечать на сообщенияВы не можете редактировать свои сообщенияВы не можете удалять свои сообщенияВы не можете голосовать в опросахВы не можете прикреплять файлы к сообщениямВы можете скачивать файлы

Скачать фильм Чудо на Гудзоне через торрент в хорошем качестве бесплатно BDRip-AVC

GeneralUnique ID : 209861863696381333960991019731741536181 (0x9DE1ECBC4534B668B8A2B3E76DFB6FB5)Complete name : D:\download\Sully.2016.BDRip-AVC by schultz R.G.Resident.mkvFormat : MatroskaFormat version : Version 4 / Version 2File size : 1.95 GiBDuration : 1 h 35 minOverall bit rate : 2 912 kb/sEncoded date : UTC 2016-12-07 21:03:25Writing application : mkvmerge v8.9.0 ('Father Daughter') 64bitWriting library : libebml v1.3.3 + libmatroska v1.4.4

VideoID : 1Format : AVCFormat/Info : Advanced Video CodecFormat profile : [email protected] settings, CABAC : YesFormat settings, ReFrames : 12 framesCodec ID : V_MPEG4/ISO/AVCDuration : 1 h 35 minBit rate : 2 078 kb/sWidth : 1 024 pixelsHeight : 428 pixelsDisplay aspect ratio : 2.40:1Frame rate mode : ConstantFrame rate : 23.976 (23976/1000) FPSColor space : YUVChroma subsampling : 4:2:0Bit depth : 8 bitsScan type : ProgressiveBits/(Pixel*Frame) : 0.198Stream size : 1.39 GiB (71%)Writing library : x264 core 146 r2538 121396cEncoding settings : cabac=1 / ref=12 / deblock=1:-3:-3 / analyse=0x3:0x113 / me=umh / subme=11 / psy=1 / psy_rd=1.00:0.00 / mixed_ref=1 / me_range=48 / chroma_me=1 / trellis=2 / 8x8dct=1 / cqm=0 / deadzone=21,11 / fast_pskip=0 / chroma_qp_offset=-2 / threads=12 / lookahead_threads=3 / sliced_threads=0 / nr=0 / decimate=0 / interlaced=0 / bluray_compat=0 / constrained_intra=0 / bframes=11 / b_pyramid=2 / b_adapt=2 / b_bias=0 / direct=3 / weightb=1 / open_gop=0 / weightp=2 / keyint=240 / keyint_min=23 / scenecut=40 / intra_refresh=0 / rc_lookahead=40 / rc=2pass / mbtree=1 / bitrate=2078 / ratetol=1.0 / qcomp=0.60 / qpmin=0 / qpmax=69 / qpstep=4 / cplxblur=20.0 / qblur=0.5 / vbv_maxrate=50000 / vbv_bufsize=62500 / nal_hrd=none / filler=0 / ip_ratio=1.40 / aq=1:1.00Language : EnglishDefault : YesForced : No

Audio #1ID : 2Format : AC-3Format/Info : Audio Coding 3Mode extension : CM (complete main)Format settings, Endianness : BigCodec ID : A_AC3Duration : 1 h 35 minBit rate mode : ConstantBit rate : 384 kb/sChannel(s) : 6 channelsChannel positions : Front: L C R, Side: L R, LFESampling rate : 48.0 kHzFrame rate : 31.250 FPS (1536 spf)Compression mode : LossyStream size : 263 MiB (13%)Language : RussianDefault : YesForced : No

Audio #2ID : 3Format : AC-3Format/Info : Audio Coding 3Mode extension : CM (complete main)Format settings, Endianness : BigCodec ID : A_AC3Duration : 1 h 35 minBit rate mode : ConstantBit rate : 448 kb/sChannel(s) : 6 channelsChannel positions : Front: L C R, Side: L R, LFESampling rate : 48.0 kHzFrame rate : 31.250 FPS (1536 spf)Compression mode : LossyStream size : 307 MiB (15%)Language : EnglishDefault : NoForced : No

Text #1ID : 4Format : UTF-8Codec ID : S_TEXT/UTF8Codec ID/Info : UTF-8 Plain TextDuration : 1 h 28 minBit rate : 4 b/sCount of elements : 45Stream size : 2.69 KiB (0%)Title : ForcedLanguage : RussianDefault : YesForced : No

Text #2ID : 5Format : UTF-8Codec ID : S_TEXT/UTF8Codec ID/Info : UTF-8 Plain TextDuration : 1 h 31 minBit rate : 112 b/sCount of elements : 1157Stream size : 76.1 KiB (0%)Title : FullLanguage : RussianDefault : NoForced : No

Text #3ID : 6Format : UTF-8Codec ID : S_TEXT/UTF8Codec ID/Info : UTF-8 Plain TextDuration : 1 h 31 minBit rate : 71 b/sCount of elements : 1524Stream size : 48.3 KiB (0%)Title : FullLanguage : EnglishDefault : NoForced : No

Text #4ID : 7Format : UTF-8Codec ID : S_TEXT/UTF8Codec ID/Info : UTF-8 Plain TextDuration : 1 h 31 minBit rate : 79 b/sCount of elements : 1633Stream size : 53.4 KiB (0%)Title : SDHLanguage : EnglishDefault : NoForced : No

Menu00:00:00.000 : en:100:03:42.806 : en:200:07:22.108 : en:300:11:41.492 : en:400:16:04.046 : en:500:20:29.978 : en:600:25:36.034 : en:700:28:45.223 : en:800:34:19.974 : en:900:37:17.568 : en:1000:40:45.817 : en:1100:43:46.831 : en:1200:48:13.931 : en:1300:51:28.458 : en:1400:54:45.696 : en:1500:59:50.751 : en:1601:03:44.109 : en:1701:08:01.324 : en:1801:11:43.462 : en:1901:13:46.126 : en:2001:17:03.406 : en:2101:20:01.375 : en:2201:22:32.234 : en:2301:25:10.642 : en:24

piratbit.ru

Чудо на Гудзоне (2016) скачать торрент в хорошем качестве бесплатно

Описание фильма "Чудо на Гудзоне"

Чудо на Гудзоне - это предстоящая американская биографическая драма от именитого американского режиссера Клинта Иствуда, автора известных фильмов "Малышка на миллион" и "Гран Торино". Помимо известного режиссера, картина может похвастаться не менее талантливым Томом Хэнксом в главной роли.

Пилоты гражданских самолетов, каждый раз вылетая в небо, берут огромную ответственность на себя, ведь за безопасность своих пассажиров в течение всего полета, отвечают именно они. Главный герой фильма Чудо на Гудзоне об этом знает не понаслышке. Чесли Салинбергер вот уже 40 лет работает пилотом, и большую часть года находится в небе. Этот фильм повествует об одном злополучном рабочем дне пилота, когда он чуть не погиб.

Это произошло в середине января 2009 года. Чесли осуществил вылет в Нью-Йорк на самолете A320. Тогда на борту в общей сложности находилось 155 человек, включая двух пилотов и весь экипаж. Все они оказались на грани гибели, когда неожиданно отказали оба двигателя. Салли, как его называли друзья и коллеги, принял мужественное решение. Он собирается посадить самолет прямо на воды Гудзона. Впрочем, другого выбора и не было, ведь, чтобы дотянуть до аэропорта, не хватило высоты. В результате пилот смог совершить удачную экстренную посадку, и никто не пострадал. Общественность считает Салли народным героем, но позже оказываются, что представители летной комиссии совершенно иного мнения. Они утверждают, что пилот совершил грубую ошибку, поставив жизни полутора сотен человек под угрозу, тем самым становясь чуть ли не преступником.

Картина Клинта Иствуда обещает быть действительно интересной, и рекомендуется любителям биографических драм. Мировая премьера ленты состоится 8 сентября 2016 года.

Скачать Чудо на Гудзоне через торрент

Сиды Качество Перевод Размер Видео Аудио
Скачать Загрузка... BDRemux Дублированный | Лицензия 48,83 Гб MPEG-H HEVC HDR Video, 3840x2160, 60.0 Mbit/s, 23.976 fps 48 kHz, AC3, 5.1, 640 kbps | Оригинал |
Скачать Загрузка... BDRemux Дублированный | Лицензия 22,30 Гб MPEG-4 AVC, 1920x1080, 23.7 Mbit/s, 23.976 fps 48 kHz, TrueHD, 7.1, 6798 kbps | Оригинал |
Скачать Загрузка... BDRip1080 Дублированный [Лицензия] 35,28 Гб MPEG-4 AVC Video 24570 kbps 1080p / 23,976 fps / 16:9 / High Profile 4.1 Dolby Digital Audio Thai 448 kbps 5.1 / 48 kHz / 448 kbps / DN -4dB
Скачать Загрузка... BDRip1080 Дублированный | Лицензия 9,98 Гб MPEG-4 AVC, 1920x804, 12.8 Мbit/s, 23.976 fps 48 kHz, AC3, 5.1, 640 kbps | Оригинал |
Скачать Загрузка... WEB-DL Профессиональный (дублированный) BD CEE 780,85 Мб MPEG-4 AVC, 784x328 (2.40:1), 23.976 fps, ~1019 kbps avg, 0.165 bit/pixel 48 kHz, AAC HE, 2/0 (L,R) ch, ~64 kbps avg
Скачать Загрузка... WEB-DL Дублированный 22,98 Гб 3840x1600, 23.976c fps, HEVC, HDR, ~24.5 Mbps, 10bit Eng, 48 kHz/24-bit, Dolby Atmos TrueHD 7.1, ~6798 kbps |
Скачать Загрузка... DVD Дублированный 6,01 Гб MPEG-2, AC3 5.1, 448 Кбит/сек [Русский - дублированный]

У нас вы можете легко скачать Чудо на Гудзоне через торрент бесплатно в хорошем качестве, оставляйте комментарии и делитесь впечатлениями!

kino.kak.to

Скачать фильм Чудо на Гудзоне через торрент в хорошем качестве бесплатно WEBRip

piratbit.ru

Раздают: 2 [ 0 KB/s ]
Размер: 1.37 GB | Добавлен: 11 мес. назад | Торрент скачан:1588 раз
Реклама Дарим 3000 рублей за регистрацию, не упусти свой шанс получить шикарный бонус!!!

24-11-2016 20:47 Чудо на Гудзоне Скачать торрент  

Чудо на Гудзоне / Sully

Год выпуска: 2016Страна: СШАЖанр: драма, биографияПродолжительность: 01:35:53Перевод: Дублированное [Line]Субтитры: корейские (вшитые)

Режиссер: Клинт Иствуд

В ролях:

Том Хэнкс, Аарон Экхарт, Валери Махаффей, Делфи Хэррингтон, Майк О’Мэлли, Джейми Шеридан, Анна Ганн, Холт МакКэллани, Ахмед Хуссэйн, Лора Линни

Описание:

Произошедшее 15 января 2009 года назовут «Чудом на Гудзоне». В тот день капитан рейса 1549 Чесли Салленбергер совершил аварийную посадку самолета A320 на холодные воды реки Гудзон в Нью-Йорке. При этом никто из находившихся на борту 155 человек не пострадал. Но, несмотря на все почести со стороны общественности и СМИ, было начато расследование, которое угрожало профессиональной репутации и многолетней карьере капитана Салли.

Качество: WEBRipФормат: AVIВидео кодек: XviDАудио кодек: AC3

Видео: 720x304 (2.37:1), 30 fps, XviD build 50 ~1644 kbps avg, 0.25 bit/pixelАудио#1: 48 kHz, AC3 Dolby Digital, 2/0 (L,R) ch, ~384 kbps

Скачать Чудо на Гудзоне через торрент http://pic1.pb.wtf/images/11/u6n34.jpg Скачать фильм Чудо на Гудзоне через торрент бесплантно в хорошем качестве Описание: Произошедшее 15 января 2009 года назовут «Чудом на Гудзоне». В тот день капитан рейса 1549 Чесли Салленбергер совершил аварийную ... 2016-11-24 20:47 9.8 10 42

Loading...

Loading...

% Раздел Тема Автор DL S | L
Ultra HD (UHD: 2K, 4K, 8K) — видео сверхвысокой чёткости [ 45.48 GB ] Чудо на Гудзоне / Sully [2016 биография UHD BDRemux 2160p] DUB [] bober100 Скачать
Фильмы с авторской озвучкой [ 2.01 GB ] Чудо на Гудзоне / Sully [2016 биография BDRip] [AVO] killermax2013 Скачать
Ultra HD (UHD: 2K, 4K, 8K) — видео сверхвысокой чёткости [ 44.03 GB ] Чудо на Гудзоне / Sully [2016 биография UHDWEBRip 2160p] [] killermax2013 Скачать
Фильмы 2016 [DVDrip, WEB-DLRip, HDrip] (DUB, MVO) [ 1.42 GB ] Чудо на Гудзоне / Sully [2016 биография BDRip] - Twi7ter Скачать
Фильмы (Blu-ray, BD-Remux, HDDVD) [ 32.85 GB ] Чудо на Гудзоне / Sully [2016 биография Blu-ray disc 1080p CEE] Dub + Sub Rus + Original Eng voovaz Скачать
Фильмы 2016 [DVDrip, WEB-DLRip, HDrip] (DUB, MVO) [ 1.46 GB ] Чудо на Гудзоне / Sully [2016 биография BDRip] - [] Twi7ter Скачать
Фильмы [HD 720p, 1080p] (Хороший звук DUB, MVO) [ 8.19 GB ] Чудо на Гудзоне / Sully [2016 биография BDRip 1080p] - -Lexx- Скачать

Рекламный пират

05-12-2016 13:51 Чудо на Гудзоне Скачать торрент  

В 1963г Ту-124 приводнился на Неву у Финляндского моста, все живы! Вот про это я бы посмотрел, а нюни Хэнкса в сад

Дорогой пользователь! Огромная просьба, поблагодарите релизера, оцените раздачу и оставьте свои комментарий, если Вы скачали Чудо на Гудзоне через торрент бесплатно! Внесите свою лепту в развитие PiratBit!

Комментировать посты могут только пользователи прошедшие не сложную регистрацию

Чудо на Гудзоне через торрент Скачать бесплатно Чудо на Гудзоне Чудо на Гудзоне скачать торрент Чудо на Гудзоне смотреть онлайн Cкачать фильм Чудо на Гудзоне бесплатно Чудо на Гудзоне скачать торрент в хорошем качестве Чудо на Гудзоне смотреть онлайн бесплатно в хорошем качестве

Вы можете начинать темыВы можете отвечать на сообщенияВы не можете редактировать свои сообщенияВы не можете удалять свои сообщенияВы не можете голосовать в опросахВы не можете прикреплять файлы к сообщениямВы можете скачивать файлы


Смотрите также