Черепашки ниндзя мультсериал скачать торрент в хорошем качестве hd 1080


Черепашки-ниндзя (2012) (Teenage Mutant Ninja Turtles)

Сезон 5 Показать сезон! 5 x 114 Эпизод 114 Показать эпизод! Просмотрен ? 5 x 113 Эпизод 113 Показать эпизод! Просмотрен ? 5 x 112 Эпизод 112 Показать эпизод! Просмотрен ? 5 x 111 Эпизод 111 Показать эпизод! Просмотрен ? 5 x 110 Эпизод 110 Показать эпизод! Просмотрен ? 5 x 109 Эпизод 109 Показать эпизод! Просмотрен ? 5 x 108 Эпизод 108 Показать эпизод! Просмотрен ? 5 x 107 Эпизод 107 Показать эпизод! Просмотрен ? 5 x 106 Эпизод 106 Показать эпизод! Просмотрен ? 5 x 105 Эпизод 105 Показать эпизод! Просмотрен ? 5 x 104 Эпизод 104 Показать эпизод! Просмотрен ? 5 x 103 Эпизод 103 Показать эпизод! Просмотрен ? 5 x 102 Эпизод 102 Показать эпизод! Просмотрен ? 5 x 101 Эпизод 101 Показать эпизод! Просмотрен ? 5 x 100 Эпизод 100 Показать эпизод! Просмотрен ? 5 x 99 Эпизод 99 Показать эпизод! Просмотрен ? 5 x 98 Эпизод 98 Показать эпизод! Просмотрен ? 5 x 97 Эпизод 97 Показать эпизод! Просмотрен ? 5 x 96 Эпизод 96 Показать эпизод! Просмотрен ? 5 x 95 Эпизод 95 Показать эпизод! Просмотрен ? 5 x 94 Эпизод 94 Показать эпизод! Просмотрен ? 5 x 93 Эпизод 93 Показать эпизод! Просмотрен ? 5 x 92 Эпизод 92 Показать эпизод! Просмотрен ? 5 x 91 Эпизод 91 Показать эпизод! Просмотрен ? 5 x 90 Эпизод 90 Показать эпизод! Просмотрен ? 5 x 89 Эпизод 89 Показать эпизод! Просмотрен ? 5 x 88 Эпизод 88 Показать эпизод! Просмотрен ? 5 x 87 Эпизод 87 Показать эпизод! Просмотрен ? 5 x 86 Эпизод 86 Показать эпизод! Просмотрен ? 5 x 85 Эпизод 85 Показать эпизод! Просмотрен ? 5 x 84 Эпизод 84 Показать эпизод! Просмотрен ? 5 x 83 Эпизод 83 Показать эпизод! Просмотрен ? 5 x 82 Эпизод 82 Показать эпизод! Просмотрен ? 5 x 81 Эпизод 81 Показать эпизод! Просмотрен ? 5 x 80 Эпизод 80 Показать эпизод! Просмотрен ? 5 x 79 Эпизод 79 Показать эпизод! Просмотрен ? 5 x 78 Эпизод 78 Показать эпизод! Просмотрен ? 5 x 77 Эпизод 77 Показать эпизод! Просмотрен ? 5 x 76 Эпизод 76 Показать эпизод! Просмотрен ? 5 x 75 Эпизод 75 Показать эпизод! Просмотрен ? 5 x 74 Эпизод 74 Показать эпизод! Просмотрен ? 5 x 73 Эпизод 73 Показать эпизод! Просмотрен ? 5 x 72 Эпизод 72 Показать эпизод! Просмотрен ? 5 x 71 Эпизод 71 Показать эпизод! Просмотрен ? 5 x 70 Эпизод 70 Показать эпизод! Просмотрен ? 5 x 69 Эпизод 69 Показать эпизод! Просмотрен ? 5 x 68 Эпизод 68 Показать эпизод! Просмотрен ? 5 x 67 Эпизод 67 Показать эпизод! Просмотрен ? 5 x 66 Эпизод 66 Показать эпизод! Просмотрен ? 5 x 65 Эпизод 65 Показать эпизод! Просмотрен ? 5 x 64 Эпизод 64 Показать эпизод! Просмотрен ? 5 x 63 Эпизод 63 Показать эпизод! Просмотрен ? 5 x 62 Эпизод 62 Показать эпизод! Просмотрен ? 5 x 61 Эпизод 61 Показать эпизод! Просмотрен ? 5 x 60 Эпизод 60 Показать эпизод! Просмотрен ? 5 x 59 Эпизод 59 Показать эпизод! Просмотрен ? 5 x 58 Эпизод 58 Показать эпизод! Просмотрен ? 5 x 57 Эпизод 57 Показать эпизод! Просмотрен ? 5 x 56 Эпизод 56 Показать эпизод! Просмотрен ? 5 x 55 Эпизод 55 Показать эпизод! Просмотрен ? 5 x 54 Эпизод 54 Показать эпизод! Просмотрен ? 5 x 53 Эпизод 53 Показать эпизод! Просмотрен ? 5 x 52 Эпизод 52 Показать эпизод! Просмотрен ? 5 x 51 Эпизод 51 Показать эпизод! Просмотрен ? 5 x 50 Эпизод 50 Показать эпизод! Просмотрен ? 5 x 49 Эпизод 49 Показать эпизод! Просмотрен ? 5 x 48 Эпизод 48 Показать эпизод! Просмотрен ? 5 x 47 Эпизод 47 Показать эпизод! Просмотрен ? 5 x 46 Эпизод 46 Показать эпизод! Просмотрен ? 5 x 45 Эпизод 45 Показать эпизод! Просмотрен ? 5 x 44 Эпизод 44 Показать эпизод! Просмотрен ? 5 x 43 Эпизод 43 Показать эпизод! Просмотрен ? 5 x 42 Эпизод 42 Показать эпизод! Просмотрен ? 5 x 41 Эпизод 41 Показать эпизод! Просмотрен ? 5 x 40 Эпизод 40 Показать эпизод! Просмотрен ? 5 x 39 Эпизод 39 Показать эпизод! Просмотрен ? 5 x 38 Эпизод 38 Показать эпизод! Просмотрен ? 5 x 37 Эпизод 37 Показать эпизод! Просмотрен ? 5 x 36 Эпизод 36 Показать эпизод! Просмотрен ? 5 x 35 Эпизод 35 Показать эпизод! Просмотрен ? 5 x 34 Эпизод 34 Показать эпизод! Просмотрен ? 5 x 33 Эпизод 33 Показать эпизод! Просмотрен ? 5 x 32 Эпизод 32 Показать эпизод! Просмотрен ? 5 x 31 Эпизод 31 Показать эпизод! Просмотрен ? 5 x 30 Эпизод 30 Показать эпизод! Просмотрен ? 5 x 29 Эпизод 29 Показать эпизод! Просмотрен ? 5 x 28 Эпизод 28 Показать эпизод! Просмотрен ? 5 x 27 Эпизод 27 Показать эпизод! Просмотрен ? 5 x 26 Эпизод 26 Показать эпизод! Просмотрен ? 5 x 25 Эпизод 25 Показать эпизод! Просмотрен ? 5 x 24 Эпизод 24 Показать эпизод! Просмотрен ? 5 x 23 Эпизод 23 Показать эпизод! Просмотрен ? 5 x 22 Эпизод 22 Показать эпизод! Просмотрен ? 5 x 21 Эпизод 21 Показать эпизод! Просмотрен ? 5 x 20 Эпизод 20 Показать эпизод! Просмотрен ? 5 x 19 Эпизод 19The Big Blowout Показать эпизод! Просмотрен 12 Ноя. 2017 5 x 18 Эпизод 18The Foot Walks Again! Показать эпизод! Просмотрен 12 Ноя. 2017 5 x 17 Эпизод 17Wanted: Bebop & Rocksteady Показать эпизод! Просмотрен 12 Ноя. 2017 5 x 16 Эпизод 16Monsters Among Us Показать эпизод! Просмотрен 11 Окт. 2017 5 x 15 Эпизод 15The Frankenstein Experiment Показать эпизод! Просмотрен 04 Окт. 2017 5 x 14 Эпизод 14The Crypt of Dracula Показать эпизод! Просмотрен 27 Сен. 2017 5 x 13 Эпизод 13The Curse of Savanti Romero Показать эпизод! Просмотрен 27 Сен. 2017 5 x 12 Эпизод 12Carmageddon! Показать эпизод! Просмотрен 22 Сен. 2017 5 x 11 Эпизод 11The Impossible Desert Показать эпизод! Просмотрен 22 Сен. 2017 5 x 10 Серия 10The Wasteland Warrior Показать эпизод! Просмотрен 22 Сен. 2017 5 x 09 Эпизод 9Lone Rat and Cubs Показать эпизод! Просмотрен 13 Авг. 2017 5 x 08 Эпизод 8Kagayake! Kintaro Показать эпизод! Просмотрен 06 Авг. 2017 5 x 07 Эпизод 7Osoroshi no Tabi Показать эпизод! Просмотрен 30 Июль 2017 5 x 06 Эпизод 6Yojimbo Показать эпизод! Просмотрен 23 Июль 2017 5 x 05 Серия 5When Worlds Collide Показать эпизод! Просмотрен 18 Июнь 2017 5 x 04 Эпизод 4End Times Показать эпизод! Просмотрен 09 Апрель 2017 5 x 03 Серия 3Heart of Evil Показать эпизод! Просмотрен 02 Апрель 2017 5 x 02 Эпизод 2The Forgotten Swordsman Показать эпизод! Просмотрен 26 Март 2017 5 x 01 Эпизод 1Scroll of the Demodragon Показать эпизод! Просмотрен 19 Март 2017

detskiy.fast-torrent.ru

Черепашки-ниндзя (2012) (Teenage Mutant Ninja Turtles)

Сезон 5 Показать сезон! 5 x 114 Эпизод 114 Показать эпизод! Просмотрен ? 5 x 113 Эпизод 113 Показать эпизод! Просмотрен ? 5 x 112 Эпизод 112 Показать эпизод! Просмотрен ? 5 x 111 Эпизод 111 Показать эпизод! Просмотрен ? 5 x 110 Эпизод 110 Показать эпизод! Просмотрен ? 5 x 109 Эпизод 109 Показать эпизод! Просмотрен ? 5 x 108 Эпизод 108 Показать эпизод! Просмотрен ? 5 x 107 Эпизод 107 Показать эпизод! Просмотрен ? 5 x 106 Эпизод 106 Показать эпизод! Просмотрен ? 5 x 105 Эпизод 105 Показать эпизод! Просмотрен ? 5 x 104 Эпизод 104 Показать эпизод! Просмотрен ? 5 x 103 Эпизод 103 Показать эпизод! Просмотрен ? 5 x 102 Эпизод 102 Показать эпизод! Просмотрен ? 5 x 101 Эпизод 101 Показать эпизод! Просмотрен ? 5 x 100 Эпизод 100 Показать эпизод! Просмотрен ? 5 x 99 Эпизод 99 Показать эпизод! Просмотрен ? 5 x 98 Эпизод 98 Показать эпизод! Просмотрен ? 5 x 97 Эпизод 97 Показать эпизод! Просмотрен ? 5 x 96 Эпизод 96 Показать эпизод! Просмотрен ? 5 x 95 Эпизод 95 Показать эпизод! Просмотрен ? 5 x 94 Эпизод 94 Показать эпизод! Просмотрен ? 5 x 93 Эпизод 93 Показать эпизод! Просмотрен ? 5 x 92 Эпизод 92 Показать эпизод! Просмотрен ? 5 x 91 Эпизод 91 Показать эпизод! Просмотрен ? 5 x 90 Эпизод 90 Показать эпизод! Просмотрен ? 5 x 89 Эпизод 89 Показать эпизод! Просмотрен ? 5 x 88 Эпизод 88 Показать эпизод! Просмотрен ? 5 x 87 Эпизод 87 Показать эпизод! Просмотрен ? 5 x 86 Эпизод 86 Показать эпизод! Просмотрен ? 5 x 85 Эпизод 85 Показать эпизод! Просмотрен ? 5 x 84 Эпизод 84 Показать эпизод! Просмотрен ? 5 x 83 Эпизод 83 Показать эпизод! Просмотрен ? 5 x 82 Эпизод 82 Показать эпизод! Просмотрен ? 5 x 81 Эпизод 81 Показать эпизод! Просмотрен ? 5 x 80 Эпизод 80 Показать эпизод! Просмотрен ? 5 x 79 Эпизод 79 Показать эпизод! Просмотрен ? 5 x 78 Эпизод 78 Показать эпизод! Просмотрен ? 5 x 77 Эпизод 77 Показать эпизод! Просмотрен ? 5 x 76 Эпизод 76 Показать эпизод! Просмотрен ? 5 x 75 Эпизод 75 Показать эпизод! Просмотрен ? 5 x 74 Эпизод 74 Показать эпизод! Просмотрен ? 5 x 73 Эпизод 73 Показать эпизод! Просмотрен ? 5 x 72 Эпизод 72 Показать эпизод! Просмотрен ? 5 x 71 Эпизод 71 Показать эпизод! Просмотрен ? 5 x 70 Эпизод 70 Показать эпизод! Просмотрен ? 5 x 69 Эпизод 69 Показать эпизод! Просмотрен ? 5 x 68 Эпизод 68 Показать эпизод! Просмотрен ? 5 x 67 Эпизод 67 Показать эпизод! Просмотрен ? 5 x 66 Эпизод 66 Показать эпизод! Просмотрен ? 5 x 65 Эпизод 65 Показать эпизод! Просмотрен ? 5 x 64 Эпизод 64 Показать эпизод! Просмотрен ? 5 x 63 Эпизод 63 Показать эпизод! Просмотрен ? 5 x 62 Эпизод 62 Показать эпизод! Просмотрен ? 5 x 61 Эпизод 61 Показать эпизод! Просмотрен ? 5 x 60 Эпизод 60 Показать эпизод! Просмотрен ? 5 x 59 Эпизод 59 Показать эпизод! Просмотрен ? 5 x 58 Эпизод 58 Показать эпизод! Просмотрен ? 5 x 57 Эпизод 57 Показать эпизод! Просмотрен ? 5 x 56 Эпизод 56 Показать эпизод! Просмотрен ? 5 x 55 Эпизод 55 Показать эпизод! Просмотрен ? 5 x 54 Эпизод 54 Показать эпизод! Просмотрен ? 5 x 53 Эпизод 53 Показать эпизод! Просмотрен ? 5 x 52 Эпизод 52 Показать эпизод! Просмотрен ? 5 x 51 Эпизод 51 Показать эпизод! Просмотрен ? 5 x 50 Эпизод 50 Показать эпизод! Просмотрен ? 5 x 49 Эпизод 49 Показать эпизод! Просмотрен ? 5 x 48 Эпизод 48 Показать эпизод! Просмотрен ? 5 x 47 Эпизод 47 Показать эпизод! Просмотрен ? 5 x 46 Эпизод 46 Показать эпизод! Просмотрен ? 5 x 45 Эпизод 45 Показать эпизод! Просмотрен ? 5 x 44 Эпизод 44 Показать эпизод! Просмотрен ? 5 x 43 Эпизод 43 Показать эпизод! Просмотрен ? 5 x 42 Эпизод 42 Показать эпизод! Просмотрен ? 5 x 41 Эпизод 41 Показать эпизод! Просмотрен ? 5 x 40 Эпизод 40 Показать эпизод! Просмотрен ? 5 x 39 Эпизод 39 Показать эпизод! Просмотрен ? 5 x 38 Эпизод 38 Показать эпизод! Просмотрен ? 5 x 37 Эпизод 37 Показать эпизод! Просмотрен ? 5 x 36 Эпизод 36 Показать эпизод! Просмотрен ? 5 x 35 Эпизод 35 Показать эпизод! Просмотрен ? 5 x 34 Эпизод 34 Показать эпизод! Просмотрен ? 5 x 33 Эпизод 33 Показать эпизод! Просмотрен ? 5 x 32 Эпизод 32 Показать эпизод! Просмотрен ? 5 x 31 Эпизод 31 Показать эпизод! Просмотрен ? 5 x 30 Эпизод 30 Показать эпизод! Просмотрен ? 5 x 29 Эпизод 29 Показать эпизод! Просмотрен ? 5 x 28 Эпизод 28 Показать эпизод! Просмотрен ? 5 x 27 Эпизод 27 Показать эпизод! Просмотрен ? 5 x 26 Эпизод 26 Показать эпизод! Просмотрен ? 5 x 25 Эпизод 25 Показать эпизод! Просмотрен ? 5 x 24 Эпизод 24 Показать эпизод! Просмотрен ? 5 x 23 Эпизод 23 Показать эпизод! Просмотрен ? 5 x 22 Эпизод 22 Показать эпизод! Просмотрен ? 5 x 21 Эпизод 21 Показать эпизод! Просмотрен ? 5 x 20 Эпизод 20 Показать эпизод! Просмотрен ? 5 x 19 Эпизод 19The Big Blowout Показать эпизод! Просмотрен 12 Ноя. 2017 5 x 18 Эпизод 18The Foot Walks Again! Показать эпизод! Просмотрен 12 Ноя. 2017 5 x 17 Эпизод 17Wanted: Bebop & Rocksteady Показать эпизод! Просмотрен 12 Ноя. 2017 5 x 16 Эпизод 16Monsters Among Us Показать эпизод! Просмотрен 11 Окт. 2017 5 x 15 Эпизод 15The Frankenstein Experiment Показать эпизод! Просмотрен 04 Окт. 2017 5 x 14 Эпизод 14The Crypt of Dracula Показать эпизод! Просмотрен 27 Сен. 2017 5 x 13 Эпизод 13The Curse of Savanti Romero Показать эпизод! Просмотрен 27 Сен. 2017 5 x 12 Эпизод 12Carmageddon! Показать эпизод! Просмотрен 22 Сен. 2017 5 x 11 Эпизод 11The Impossible Desert Показать эпизод! Просмотрен 22 Сен. 2017 5 x 10 Серия 10The Wasteland Warrior Показать эпизод! Просмотрен 22 Сен. 2017 5 x 09 Эпизод 9Lone Rat and Cubs Показать эпизод! Просмотрен 13 Авг. 2017 5 x 08 Эпизод 8Kagayake! Kintaro Показать эпизод! Просмотрен 06 Авг. 2017 5 x 07 Эпизод 7Osoroshi no Tabi Показать эпизод! Просмотрен 30 Июль 2017 5 x 06 Эпизод 6Yojimbo Показать эпизод! Просмотрен 23 Июль 2017 5 x 05 Серия 5When Worlds Collide Показать эпизод! Просмотрен 18 Июнь 2017 5 x 04 Эпизод 4End Times Показать эпизод! Просмотрен 09 Апрель 2017 5 x 03 Серия 3Heart of Evil Показать эпизод! Просмотрен 02 Апрель 2017 5 x 02 Эпизод 2The Forgotten Swordsman Показать эпизод! Просмотрен 26 Март 2017 5 x 01 Эпизод 1Scroll of the Demodragon Показать эпизод! Просмотрен 19 Март 2017

fast-torrent.ru

Черепашки-ниндзя (1, 2 сезон) Скачать Торрент

Teenage_Mutant_Ninja_Turtles_TV_2012_s01е01_rus[Nickelodeon]_DD5.1_x264_Nikolai.Baranov_WEB-DLRip-AVC_(720p).mp4 (598.46 MB) Teenage_Mutant_Ninja_Turtles_TV_2012_s01е01_rus[Nickelodeon]_DD5.1_x264_Nikolai.Baranov_WEB-DLRip-AVC_(720p).srt (20.88 kB) Teenage_Mutant_Ninja_Turtles_TV_2012_s01е02_rus[Nickelodeon]_DD5.1_x264_Nikolai.Baranov_WEB-DLRip-AVC_(720p).mp4 (636.51 MB) Teenage_Mutant_Ninja_Turtles_TV_2012_s01е02_rus[Nickelodeon]_DD5.1_x264_Nikolai.Baranov_WEB-DLRip-AVC_(720p).srt (22.40 kB) Teenage_Mutant_Ninja_Turtles_TV_2012_s01е03_rus[Nickelodeon]_DD5.1_x264_Nikolai.Baranov_WEB-DLRip-AVC_(720p).mp4 (602.40 MB) Teenage_Mutant_Ninja_Turtles_TV_2012_s01е03_rus[Nickelodeon]_DD5.1_x264_Nikolai.Baranov_WEB-DLRip-AVC_(720p).srt (25.36 kB) Teenage_Mutant_Ninja_Turtles_TV_2012_s01е04_rus[Nickelodeon]_DD5.1_x264_Nikolai.Baranov_WEB-DLRip-AVC_(720p).mp4 (600.52 MB) Teenage_Mutant_Ninja_Turtles_TV_2012_s01е04_rus[Nickelodeon]_DD5.1_x264_Nikolai.Baranov_WEB-DLRip-AVC_(720p).srt (25.10 kB) Teenage_Mutant_Ninja_Turtles_TV_2012_s01е05_rus[Nickelodeon]_DD5.1_x264_Nikolai.Baranov_WEB-DLRip-AVC_(720p).mp4 (604.08 MB) Teenage_Mutant_Ninja_Turtles_TV_2012_s01е05_rus[Nickelodeon]_DD5.1_x264_Nikolai.Baranov_WEB-DLRip-AVC_(720p).srt (20.93 kB) Teenage_Mutant_Ninja_Turtles_TV_2012_s01е06_rus[Nickelodeon]_DD5.1_x264_Nikolai.Baranov_WEB-DLRip-AVC_(720p).mp4 (604.47 MB) Teenage_Mutant_Ninja_Turtles_TV_2012_s01е07_rus[Nickelodeon]_DD5.1_x264_Nikolai.Baranov_WEB-DLRip-AVC_(720p).mp4 (603.86 MB) Teenage_Mutant_Ninja_Turtles_TV_2012_s01е07_rus[Nickelodeon]_DD5.1_x264_Nikolai.Baranov_WEB-DLRip-AVC_(720p).srt (22.43 kB) Teenage_Mutant_Ninja_Turtles_TV_2012_s01е08_rus[Nickelodeon]_DD5.1_x264_Nikolai.Baranov_WEB-DLRip-AVC_(720p).mp4 (603.26 MB) Teenage_Mutant_Ninja_Turtles_TV_2012_s01е08_rus[Nickelodeon]_DD5.1_x264_Nikolai.Baranov_WEB-DLRip-AVC_(720p).srt (31.68 kB) Teenage_Mutant_Ninja_Turtles_TV_2013_s01е09_rus[Nickelodeon]_DD5.1_x264_Nikolai.Baranov_WEB-DLRip-AVC_(720p).mp4 (600.41 MB) Teenage_Mutant_Ninja_Turtles_TV_2013_s01е09_rus[Nickelodeon]_DD5.1_x264_Nikolai.Baranov_WEB-DLRip-AVC_(720p).srt (32.01 kB) Teenage_Mutant_Ninja_Turtles_TV_2013_s01е10_rus[Nickelodeon]_DD5.1_x264_Nikolai.Baranov_WEB-DLRip-AVC_(720p).mp4 (599.51 MB) Teenage_Mutant_Ninja_Turtles_TV_2013_s01е11_rus[Nickelodeon]_DD5.1_x264_Nikolai.Baranov_WEB-DLRip-AVC_(720p).mp4 (584.09 MB) Teenage_Mutant_Ninja_Turtles_TV_2013_s01е12_rus[Nickelodeon]_DD5.1_x264_Nikolai.Baranov_WEB-DLRip-AVC_(720p).mp4 (574.92 MB) Teenage_Mutant_Ninja_Turtles_TV_2013_s01е13_rus[Nickelodeon]_DD5.1_x264_Nikolai.Baranov_WEB-DLRip-AVC_(720p).mp4 (576.90 MB) Teenage_Mutant_Ninja_Turtles_TV_2013_s01е14_rus[Nickelodeon]_DD5.1_x264_Nikolai.Baranov_WEB-DLRip-AVC_(720p).mp4 (575.03 MB) Teenage_Mutant_Ninja_Turtles_TV_2013_s01е15_rus[Nickelodeon]_DD5.1_x264_Nikolai.Baranov_WEB-DLRip-AVC_(720p).mp4 (583.83 MB) Teenage_Mutant_Ninja_Turtles_TV_2013_s01е16_rus[Nickelodeon]_DD5.1_x264_Nikolai.Baranov_WEB-DLRip-AVC_(720p).mp4 (584.43 MB) Teenage_Mutant_Ninja_Turtles_TV_2013_s01е17_rus[Nickelodeon]_DD5.1_x264_Nikolai.Baranov_WEB-DLRip-AVC_(720p).mp4 (581.68 MB) Teenage_Mutant_Ninja_Turtles_TV_2013_s01е18_rus[Nickelodeon]_DD5.1_x264_Nikolai.Baranov_WEB-DLRip-AVC_(720p).mp4 (584.89 MB) Teenage_Mutant_Ninja_Turtles_TV_2013_s01е19_rus[Nickelodeon]_DD5.1_x264_Nikolai.Baranov_WEB-DLRip-AVC_(720p).mp4 (584.67 MB) Teenage_Mutant_Ninja_Turtles_TV_2013_s01е20_rus[Nickelodeon]_DD5.1_x264_Nikolai.Baranov_WEB-DLRip-AVC_(720p).mp4 (577.53 MB) Teenage_Mutant_Ninja_Turtles_TV_2013_s01е21_rus[Nickelodeon]_DD5.1_x264_Nikolai.Baranov_WEB-DLRip-AVC_(720p).mp4 (580.90 MB) Teenage_Mutant_Ninja_Turtles_TV_2013_s01е22_rus[Nickelodeon]_DD5.1_x264_Nikolai.Baranov_WEB-DLRip-AVC_(720p).mp4 (586.87 MB) Teenage_Mutant_Ninja_Turtles_TV_2013_s01е23_rus[Nickelodeon]_DD5.1_x264_Nikolai.Baranov_WEB-DLRip-AVC_(720p).mp4 (583.63 MB) Teenage_Mutant_Ninja_Turtles_TV_2013_s01е24_rus[Nickelodeon]_DD5.1_x264_Nikolai.Baranov_WEB-DLRip-AVC_(720p).mp4 (580.54 MB) Teenage_Mutant_Ninja_Turtles_TV_2013_s01е25_rus[Nickelodeon]_DD5.1_x264_Nikolai.Baranov_WEB-DLRip-AVC_(720p).mp4 (580.27 MB) Teenage_Mutant_Ninja_Turtles_TV_2013_s01е26_rus[Nickelodeon]_DD5.1_x264_Nikolai.Baranov_WEB-DLRip-AVC_(720p).mp4 (600.38 MB)

www.gvirt.com

Скачать фильм Черепашки-ниндзя (2014) через торрент

17 февраля 2016 13:04 Черепашки-ниндзя / Teenage Mutant Ninja Turtles (2014) DVD5 .torrent   [Информация о файле (нажмите для просмотра)] Перевод: полное дублированиеКодек: MPEG2Качество: DVD5 (сжатый)Видео: PAL 16:9 ([email protected]) VBR 5100 Kbps, 25.000 fpsАудио: Dolby AC3, 6 ch, 48.0 KHz, 448 Кbps(русский, английский)Субтитры: русские, украинские, английскиеПроцесс изготовления дискаИсходник: Черепашки-ниндзя / Teenage Mutant Ninja Turtles (2014) DVD9 | ЛицензияВидео: Идентификатор : 224 (0xE0) Формат : MPEG Video Версия формата : Version 2 Профиль формата : [email protected] Параметр BVOP формата : Да Параметр матрицы формата : Выборочная Параметр GOP формата : M=3, N=12 Продолжительность : 23 м. Вид битрейта : Переменный Битрейт : 5100 Кбит/сек Максимальный битрейт : 7929 Кбит/сек Ширина : 720 пикселей Высота : 576 пикселей Соотношение сторон : 16:9 Частота кадров : 25,000 кадров/сек Стандарт вещания : PAL Цветовое пространство : YUV Субдискретизация насыщенности : 4:2:0 Битовая глубина : 8 бит Тип развёртки : Прогрессивная Порядок развёртки : Верхнее поле первое Метод сжатия : С потерями Бит/(Пиксели*Кадры) : 0.492 Временной код первого кадра : 00:00:00:00 Оригинал временного кода : Group of pictures header GOP, открыто/закрыто : Открыто GOP, открыто/закрыто на первом кадре : Закрыто Размер потока : 854 Мбайт (83%)Аудио #1: Идентификатор : 189 (0xBD)-128 (0x80) Формат : AC-3 Формат/Информация : Audio Coding 3 Расширение режима : CM (complete main) Параметр Endianness формата : Big Режим смешивания : DVD-Video Продолжительность : 23 м. Вид битрейта : Постоянный Битрейт : 448 Кбит/сек Каналы : 6 каналов Расположение каналов : Front: L C R, Side: L R, LFE Частота : 48,0 КГц Частота кадров : 31,250 кадров/сек (1536 spf) Метод сжатия : С потерями Размер потока : 75,0 Мбайт (7%)Аудио #2: Идентификатор : 189 (0xBD)-129 (0x81) Формат : AC-3 Формат/Информация : Audio Coding 3 Расширение режима : CM (complete main) Параметр Endianness формата : Big Режим смешивания : DVD-Video Продолжительность : 23 м. Вид битрейта : Постоянный Битрейт : 448 Кбит/сек Каналы : 6 каналов Расположение каналов : Front: L C R, Side: L R, LFE Частота : 48,0 КГц Частота кадров : 31,250 кадров/сек (1536 spf) Метод сжатия : С потерями Размер потока : 75,0 Мбайт (7%) 4,36 Gb 31 3 17 февраля 2016 13:04 Черепашки-ниндзя / Teenage Mutant Ninja Turtles (2014) BDRip-AVC от R.G. HD-Films | 60 fps .torrent   [Информация о файле (нажмите для просмотра)] Перевод: ДубляжСубтитры: русские (Форсированные), русские (Полные)Качество: BDRip-AVC / 60fpsФормат: MKVВидео: AVC, 1024x432 (2.35:1), 5025 kbps,59,940 fps, 0,190 bppАудио: русский / AC3 / 5.1 / 48 kHz / 448 kbps / 16 bit 3,87 Gb 105 6 17 февраля 2016 13:04 Черепашки-ниндзя / Teenage Mutant Ninja Turtles (2014) Blu-Ray CEE | 3D-Video .torrent   [Информация о файле (нажмите для просмотра)] Перевод: полное дублированиеКодек: MPEG-4 AVC / MVCКачество: Blu-Ray 3D"Новый Диск"Видео: 29533 Кbps, 1920x1080, 23.976 fpsАудио 1: Dolby TrueHD 8 ch, 48.0 KHz, 5543 Кbps(английский)Аудио 2: Dolby Digital 6 ch, 48.0 KHz, 640 Кbps(чешский)Аудио 3: Dolby Digital 6 ch, 48.0 KHz, 640 Кbps(польский)Аудио 4: Dolby Digital 6 ch, 48.0 KHz, 640 Кbps(венгерский)Аудио 5: Dolby Digital 6 ch, 48.0 KHz, 640 Кbps(русский)Аудио 6: Dolby Digital 6 ch, 48.0 KHz, 640 Kbps(турецкий)Аудио 7: Dolby Digital 6 ch, 48.0 KHz, 448 Kbps(тайский)Субтитры: английские, арабские, болгарские, чешские, эстонские, греческие, иврит, венгерские, исландские, индонезийские, корейские, латышские, литовские, польские, португальские, румынские, русские, словацкие, тайские, турецкие, украинские 41,7 Gb 12 8 17 февраля 2016 13:04 Черепашки-ниндзя / Teenage Mutant Ninja Turtles (2014) Blu-Ray CEE .torrent   [Информация о файле (нажмите для просмотра)] Перевод: полное дублированиеКодек: MPEG-4 AVCКачество: Blu-Ray"Новый Диск"Видео: 28012 Кbps, 1920x1080, 23.976 fpsАудио 1: Dolby TrueHD 8 ch, 48.0 KHz, 5544 Кbps(английский)Аудио 2: Dolby Digital 6 ch, 48.0 KHz, 640 Кbps(чешский)Аудио 3: Dolby Digital 6 ch, 48.0 KHz, 640 Кbps(польский)Аудио 4: Dolby Digital 6 ch, 48.0 KHz, 640 Кbps(венгерский)Аудио 5: Dolby Digital 6 ch, 48.0 KHz, 640 Кbps(русский)Аудио 6: Dolby Digital 6 ch, 48.0 KHz, 640 Kbps(тайский)Аудио 7: Dolby Digital 6 ch, 48.0 KHz, 640 Kbps(турецкий)Субтитры: английские, арабские, болгарские, чешские, эстонские, греческие, иврит, венгерские, исландские, индонезийские, корейские, латышские, литовские, польские, португальские, румынские, русские, словацкие, тайские, турецкие, украинские 43,61 Gb 19 3 17 февраля 2016 13:04 Черепашки-ниндзя / Teenage Mutant Ninja Turtles (2014) BDRip-AVC | D .torrent   [Информация о файле (нажмите для просмотра)] Перевод: ДублированныйКодек: х264Качество: BDRip-AVC (исх. Blu-Ray Remux 1080p)Видео: 672x280 (2.40:1), 23.976 fps, x264 ~1000 kbps avg, 0.222 bit/pixelАудио: 48 kHz, AAC-HE, 2 ch, Front: L R ~56 kbps avg 765,15 Mb 33 5 17 февраля 2016 13:04 Черепашки-ниндзя / Teenage Mutant Ninja Turtles (2014) BDRip 1080 | 3D-Video | HSBS | Лицензия | 60 fps .torrent   [Информация о файле (нажмите для просмотра)] Перевод: ДублированныйКодек: h364Качество: BDRip 1080Видео: 1920х800 / 2.40:1 / MKV / MPEG-4 AVC / 25.3 Mbps / 0.272 Bits/(Pixel*Frame) / High Profile 4.1 / 59,940 fpsЗвук: Русский (AC3, 6 ch, 640 Кбит/с) [ Дублированный ]Субтитры: Отсутствуют 17,92 Gb 30 6 17 февраля 2016 13:04 Черепашки-Ниндзя / Teenage Mutant Ninja Turtles (2014) BDRip 720p | дополнительные материалы .torrent   [Информация о файле (нажмите для просмотра)] Качество: BDRipВидео: 1280x720 (16:9), 23,976 fps, h364, ~5000 kbps avg, ~0.230 bit/pixelАудио: 48 kHz, AC3 Dolby Digital, 2/0 (L,R), ~192.00 kbps avgПеревод: СубтитрыСубтитры: Русские субтитры: есть 2,17 Gb 14 3 17 февраля 2016 13:04 Черепашки-ниндзя / Teenage Mutant Ninja Turtles (2014) HDRip | Гаврилов | Hardsub .torrent   [Информация о файле (нажмите для просмотра)] Перевод: Авторский (одноголосый, закадровый) А.Ю.ГавриловКачество: HDRipВидео: MPEG-4 AVC, 1593 Кбит/с, 720x304Аудио: AC3, 6 ch, 448 Кбит/c 1,45 Gb 37 7 17 февраля 2016 13:03 Черепашки-ниндзя / Teenage Mutant Ninja Turtles (2014) DVD9 | Лицензия .torrent   [Информация о файле (нажмите для просмотра)] Перевод: полное дублированиеКодек: MPEG2Качество: DVD9"Новый Диск"Видео: PAL 16:9 ([email protected]) VBR 5967 Kbps, 25.000 fpsАудио 1: Dolby AC3, 5.1 ch, 48.0 KHz, 448 Кbps[английский]Аудио 2: Dolby AC3, 5.1 ch, 48.0 KHz, 448 Кbps[русский]Аудио 3: Dolby AC3, 5.1 ch, 48.0 KHz, 448 Кbps[украинский]Субтитры: английские, русские, украинские 6,69 Gb 13 1 17 февраля 2016 13:03 Черепашки-ниндзя / Teenage Mutant Ninja Turtles (2014) BDRip-AVC от HELLYWOOD | Лицензия .torrent   [Информация о файле (нажмите для просмотра)] Перевод: Профессиональный (полное дублирование) [лицензия BD CEE]Субтитры: Русские (полные + форс.), украинские (форс.), английские (Forced + Full + SDH + SDH-Colored)Качество: BDRip-AVCФормат: MKVВидео: x.264, 888x370 (2,40:1), 23,976 fps, 1936 kbps, 0.246 bit/pixelАудио: 48 kHz, AC3 Dolby Digital, 2/0 (L,R) ch, 128.00 kbps 1,46 Gb 936 29 17 февраля 2016 13:03 Черепашки-ниндзя / Teenage Mutant Ninja Turtles (2014) BDRip 720p от HELLYWOOD | Лицензия .torrent   [Информация о файле (нажмите для просмотра)] Перевод: Профессиональный (полное дублирование) [лицензия BD CEE]Субтитры: Русские (полные + форс.), украинские (форс.), английские (Forced + Full + SDH + SDH-Colored)Качество: BDRip 720pФормат: MKVВидео: x.264, 1280x534 (2,40:1), 23,976 fps, 7274 kbps, 0.444 bit/pixelАудио#1: 48 kHz, AC3 Dolby Digital, 3/2 (L,C,R,l,r) + LFE ch, 640.00 kbps |RUSАудио#2: 48 kHz, AC3 Dolby Digital, 3/2 (L,C,R,l,r) + LFE ch, 640.00 kbps |ENG 6,05 Gb 29 6 17 февраля 2016 13:03 Черепашки-ниндзя / Teenage Mutant Ninja Turtles (2014) BDRip-AVC от HELLYWOOD | Лицензия .torrent   [Информация о файле (нажмите для просмотра)] Перевод: Профессиональный (полное дублирование) [лицензия BD CEE]Субтитры: Русские (полные + форс.), украинские (форс.), английские (Forced + Full + SDH + SDH-Colored)Качество: BDRip-AVCФормат: MKVВидео: x.264, 1032x430 (2,40:1), 23,976 fps, 3186 kbps, 0.299 bit/pixelАудио#1: 48 kHz, AC3 Dolby Digital, 3/2 (L,C,R,l,r) + LFE ch, 448.00 kbps |RUSАудио#2: 48 kHz, AC3 Dolby Digital, 3/2 (L,C,R,l,r) + LFE ch, 448.00 kbps |ENG 2,89 Gb 33 3 17 февраля 2016 13:03 Черепашки-ниндзя / Teenage Mutant Ninja Turtles (2014) BDRip 720p от Neofilm | Лицензия .torrent   [Информация о файле (нажмите для просмотра)] Перевод: Профессиональный (полное дублирование)Формат: MKVКачество: BDRip720pВидео: 1280x534 (2.40:1), 23.976 fps, [email protected], ~4898 kbps avgАудио #1: 48 kHz, AC3 Dolby Digital, 3/2 (L,C,R,l,r) + LFE ch, ~640 kbps avg (DUB)Аудио #2: 48 kHz, AC3 Dolby Digital, 3/2 (L,C,R,l,r) + LFE ch, ~640 kbps avg (ENG)Субтитры: русские (полные, форсированные), английские (полные, SDH, SDH Colored)Видео: Идентификатор : 1 Формат : AVC Формат/Информация : Advanced Video Codec Профиль формата : [email protected] Параметр CABAC формата : Да Параметр ReFrames формата : 10 кадров Идентификатор кодека : V_MPEG4/ISO/AVC Продолжительность : 1 ч. 41 м. Битрейт : 4898 Кбит/сек Ширина : 1280 пикселей Высота : 534 пикселя Соотношение сторон : 2,40:1 Режим частоты кадров : Постоянный Частота кадров : 23,976 кадра/сек Цветовое пространство : YUV Субдискретизация насыщенности : 4:2:0 Битовая глубина : 8 бит Тип развёртки : Прогрессивная Бит/(Пиксели*Кадры) : 0.299 Размер потока : 3,38 Гбайт (77%) Заголовок : Teenage Mutant Ninja Turtles (2014) Библиотека кодирования : x264 core 142 r2491 24e4fed Настройки программы : cabac=1 / ref=10 / deblock=1:-3:-3 / analyse=0x3:0x113 / me=umh / subme=11 / psy=1 / psy_rd=1.00:0.05 / mixed_ref=1 / me_range=48 / chroma_me=1 / trellis=2 / 8x8dct=1 / cqm=0 / deadzone=21,11 / fast_pskip=0 / chroma_qp_offset=-3 / threads=12 / lookahead_threads=2 / sliced_threads=0 / nr=0 / decimate=0 / interlaced=0 / bluray_compat=0 / constrained_intra=0 / bframes=8 / b_pyramid=2 / b_adapt=2 / b_bias=0 / direct=3 / weightb=1 / open_gop=0 / weightp=2 / keyint=240 / keyint_min=23 / scenecut=40 / intra_refresh=0 / rc_lookahead=60 / rc=2pass / mbtree=0 / bitrate=4898 / ratetol=1.0 / qcomp=0.60 / qpmin=0 / qpmax=69 / qpstep=4 / cplxblur=20.0 / qblur=0.5 / vbv_maxrate=50000 / vbv_bufsize=62500 / nal_hrd=none / filler=0 / ip_ratio=1.40 / pb_ratio=1.30 / aq=1:1.00 Язык : English Default : Нет Forced : НетАудио #1: Идентификатор : 2 Формат : AC-3 Формат/Информация : Audio Coding 3 Расширение режима : CM (complete main) Параметр Endianness формата : Big Идентификатор кодека : A_AC3 Продолжительность : 1 ч. 41 м. Вид битрейта : Постоянный Битрейт : 640 Кбит/сек Каналы : 6 каналов Расположение каналов : Front: L C R, Side: L R, LFE Частота : 48,0 КГц Битовая глубина : 16 бит Метод сжатия : С потерями Размер потока : 464 Мбайт (10%) Заголовок : DUB-Blu-ray CEE Язык : Russian Default : Да Forced : ДаАудио #2: Идентификатор : 3 Формат : AC-3 Формат/Информация : Audio Coding 3 Расширение режима : CM (complete main) Параметр Endianness формата : Big Идентификатор кодека : A_AC3 Продолжительность : 1 ч. 41 м. Вид битрейта : Постоянный Битрейт : 640 Кбит/сек Каналы : 6 каналов Расположение каналов : Front: L C R, Side: L R, LFE Частота : 48,0 КГц Битовая глубина : 16 бит Метод сжатия : С потерями Размер потока : 464 Мбайт (10%) Заголовок : Original Язык : English Default : Нет Forced : Нет 4,37 Gb 59 7 17 февраля 2016 13:03 Черепашки-ниндзя / Teenage Mutant Ninja Turtles (2014) HDRip от Scarabey | Лицензия .torrent   [Информация о файле (нажмите для просмотра)] Перевод: Профессиональный (полное дублирование) - ЛицензияВидео: 688x288 (2.39:1), 23.976 fps, XviD build 73 ~891 kbps avg, 0.19 bit/pixelАудио: 48 kHz, MPEG Layer 3, 2 ch, ~128.00 kbps avg 745,6 Mb 39 4 17 февраля 2016 13:03 Черепашки-ниндзя / Teenage Mutant Ninja Turtles (2014) HDRip от Scarabey | Лицензия .torrent   [Информация о файле (нажмите для просмотра)] Перевод: Профессиональный (полное дублирование) - ЛицензияВидео: 720x304 (2.37:1), 23.976 fps, XviD build 73 ~1593 kbps avg, 0.32 bit/pixelАудио: 48 kHz, AC3 Dolby Digital, 3/2 (L,C,R,l,r) + LFE ch, ~448.00 kbps avg 1,45 Gb 691 22 17 февраля 2016 13:03 Черепашки-ниндзя / Teenage Mutant Ninja Turtles (2014) BDRip 720р от NNNB | 60 fps .torrent   [Информация о файле (нажмите для просмотра)] Перевод: ДублированныйКачество: BDRip 720p (исходник Blu-ray Disc)Видео: 1280x534, 5120 Кбит/сек, 59.940 кадр/сек, AVC, x264, [email protected], 2.40:1, 0.125 Бит/[Пиксели*Кадры]Аудио 1: AC-3, 640 Кбит/сек, 6 канала(ов), 48,0 КГц - Дублированный / РусскийАудио 2: AC-3, 640 Кбит/сек, 6 канала(ов), 48,0 КГц - Оригинал / АнглийскийСубтитры: Русские | Полные, Английские | Полные 4,53 Gb 38 2 17 февраля 2016 13:03 Черепашки-ниндзя 2D, 3D / Teenage Mutant Ninja Turtles 2D, 3D (2014) BDRemux 1080p от ExKinoRay | 3D-Video | D | Лицензия .torrent   [Информация о файле (нажмите для просмотра)] Качество: Blu-Ray Remux (1080p)Видео: MPEG-4 AVC, 29142 Кбит/с, 1920x1080, 23,976Аудио: Русский (AC3, 6 ch, 640 Кбит/с), английский (AC3, 6 ch, 640 Кбит/с), (Dolby Atmos, 8 ch, 5543 Кбит/с)Перевод: ДублированныйСубтитры: Русские, латышские, литовские, эстонские, украинские, английские 38,13 Gb 8 2 17 февраля 2016 13:03 Черепашки-ниндзя / Teenage Mutant Ninja Turtles (2014) ВDRip от ExKinoRay | Лицензия .torrent   [Информация о файле (нажмите для просмотра)] Перевод: Профессиональный (полное дублирование)Субтитры: Форсированные вшитыеКодек: XviDКачество: ВDRipВидео: 656x272 (2,40:1), 23,976 fps, XviD 73 ~905 kbps avg, 0.212 bit/pixelАудио: 48.0 kHz, MP3, 2 ch, 128 KbpsВидео: Идентификатор : 0 Формат : MPEG-4 Visual Профиль формата : Advanced [email protected] Параметр BVOP формата : 2 Параметр QPel формата : Нет Параметр GMC формата : Без точки перехода Параметр матрицы формата : Выборочная Идентификатор кодека : XVID Идентификатор кодека/Подсказка : XviD Продолжительность : 1 ч. 41 м. Битрейт : 905 Кбит/сек Ширина : 656 пикселей Высота : 272 пикселя Соотношение сторон : 2,40:1 Частота кадров : 23,976 кадра/сек Цветовое пространство : YUV Субдискретизация насыщенности : 4:2:0 Битовая глубина : 8 бит Тип развёртки : Прогрессивная Метод сжатия : С потерями Бит/(Пиксели*Кадры) : 0.212 Размер потока : 656 Мбайт (87%) Библиотека кодирования : XviD 73Аудио: Идентификатор : 1 Формат : MPEG Audio Версия формата : Version 1 Профиль формата : Layer 3 Режим : Joint stereo Расширение режима : MS Stereo Идентификатор кодека : 55 Идентификатор кодека/Подсказка : MP3 Продолжительность : 1 ч. 41 м. Вид битрейта : Переменный Битрейт : 121 Кбит/сек Номинальный битрейт : 128 Кбит/сек Каналы : 2 канала Частота : 48,0 КГц Метод сжатия : С потерями Размер потока : 87,9 Мбайт (12%) Выравнивание : Соединение по промежуткам Продолжительность промежутка : 24 мс. (0,58 видеокадр) Время предзагрузки промежутка : 151 мс. Библиотека кодирования : LAME3.99r Настройки программы : -m j -V 4 -q 2 -lowpass 17 --abr 128 753,05 Mb 24 1 17 февраля 2016 13:03 Черепашки-ниндзя / Teenage Mutant Ninja Turtles (2014) BDRip 720р от HQCLUB .torrent   [Информация о файле (нажмите для просмотра)] Перевод: Профессиональный (дублированный)BD CEE + Оригинальная звуковая дорожкаСубтитры: Русские (полные, форсированные), английские (полные, SDH, SDH-COLORED)Формат: MKVКачество: BDRip 720р (источникCHDBits / Blu-ray / 1080p)Видео: 1280x534 (2.40:1), 23.976 fps, MPEG-4 AVC, ~9000 kbps avg, 0.549 bit/pixelАудио #1: 48 kHz, AC3 Dolby Digital, 3/2 (L,C,R,l,r) + LFE ch, ~640 kbps|Russian - Dub - BD CEE|Аудио #2: 48 kHz, AC3 Dolby Digital, 3/2 (L,C,R,l,r) + LFE ch, ~640 kbps|English|Видео: Идентификатор : 1 Формат : AVC Формат/Информация : Advanced Video Codec Профиль формата : [email protected] Параметр CABAC формата : Да Параметр ReFrames формата : 8 кадров Идентификатор кодека : V_MPEG4/ISO/AVC Продолжительность : 1 ч. 41 м. Битрейт : 9000 Кбит/сек Ширина : 1280 пикселей Высота : 534 пикселя Соотношение сторон : 2,40:1 Режим частоты кадров : Постоянный Частота кадров : 23,976 кадра/сек Цветовое пространство : YUV Субдискретизация насыщенности : 4:2:0 Битовая глубина : 8 бит Тип развёртки : Прогрессивная Бит/(Пиксели*Кадры) : 0.549 Размер потока : 6,22 Гбайт (86%) Заголовок : Черепашки-ниндзя / Teenage Mutant Ninja Turtles (2014) BDRip 720p by HQCLUB [Joker] Библиотека кодирования : x264 core 142 r2491 24e4fed Настройки программы : cabac=1 / ref=9 / deblock=1:-3:-2 / analyse=0x3:0x113 / me=umh / subme=11 / psy=1 / psy_rd=1.00:0.00 / mixed_ref=1 / me_range=32 / chroma_me=1 / trellis=2 / 8x8dct=1 / cqm=0 / deadzone=21,11 / fast_pskip=1 / chroma_qp_offset=-2 / threads=6 / lookahead_threads=1 / sliced_threads=0 / nr=0 / decimate=1 / interlaced=0 / bluray_compat=0 / constrained_intra=0 / bframes=9 / b_pyramid=1 / b_adapt=2 / b_bias=0 / direct=3 / weightb=1 / open_gop=0 / weightp=2 / keyint=230 / keyint_min=23 / scenecut=40 / intra_refresh=0 / rc_lookahead=40 / rc=2pass / mbtree=0 / bitrate=9000 / ratetol=1.0 / qcomp=0.70 / qpmin=0 / qpmax=69 / qpstep=4 / cplxblur=20.0 / qblur=0.5 / vbv_maxrate=50000 / vbv_bufsize=62500 / nal_hrd=none / filler=0 / ip_ratio=1.40 / pb_ratio=1.30 / aq=2:0.90 / zones=93357,100378,b=1.2/137919,145725,b=0.5 Язык : English Default : Да Forced : НетАудио #1: Идентификатор : 2 Формат : AC-3 Формат/Информация : Audio Coding 3 Расширение режима : CM (complete main) Параметр Endianness формата : Big Идентификатор кодека : A_AC3 Продолжительность : 1 ч. 41 м. Вид битрейта : Постоянный Битрейт : 640 Кбит/сек Каналы : 6 каналов Расположение каналов : Front: L C R, Side: L R, LFE Частота : 48,0 КГц Битовая глубина : 16 бит Метод сжатия : С потерями Размер потока : 464 Мбайт (6%) Заголовок : АС3 5.1 @ 640 kbps - DUB, BD CEE Язык : Russian Default : Нет Forced : НетАудио #2: Идентификатор : 3 Формат : AC-3 Формат/Информация : Audio Coding 3 Расширение режима : CM (complete main) Параметр Endianness формата : Big Идентификатор кодека : A_AC3 Продолжительность : 1 ч. 41 м. Вид битрейта : Постоянный Битрейт : 640 Кбит/сек Каналы : 6 каналов Расположение каналов : Front: L C R, Side: L R, LFE Частота : 48,0 КГц Битовая глубина : 16 бит Метод сжатия : С потерями Размер потока : 464 Мбайт (6%) Заголовок : АС3 5.1 @ 640 kbps - Original Язык : English Default : Нет Forced : Нет 7,27 Gb 10 2 17 февраля 2016 13:03 Черепашки-ниндзя / Teenage Mutant Ninja Turtles (2014) BDRip 1080p от Neofilm | Лицензия .torrent   [Информация о файле (нажмите для просмотра)] Перевод: Профессиональный (полное дублирование)Формат: MKVКачество: BDRip1080pВидео: 1920x800 (2.40:1), 23.976 fps, [email protected], ~9674 kbps avgАудио #1: 48 kHz, AC3 Dolby Digital, 3/2 (L,C,R,l,r) + LFE ch, ~640 kbps avg (DUB)Аудио #2: 48 kHz, AC3 Dolby Digital, 3/2 (L,C,R,l,r) + LFE ch, ~640 kbps avg (ENG)Субтитры: русские (полные, форсированные), английские (полные, SDH, SDH Colored)Видео: Идентификатор : 1 Формат : AVC Формат/Информация : Advanced Video Codec Профиль формата : [email protected] Параметр CABAC формата : Да Параметр ReFrames формата : 5 кадров Идентификатор кодека : V_MPEG4/ISO/AVC Продолжительность : 1 ч. 41 м. Битрейт : 9682 Кбит/сек Ширина : 1920 пикселей Высота : 800 пикселей Соотношение сторон : 2,40:1 Режим частоты кадров : Постоянный Частота кадров : 23,976 кадра/сек Цветовое пространство : YUV Субдискретизация насыщенности : 4:2:0 Битовая глубина : 8 бит Тип развёртки : Прогрессивная Бит/(Пиксели*Кадры) : 0.263 Размер потока : 6,69 Гбайт (86%) Заголовок : Teenage Mutant Ninja Turtles (2014) Библиотека кодирования : x264 core 142 r2491 24e4fed Настройки программы : cabac=1 / ref=5 / deblock=1:-3:-3 / analyse=0x3:0x113 / me=umh / subme=11 / psy=1 / psy_rd=1.00:0.05 / mixed_ref=1 / me_range=48 / chroma_me=1 / trellis=2 / 8x8dct=1 / cqm=0 / deadzone=21,11 / fast_pskip=0 / chroma_qp_offset=-3 / threads=12 / lookahead_threads=1 / sliced_threads=0 / nr=0 / decimate=0 / interlaced=0 / bluray_compat=0 / constrained_intra=0 / bframes=5 / b_pyramid=2 / b_adapt=2 / b_bias=0 / direct=3 / weightb=1 / open_gop=0 / weightp=2 / keyint=240 / keyint_min=23 / scenecut=40 / intra_refresh=0 / rc_lookahead=60 / rc=2pass / mbtree=0 / bitrate=9682 / ratetol=1.0 / qcomp=0.60 / qpmin=0 / qpmax=69 / qpstep=4 / cplxblur=20.0 / qblur=0.5 / vbv_maxrate=62500 / vbv_bufsize=78125 / nal_hrd=none / filler=0 / ip_ratio=1.40 / pb_ratio=1.30 / aq=2:1.00 Язык : English Default : Нет Forced : НетАудио #1: Идентификатор : 2 Формат : AC-3 Формат/Информация : Audio Coding 3 Расширение режима : CM (complete main) Параметр Endianness формата : Big Идентификатор кодека : A_AC3 Продолжительность : 1 ч. 41 м. Вид битрейта : Постоянный Битрейт : 640 Кбит/сек Каналы : 6 каналов Расположение каналов : Front: L C R, Side: L R, LFE Частота : 48,0 КГц Битовая глубина : 16 бит Метод сжатия : С потерями Размер потока : 464 Мбайт (6%) Заголовок : DUB-Blu-ray CEE Язык : Russian Default : Да Forced : ДаАудио #2: Идентификатор : 3 Формат : AC-3 Формат/Информация : Audio Coding 3 Расширение режима : CM (complete main) Параметр Endianness формата : Big Идентификатор кодека : A_AC3 Продолжительность : 1 ч. 41 м. Вид битрейта : Постоянный Битрейт : 640 Кбит/сек Каналы : 6 каналов Расположение каналов : Front: L C R, Side: L R, LFE Частота : 48,0 КГц Битовая глубина : 16 бит Метод сжатия : С потерями Размер потока : 464 Мбайт (6%) Заголовок : Original Язык : English Default : Нет Forced : Нет 7,75 Gb 142 12 17 февраля 2016 13:03 Черепашки-ниндзя / Teenage Mutant Ninja Turtles (2014) BDRip 1080p от Ash61 | 3D-Video | halfSBS | Лицензия .torrent   [Информация о файле (нажмите для просмотра)] Перевод: Профессиональный дублированный (лицензия)Качество: BDRip (byHDfreak [HDAccess])Контейнер: MKVВидео: AVC / 23,976 fps /1920х1080p / 14.5 MbpsАудио: #1 - Русский / AC3 / 48 KHz / 5.1 ch / 640 Kbps (Дубляж - BD CEE)Субтитры: (SRT) 11,39 Gb 18 1 17 февраля 2016 13:03 Черепашки-ниндзя / Teenage Mutant Ninja Turtles (2014) BDRip 1080p от Ash61 | 3D-Video | halfOU | Лицензия .torrent   [Информация о файле (нажмите для просмотра)] Перевод: Профессиональный дублированный (лицензия)Качество: BDRip (byAsh61)Контейнер: MKVВидео: AVC / 23,976 fps /1920х1080p / 13.8 MbpsАудио: #1 - Русский / AC3 / 48 KHz / 5.1 ch / 640 Kbps (Дубляж - BD CEE)Субтитры: (SRT) 10,87 Gb 91 7 17 февраля 2016 13:03 Черепашки-ниндзя / Teenage Mutant Ninja Turtles (2014) BDRip от Twi7ter | D | Лицензия .torrent   [Информация о файле (нажмите для просмотра)] Перевод: Профессиональный (полное дублирование) [Лицензия CEE]Субтитры: Русские вшитые (на речь Шреддера + надписи)Качество: BDRip/исх.: BluRay/Формат: AVIВидео: 720x304 (2.37:1), 23.976 fps, XviD build 73 ~1620 kbps avg, 0.31 bit/pixelАудио: 48 kHz, AC3 Dolby Digital, 3/2 (L,C,R,l,r) + LFE ch, ~448 kbps 1,47 Gb 23 1 17 февраля 2016 13:03 Черепашки-ниндзя / Teenage Mutant Ninja Turtles (2014) BDRip 720p от Leonardo and Scarabey | Лицензия .torrent   [Информация о файле (нажмите для просмотра)] Перевод: Профессиональный (полное дублирование) ЛицензияФормат: MKVВидео кодек: MPEG-4 AVC Аудио кодек: AC3Видео: AVC, 1280x534 (2.39:1) at 23.976 fps, AVC at 4591 kbps avg, 0.280 bit/pixelАудио: AC3; 640 Kbps; CBR; 6 chСубтитры: Русские, английские 3,7 Gb 109 10 17 февраля 2016 13:03 Черепашки-ниндзя / Teenage Mutant Ninja Turtles (2014) BDRemux 1080p от ExKinoRay | D | Лицензия .torrent   [Информация о файле (нажмите для просмотра)] Качество: Blu-Ray Remux (1080p)Видео: MPEG-4 AVC, 28012 Кбит/с, 1920x1080, 23,976Аудио: Русский (AC3, 6 ch, 640 Кбит/с), английский (Dolby Atmos, 8 ch, 5544 Кбит/с), (AC3, 6 ch, 640 Кбит/с)Перевод: ДублированныйСубтитры: Русские, английскиеВидео: Идентификатор : 1 Формат : AVC Формат/Информация : Advanced Video Codec Профиль формата : [email protected] Параметр CABAC формата : Да Параметр ReFrames формата : 4 кадра Идентификатор кодека : V_MPEG4/ISO/AVC Продолжительность : 1 ч. 41 м. Вид битрейта : Переменный Максимальный битрейт : 31,0 Мбит/сек Ширина : 1920 пикселей Высота : 1080 пикселей Соотношение сторон : 16:9 Режим частоты кадров : Постоянный Частота кадров : 23,976 кадра/сек Цветовое пространство : YUV Субдискретизация насыщенности : 4:2:0 Битовая глубина : 8 бит Тип развёртки : Прогрессивная Язык : English Default : Да Forced : НетАудио #1: Идентификатор : 2 Формат : AC-3 Формат/Информация : Audio Coding 3 Расширение режима : CM (complete main) Параметр Endianness формата : Big Идентификатор кодека : A_AC3 Продолжительность : 1 ч. 41 м. Вид битрейта : Постоянный Битрейт : 640 Кбит/сек Каналы : 6 каналов Расположение каналов : Front: L C R, Side: L R, LFE Частота : 48,0 КГц Битовая глубина : 16 бит Метод сжатия : С потерями Размер потока : 464 Мбайт (2%) Заголовок : Лицензия Язык : Russian Default : Да Forced : НетАудио #2: Идентификатор : 3 Формат : AC-3 Формат/Информация : Audio Coding 3 Расширение режима : CM (complete main) Параметр Endianness формата : Big Идентификатор кодека : A_AC3 Продолжительность : 1 ч. 41 м. Вид битрейта : Постоянный Битрейт : 640 Кбит/сек Каналы : 6 каналов Расположение каналов : Front: L C R, Side: L R, LFE Частота : 48,0 КГц Битовая глубина : 16 бит Метод сжатия : С потерями Размер потока : 464 Мбайт (2%) Язык : English Default : Нет Forced : НетАудио #3: Идентификатор : 4 Формат : TrueHD Идентификатор кодека : A_TRUEHD Продолжительность : 1 ч. 41 м. Вид битрейта : Переменный Максимальный битрейт : 8853 Кбит/сек Каналы : 8 каналов Расположение каналов : Front: L C R, Side: L R, Back: L R, LFE Частота : 48,0 КГц Метод сжатия : Без потерь Язык : English Default : Нет Forced : Нет 24,49 Gb 25 1 17 февраля 2016 13:02 Черепашки-ниндзя / Teenage Mutant Ninja Turtles (2014) BDRip от HQ-ViDEO | Лицензия .torrent   [Информация о файле (нажмите для просмотра)] Перевод: Профессиональный дублированный /Лицензия CEE/Субтитры: Русские (форс. + полные), Английские + (Forced, SDH)Видео: XviD, 720x304 (2.37:1), ~2174 kbps avg, 23,976 fpsАудио #1: AC3 Dolby Digital, 48 KHz, ~448 kbps, 3/2 (L,C,R,l,r) + LFE ch/RUS/Аудио #2: AC3 Dolby Digital, 48 KHz, ~448 kbps, 3/2 (L,C,R,l,r) + LFE ch/ENG/ 2,18 Gb 160 7 17 февраля 2016 13:02 Черепашки-ниндзя / Teenage Mutant Ninja Turtles (2014) BDRip 1080p от HQ-ViDEO | Лицензия .torrent   [Информация о файле (нажмите для просмотра)] Перевод: Профессиональный дублированный /Лицензия CEE/Субтитры: Русские (форс. + полные), Английские + (Forced, SDH)Видео: x.264, 1920x800 (2.40:1), ~15863 kbps avg, 23,976 fpsАудио #1: AC3 Dolby Digital, 48 KHz, ~640 kbps, 3/2 (L,C,R,l,r) + LFE ch/RUS/Аудио #2: AC3 Dolby Digital, 48 KHz, ~640 kbps, 3/2 (L,C,R,l,r) + LFE ch/ENG/ 12,13 Gb 37 13

gig-torrent.net

Скачать фильм Черепашки-ниндзя через торрент в хорошем качестве бесплатно 1080p

ОбщееУникальный идентификатор                 : 219918399066146651333316789691861702376 (0xA572BE35CB10605DA08E4C491BE016E8)Полное имя                               : E:\Черепашки-ниндзя (2014) BDRip 1080p.mkvФормат                                   : MatroskaВерсия формата                           : Version 4 / Version 2Размер файла                             : 12,7 ГбайтПродолжительность                        : 1 ч. 41 м.Общий поток                              : 18,0 Мбит/секДата кодирования                         : UTC 2014-11-30 19:05:20Программа кодирования                    : mkvmerge v6.9.1 ('Blue Panther') 64bit built on Apr 18 2014 18:23:38Библиотека кодирования                   : libebml v1.3.0 + libmatroska v1.4.1Attachements                             : cover.jpg

ВидеоИдентификатор                            : 1Формат                                   : AVCФормат/Информация                        : Advanced Video CodecПрофиль формата                          : [email protected]Параметр CABAC формата                   : ДаПараметр ReFrames формата                : 5 кадровИдентификатор кодека                     : V_MPEG4/ISO/AVCПродолжительность                        : 1 ч. 41 м.Битрейт                                  : 15,5 Мбит/секШирина                                   : 1920 пикселейВысота                                   : 800 пикселейСоотношение сторон                       : 2,40:1Режим частоты кадров                     : ПостоянныйЧастота кадров                           : 23,976 кадра/секЦветовое пространство                    : YUVСубдискретизация насыщенности            : 4:2:0Битовая глубина                          : 8 битТип развёртки                            : ПрогрессивнаяБит/(Пиксели*Кадры)                      : 0.421Размер потока                            : 11,0 Гбайт (86%)Заголовок                                : DONБиблиотека кодирования                   : x264 core 142 r2491kMod 24e4fedНастройки программы                      : cabac=1 / ref=5 / deblock=1:-3:-3 / analyse=0x3:0x133 / me=tesa / subme=11 / psy=1 / fade_compensate=0.00 / psy_rd=1.10:0.00 / mixed_ref=1 / me_range=24 / chroma_me=1 / trellis=2 / 8x8dct=1 / cqm=0 / deadzone=21,11 / fast_pskip=0 / chroma_qp_offset=-2 / threads=12 / lookahead_threads=1 / sliced_threads=0 / nr=0 / decimate=1 / interlaced=0 / bluray_compat=0 / constrained_intra=0 / fgo=0 / bframes=6 / b_pyramid=2 / b_adapt=2 / b_bias=0 / direct=3 / weightb=1 / open_gop=0 / weightp=2 / keyint=240 / keyint_min=22 / scenecut=40 / intra_refresh=0 / rc_lookahead=60 / rc=crf / mbtree=0 / crf=17.9000 / qcomp=0.70 / qpmin=0 / qpmax=69 / qpstep=4 / vbv_maxrate=50000 / vbv_bufsize=62500 / crf_max=0.0 / nal_hrd=none / filler=0 / ip_ratio=1.35 / pb_ratio=1.25 / aq=1:0.75 / zones=58,3844,crf=12Язык                                     : EnglishDefault                                  : ДаForced                                   : НетОсновные цвета                           : BT.709Характеристики трансфера                 : BT.709Коэффициенты матрицы                     : BT.709colour_range                             : Limited

Аудио #1Идентификатор                            : 2Формат                                   : AC-3Формат/Информация                        : Audio Coding 3Расширение режима                        : CM (complete main)Параметр Endianness формата              : BigИдентификатор кодека                     : A_AC3Продолжительность                        : 1 ч. 41 м.Вид битрейта                             : ПостоянныйБитрейт                                  : 640 Кбит/секКаналы                                   : 6 каналовРасположение каналов                     : Front: L C R, Side: L R, LFEЧастота                                  : 48,0 КГцБитовая глубина                          : 16 битМетод сжатия                             : С потерямиРазмер потока                            : 464 Мбайт (4%)Язык                                     : RussianDefault                                  : ДаForced                                   : Нет

Аудио #2Идентификатор                            : 3Формат                                   : DTSФормат/Информация                        : Digital Theater SystemsРежим                                    : 16Параметр Endianness формата              : BigИдентификатор кодека                     : A_DTSПродолжительность                        : 1 ч. 41 м.Вид битрейта                             : ПостоянныйБитрейт                                  : 1510 Кбит/секКаналы                                   : 6 каналовРасположение каналов                     : Front: L C R, Side: L R, LFEЧастота                                  : 48,0 КГцБитовая глубина                          : 24 битМетод сжатия                             : С потерямиРазмер потока                            : 1,07 Гбайт (8%)Язык                                     : EnglishDefault                                  : НетForced                                   : Нет

Текст #1Идентификатор                            : 4Формат                                   : UTF-8Идентификатор кодека                     : S_TEXT/UTF8Идентификатор кодека/Информация          : UTF-8 Plain TextЗаголовок                                : ForcedЯзык                                     : RussianDefault                                  : ДаForced                                   : Нет

Текст #2Идентификатор                            : 5Формат                                   : UTF-8Идентификатор кодека                     : S_TEXT/UTF8Идентификатор кодека/Информация          : UTF-8 Plain TextЗаголовок                                : FullЯзык                                     : RussianDefault                                  : НетForced                                   : Нет

Меню00:00:00.000                             : en:Chapter 0100:02:42.287                             : en:Chapter 0200:06:00.485                             : en:Chapter 0300:11:51.544                             : en:Chapter 0400:16:01.835                             : en:Chapter 0500:22:02.946                             : en:Chapter 0600:28:22.784                             : en:Chapter 0700:34:01.831                             : en:Chapter 0800:38:04.031                             : en:Chapter 0900:42:10.110                             : en:Chapter 1000:48:36.413                             : en:Chapter 1100:55:46.092                             : en:Chapter 1201:00:44.265                             : en:Chapter 1301:07:46.604                             : en:Chapter 1401:15:30.359                             : en:Chapter 1501:24:10.795                             : en:Chapter 1601:30:17.036                             : en:Chapter 1701:34:13.564                             : en:Chapter 18

piratbit.ru


Смотрите также