Большие глаза скачать торрент в хорошем качестве hd 1080


Скачать торрент Большие глаза / Big Eyes (2014) BDRip 1080p

Большие глаза / Big Eyes

Страна: США Канада Производство: Electric City Entertainment, Silverwood Films, The Weinstein Company LLC, Tim Burton ProductionsГод выпуска: 2014Жанр: драма, мелодрама, криминал, биографияПродолжительность: 01:45:44

Режиссер: Тим БёртонАвторы сценария: Скотт Александер, Ларри Карацевски

В ролях: Эми Адамс, Кристоф Вальц, Дэнни Хьюстон, Кристен Риттер, Джейсон Шварцман, Теренс Стэмп, Джон Полито, Делани Рэй

Описание: Яркая и цветущая Америка 50-х. В сочных красках Сан-Франциско зарождается то, что разрушит традиционный взгляд на искусство и бесповоротно изменит то, как выглядит наша жизнь. Появившийся из ниоткуда художник Уолтер Кин придумал поп-арт. Его необычные картины, изображающие трогательных детей с огромными глазами, произвели настоящий фурор и буквально заполонили весь мир. Их печатают на календарях, открытках, домохозяйки щеголяют в фартуках с их изображением. Уолтер становится королем современного искусства, одним из самых известных арт-деятелей планеты.

Но на пике славы художника его скромная супруга Маргарет вдруг утверждает, что Уолтер — мошенник, и именно она — автор знаменитых картин. Неожиданно открываются шокирующие подробности жизни четы Кин. Весь мир замер в ожидании ответа на вопрос: кто же все-таки тот гений, чьи смелые и оригинальные картины украшают теперь каждую гостиную от Парижа до Аляски..?

Перевод: Профессиональный (полное дублирование)Субтитры: русские (нотабеноид), английские (full + SDH)

Качество: BDRip 1080pФормат: МКVВидео кодек: AVCАудио кодек: АС3 | DTSВидео: 1920x1080 (16:9), 23.976 fps, MPEG-4 AVC ~18.0 Мbps avgАудио №1: 48.0 kHz, AC3 Dolby Digital, 3/2 (L,C,R,l,r) + LFE ch, ~448.00 kbps | DUBАудио №2: 48.0 kHz, Digital Theater Systems, 3/2 (L,C,R,l,r) + LFE ch, ~1509 kbps | ENGФормат субтитров: UTF-8 Plain Text

Бюджет: $10 000 000Дата премьеры (мир): 13 ноября 2014релиз на DVD: 24 марта 2015, «CD Land»

Премия Золотой глобус, 2015 год » Лучшая женская роль (комедия или мюзикл) | Эми Адамс

Media Info

General Unique ID : 214813874971860864751550202095310229543 (0xA19BA5BDD4515EE5878D57E8BC005027) Complete name : Большие глаза (2014. Big Eyes) 1080p.mkv Format : Matroska Format version : Version 2 File size : 14.7 GiB Duration : 1h 45mn Overall bit rate : 20.0 Mbps Encoded date : UTC 2016-03-14 15:13:36 Writing application : mkvmerge v4.9.1 ('Ich will') сборка от Jul 11 2011 23:53:15 Writing library : libebml v1.2.1 + libmatroska v1.1.1 Cover : Yes

Video ID : 1 Format : AVC Format/Info : Advanced Video Codec Format profile : [email protected] Format settings, CABAC : Yes Format settings, ReFrames : 4 frames Codec ID : V_MPEG4/ISO/AVC Duration : 1h 45mn Bit rate : 18.0 Mbps Width : 1 920 pixels Height : 1 080 pixels Display aspect ratio : 16:9 Frame rate mode : Constant Frame rate : 23.976 (24000/1001) fps Color space : YUV Chroma subsampling : 4:2:0 Bit depth : 8 bits Scan type : Progressive Bits/(Pixel*Frame) : 0.362 Stream size : 13.0 GiB (88%) Title : Big.Eyes.2014.1080p.BluRay.DTS.x264-DON HDBits Internal Writing library : x264 core 144 r2525kMod 40bb568 Encoding settings : cabac=1 / ref=4 / deblock=1:-3:-3 / analyse=0x3:0x133 / me=umh / subme=10 / psy=1 / fade_compensate=0.00 / psy_rd=1.00:0.00 / mixed_ref=1 / me_range=24 / chroma_me=1 / trellis=2 / 8x8dct=1 / cqm=0 / deadzone=21,11 / fast_pskip=0 / chroma_qp_offset=-2 / threads=6 / lookahead_threads=1 / sliced_threads=0 / nr=0 / decimate=0 / interlaced=0 / bluray_compat=0 / constrained_intra=0 / fgo=0 / bframes=8 / b_pyramid=2 / b_adapt=1 / b_bias=0 / direct=3 / weightb=1 / open_gop=0 / weightp=2 / keyint=250 / keyint_min=23 / scenecut=40 / intra_refresh=0 / rc_lookahead=60 / rc=2pass / mbtree=0 / bitrate=18000 / ratetol=1.0 / qcomp=0.75 / qpmin=0 / qpmax=69 / qpstep=4 / cplxblur=20.0 / qblur=0.5 / vbv_maxrate=62500 / vbv_bufsize=78125 / nal_hrd=none / filler=0 / ip_ratio=1.20 / pb_ratio=1.10 / aq=3:0.65 Language : English Default : Yes Forced : No

Audio #1 ID : 2 Format : AC-3 Format/Info : Audio Coding 3 Mode extension : CM (complete main) Format settings, Endianness : Big Codec ID : A_AC3 Duration : 1h 45mn Bit rate mode : Constant Bit rate : 448 Kbps Channel(s) : 6 channels Channel positions : Front: L C R, Side: L R, LFE Sampling rate : 48.0 KHz Frame rate : 31.250 fps (1536 spf) Compression mode : Lossy Stream size : 339 MiB (2%) Title : Дубляж Language : Russian Default : No Forced : No

Audio #2 ID : 3 Format : DTS Format/Info : Digital Theater Systems Mode : 16 Format settings, Endianness : Big Codec ID : A_DTS Duration : 1h 45mn Bit rate mode : Constant Bit rate : 1 509 Kbps Channel(s) : 6 channels Channel positions : Front: L C R, Side: L R, LFE Sampling rate : 48.0 KHz Frame rate : 93.750 fps (512 spf) Bit depth : 24 bits Compression mode : Lossy Stream size : 1.11 GiB (8%) Language : English Default : No Forced : No

Text #1 ID : 4 Format : UTF-8 Codec ID : S_TEXT/UTF8 Codec ID/Info : UTF-8 Plain Text Title : Нотабеноид Language : Russian Default : No Forced : No

Text #2 ID : 5 Format : UTF-8 Codec ID : S_TEXT/UTF8 Codec ID/Info : UTF-8 Plain Text Language : English Default : No Forced : No

Text #3 ID : 6 Format : UTF-8 Codec ID : S_TEXT/UTF8 Codec ID/Info : UTF-8 Plain Text Title : SDH Language : English Default : No Forced : No

Menu 00:00:00.000 : en:00:00:00.000 00:06:44.444 : en:00:06:44.444 00:14:34.539 : en:00:14:34.539 00:21:45.721 : en:00:21:45.721 00:27:12.380 : en:00:27:12.380 00:35:10.358 : en:00:35:10.358 00:40:54.409 : en:00:40:54.409 00:46:49.639 : en:00:46:49.639 00:52:36.777 : en:00:52:36.777 00:58:04.646 : en:00:58:04.646 01:03:45.822 : en:01:03:45.822 01:10:49.744 : en:01:10:49.744 01:17:40.322 : en:01:17:40.322 01:26:03.533 : en:01:26:03.533 01:32:05.728 : en:01:32:05.728 01:39:00.643 : en:01:39:00.643

zitor.org

Скачать торрент Большие глаза / Big Eyes (2014) BDRemux 1080p

mrutor.org

Большие глаза / Big Eyes

Страна: США Канада Производство: Electric City Entertainment, Silverwood Films, The Weinstein Company LLC, Tim Burton ProductionsГод выпуска: 2014Жанр: драма, мелодрама, криминал, биографияПродолжительность: 01:45:44

Режиссер: Тим БёртонАвторы сценария: Скотт Александер, Ларри Карацевски

В ролях: Эми Адамс, Кристоф Вальц, Дэнни Хьюстон, Кристен Риттер, Джейсон Шварцман, Теренс Стэмп, Джон Полито, Делани Рэй

Описание: Яркая и цветущая Америка 50-х. В сочных красках Сан-Франциско зарождается то, что разрушит традиционный взгляд на искусство и бесповоротно изменит то, как выглядит наша жизнь. Появившийся из ниоткуда художник Уолтер Кин придумал поп-арт. Его необычные картины, изображающие трогательных детей с огромными глазами, произвели настоящий фурор и буквально заполонили весь мир. Их печатают на календарях, открытках, домохозяйки щеголяют в фартуках с их изображением. Уолтер становится королем современного искусства, одним из самых известных арт-деятелей планеты.

Но на пике славы художника его скромная супруга Маргарет вдруг утверждает, что Уолтер — мошенник, и именно она — автор знаменитых картин. Неожиданно открываются шокирующие подробности жизни четы Кин. Весь мир замер в ожидании ответа на вопрос: кто же все-таки тот гений, чьи смелые и оригинальные картины украшают теперь каждую гостиную от Парижа до Аляски..?

Перевод: Авторский (одноголосый) | Юрий Немахов + Профессиональный (полное дублирование)Субтитры: английские

Качество: BDRemux 1080pФормат: BDМVВидео кодек: AVCАудио кодек: DTS-HD | АС3Видео: 1920x1080 (16:9), 23.976 fps, MPEG-4 AVC Video ~26.5 Мbps avgАудио №1: 48.0 kHz, DTS-HD Master Audio, 3/2 (L,C,R,l,r) + LFE ch, ~3486 kbps | AVOАудио №2: 48.0 kHz, AC3 Dolby Digital, 3/2 (L,C,R,l,r) + LFE ch, ~640.00 kbps | DUBАудио №3: 48.0 kHz, DTS-HD Master Audio, 3/2 (L,C,R,l,r) + LFE ch, ~3461 kbps | ENGФормат субтитров: UTF-8 Plain Text

Бюджет: $10 000 000Дата премьеры (мир): 13 ноября 2014релиз на DVD: 24 марта 2015, «CD Land»

Премия Золотой глобус, 2015 год » Лучшая женская роль (комедия или мюзикл) | Эми Адамс

Релиз от:

Blu-Ray Info

DISC INFO: Disc Title: Big.Eyes.2014.BDRemux Disc Size: 28 766 906 264 bytes Protection: AACS BD-Java: No BDInfo: 0.5.8

PLAYLIST REPORT:

Name: 00000.MPLS Length: 1:45:44.362 (h:m:s.ms) Size: 28 766 803 968 bytes Total Bitrate: 36,27 Mbps

VIDEO:

Codec Bitrate Deion ----- ------- ----------- MPEG-4 AVC Video 26577 kbps 1080p / 23,976 fps / 16:9 / High Profile 4.1

AUDIO:

Codec Language Bitrate Deion ----- -------- ------- ----------- DTS-HD Master Audio Russian 3486 kbps 5.1 / 48 kHz / 3486 kbps / 24-bit (DTS Core: 5.1 / 48 kHz / 1509 kbps / 24-bit) Dolby Digital Audio Russian 640 kbps 5.1 / 48 kHz / 640 kbps / DN -4dB DTS-HD Master Audio English 3461 kbps 5.1 / 48 kHz / 3461 kbps / 24-bit (DTS Core: 5.1 / 48 kHz / 1509 kbps / 24-bit)

SUBTITLES:

Codec Language Bitrate Deion ----- -------- ------- -----------

Большие глаза / Big Eyes скачать фильм торрент 2014 -

hokit.ru

Коротко о фильме "Большие глаза" - Яркая и цветущая Америка 50-х. В сочных красках Сан-Франциско зарождается то, что разрушит традиционный взгляд на искусство и бесповоротно изменит то, как выглядит наша жизнь. Появившийся из ниоткуда художник Уолтер Кин придумал поп-арт. Его необычные картины, изображающие трогательных детей с огромными глазами, произвели настоящий фурор и буквально заполонили весь мир. Их печатают на календарях, открытках, домохозяйки щеголяют в фартуках с их изображением. Уолтер становится королем современного искусства, одним из самых известных арт-деятелей планеты.

Но на пике славы художника его скромная супруга Маргарет вдруг утверждает, что Уолтер — мошенник, и именно она — автор знаменитых картин. Неожиданно открываются шокирующие подробности жизни четы Кин. Весь мир замер в ожидании ответа на вопрос: кто же все-таки тот гений, чьи смелые и оригинальные картины украшают теперь каждую гостиную от Парижа до Аляски?

Добавлено HDRip, звук iTunes.

Большие глаза

Оригинальное название Big Eyes
Фильм выпущен: 2014
Страна (кинокомпания): США, Канада
Pежиссер: Тим Бёртон
Сценарий фильма: Скотт Александер, Ларри Карацевски
Продюсер фильма: Скотт Александер, Тим Бёртон, Линетт Хауэлл
Оператор: Брюно Дельбоннель
Композитор: Дэнни Элфман
Художники: Рик Хайнрихс, Крис Аугуст, Коллин Этвуд
Монтаж: Джозеф Бонд
Жанр фильма: драма, биография
Премьера (мир): 13 ноября 2014
премьера (Pоссия): 8 января 2015, Централ Партнершип Classic, All Media
продолжительность106 мин
В главных ролях:
Элизабетта Фантоне
Джон Полито
Теренс Стэмп
Дэнни Хьюстон
Джейсон Шварцман
Кристен Риттер
Кристоф Вальц
Эми Адамс
и другие ...

Трейлер фильма:

 

Фильм Большие глаза / Big Eyes скачать торрент - новинка кино 2014

Скачать файлы .torrent Большие глаза (фильм)

на сайте Вы можете получить ссылку на торрент файлы или скачать сами торрент файлы, в которых находится информация о местонахождении фильмов, сериалов у пользователей.

В фильме "Большие глаза" - о пробуждении художницы Маргарет Кин, ее феноменальном успехе в пятидесятые годы и последующих юридических трудностяъ, которые создал ей муж



Параметры: 28.06.2016 HDRip | A, 1,45 Гб

Формат: HDRip, XviD, AC3, размер файла: 1,45 ГбВидео: 704x400, XviD - build 73 ~1499 Кбит/сАудио: AC3, 6 каналов, 448 Кбит/сПеревод (озвучивание): Авторский (одноголосый закадровый) Юрий Немахов

Параметры: 26.06.2016 BDRip 1080p | D, A, 10,8 Гб

Формат: BDRip 1080p, AC3, размер файла: 10,8 ГбВидео: 1920x1080, - 12000 Кбит/сАудио: Русский: AC3, 6 каналов, 448 Кбит/с::Русский: AC3, 6 каналов, 640 Кбит/с::English: DTS, 6 каналов, 1509 Кбит/сПеревод (озвучивание):

Параметры: 21.06.2016 BDRip 1080p | D, 14,74 Гб

Формат: BDRip 1080p, MKV, AVC, АС3 | DTS, размер файла: 14,74 ГбВидео: 1920x1080, AVC -Аудио: АС3 | DTS, 6 каналов, 448 Кбит/с / English: АС3 | DTS, 6 каналов, ~1509 Кбит/сПеревод (озвучивание): Профессиональный (полное дублирование)

Параметры: 23.09.2015 BDRip от HQ-ViDEO, 2,18 Гб

Формат: BDRip (источник: HDCLUB / BD-, размер файла: 2,18 ГбВидео: 704x400, XviD - ; 2041 Кбит/сАудио: AC3, 6 каналов, 448 Кбит/с / AC3, 6 каналов, 448 Кбит/сПеревод (озвучивание): Дублированный |R5| + Оригинал (Английский)

Параметры: 21.08.2015 HDRip от Scarabey | D | Лицензия, 1,45 Гб

Формат: HDRip, AVI, XviD, AC3, размер файла: 1,45 ГбВидео: 704x400, XviD - build 73 ~1565 Кбит/сАудио: AC3, 6 каналов, 448 Кбит/сПеревод (озвучивание): Профессиональный (полное дублирование) [Лицензия]

Параметры: 18.08.2015 BDRip от HQCLUB | Лицензия, 2236 Мб

Формат: BDRip (источник: HDCLUB&italy777 / Blu-Ray Remux&DVD5 / 1080р), AVI, XviD, AC3, размер файла: 2236 МбВидео: 704x400, XviD - build 65 ~2053 Кбит/сАудио: Русский: AC3, 6 каналов, 448 Кбит/с::English: AC3, 6 каналов, 448 Кбит/с::Украинский: AC3, 2 канала, 192 Кбит/сПеревод (озвучивание): Профессиональный (полное дублирование) R5 + Оригинал (английский)

Параметры: 15.04.2015 BDRip 720p от Leonardo and Scarabey | iTunes, 3,42 Гб

Формат: BDRip 720p Исходник: Blu-ray, MKV, AVC, AC3, размер файла: 3,42 ГбВидео: 1280x720, AVC - AVC at 3453 Кбит/сАудио: Русский: AC3, 6 каналов, 640 Кбит/с / Original: AC3, 6 каналов, 448 Кбит/сПеревод (озвучивание): Профессиональный (полное дублирование) iTunes

Параметры: 04.04.2015 BDRip-AVC от HELLYWOOD | iTunes, 2,12 Гб

Формат: BDRip-AVC, MKV, AC3, размер файла: 2,12 ГбВидео: 1036x584, H.264 -Аудио: Русский: AC3, 6 каналов, 384 Кбит/с / English: AC3, 6 каналов, 448 Кбит/сПеревод (озвучивание): Профессиональный (дублированный) [iTunes]

Параметры: 28.03.2015 HDRip, 2,05 Гб -

Формат: HDRip, XviD, размер файла: 2,05 ГбВидео: 720x400, XviD - 1942 Кбит/сАудио: Русский / Английский: AC3, 6 каналов, 384 Кбит/сПеревод (озвучивание): Дублированный [iTunes]

Параметры: 28.03.2015 HDRip, 1,37 Гб -

Формат: HDRip, XviD, AC3, размер файла: 1,37 ГбВидео: 720x400, XviD - 1457 Кбит/сАудио: AC3, 6 каналов, 384 Кбит/сПеревод (озвучивание): Дублированный [iTunes]

Параметры: 05.03.2015 WEB-DL 720p | iTunes, 3,22 Гб

Формат: WEB-DL 720p, MKV, AC3, размер файла: 3,22 ГбВидео: 1280x698, - 3888 Кбит/сАудио: Русский: AC3, 6 каналов, 384 Кбит/сПеревод (озвучивание): Дублированное [iTunes]

Параметры: 28.01.2015 WEB-DLRip 720p | Чистый звук, 3,34 Гб

Формат: WEB-DLRip 720p MKV, AVC, размер файла: 3,34 ГбВидео: 1280x692, AVC - 3993 Кбит/сАудио: Русский / Английский: AC3, 2 канала, 384 Кбит/сПеревод (озвучивание): Дублированное [Чистый звук] официальное

Скачать Большие глаза, Big Eyes, фильм бесплатно скачать торрент, драма, биография, новинка кино

 

Скачать фильм Большие глаза через торрент в хорошем качестве бесплатно 1080p

GeneralUnique ID                                : 230419247790728168760090466673319176576 (0xAD59220647D66539B776CCA059136980)Complete name                            : D:\Торенты\b0LshYe.gLa3a.2014.D.BDRip.1080p.mkvFormat                                   : MatroskaFormat version                           : Version 2File size                                : 7.93 GiBDuration                                 : 1h 45mnOverall bit rate                         : 10.7 MbpsEncoded date                             : UTC 2015-03-28 09:14:25Writing application                      : mkvmerge v7.7.0 ('Six Voices') 64bit built on Feb 28 2015 23:39:33Writing library                          : libebml v1.3.1 + libmatroska v1.4.2

VideoID                                       : 1Format                                   : AVCFormat/Info                              : Advanced Video CodecFormat profile                           : [email protected] settings, CABAC                   : YesFormat settings, ReFrames                : 4 framesCodec ID                                 : V_MPEG4/ISO/AVCDuration                                 : 1h 45mnBit rate                                 : 8 846 KbpsWidth                                    : 1 920 pixelsHeight                                   : 1 080 pixelsDisplay aspect ratio                     : 16:9Frame rate                               : 23.976 fpsColor space                              : YUVChroma subsampling                       : 4:2:0Bit depth                                : 8 bitsScan type                                : ProgressiveBits/(Pixel*Frame)                       : 0.178Stream size                              : 6.37 GiB (80%)Writing library                          : x264 core 144 r2525 40bb568Encoding settings                        : cabac=1 / ref=4 / deblock=1:0:0 / analyse=0x3:0x133 / me=umh / subme=7 / psy=1 / psy_rd=1.00:0.00 / mixed_ref=1 / me_range=16 / chroma_me=1 / trellis=1 / 8x8dct=1 / cqm=0 / deadzone=21,11 / fast_pskip=0 / chroma_qp_offset=-2 / threads=60 / lookahead_threads=8 / sliced_threads=0 / nr=0 / decimate=1 / interlaced=0 / bluray_compat=0 / constrained_intra=0 / bframes=3 / b_pyramid=2 / b_adapt=1 / b_bias=0 / direct=1 / weightb=1 / open_gop=0 / weightp=2 / keyint=250 / keyint_min=23 / scenecut=40 / intra_refresh=0 / rc_lookahead=40 / rc=2pass / mbtree=1 / bitrate=8846 / ratetol=1.0 / qcomp=0.60 / qpmin=0 / qpmax=69 / qpstep=4 / cplxblur=20.0 / qblur=0.5 / ip_ratio=1.40 / aq=1:1.00Language                                 : EnglishDefault                                  : YesForced                                   : No

Audio #1ID                                       : 2Format                                   : AC-3Format/Info                              : Audio Coding 3Mode extension                           : CM (complete main)Codec ID                                 : A_AC3Duration                                 : 1h 45mnBit rate mode                            : ConstantBit rate                                 : 384 KbpsChannel(s)                               : 6 channelsChannel positions                        : Front: L C R, Side: L R, LFESampling rate                            : 48.0 KHzBit depth                                : 16 bitsCompression mode                         : LossyStream size                              : 290 MiB (4%)Default                                  : YesForced                                   : No

Audio #2ID                                       : 3Format                                   : DTSFormat/Info                              : Digital Theater SystemsCodec ID                                 : A_DTSDuration                                 : 1h 45mnBit rate mode                            : ConstantBit rate                                 : 1 510 KbpsChannel(s)                               : 6 channelsChannel positions                        : Front: L C R, Side: L R, LFESampling rate                            : 48.0 KHzBit depth                                : 24 bitsCompression mode                         : LossyStream size                              : 1.12 GiB (14%)Language                                 : EnglishDefault                                  : NoForced                                   : No

Menu00:00:00.000                             : en:00:00:00.00000:06:44.446                             : en:00:06:44.44600:14:34.540                             : en:00:14:34.54000:21:45.721                             : en:00:21:45.72100:27:12.381                             : en:00:27:12.38100:35:10.358                             : en:00:35:10.35800:40:54.410                             : en:00:40:54.41000:46:49.640                             : en:00:46:49.64000:52:36.779                             : en:00:52:36.77900:58:04.648                             : en:00:58:04.64801:03:45.822                             : en:01:03:45.82201:10:49.745                             : en:01:10:49.74501:17:40.322                             : en:01:17:40.32201:26:03.533                             : en:01:26:03.53301:32:05.729                             : en:01:32:05.72901:39:00.643                             : en:01:39:00.643

piratbit.ru


Смотрите также