Бойфренд из будущего скачать в через торрент в хорошем качестве


Скачать фильм Бойфренд из будущего через торрент в хорошем качестве бесплатно BDRip

piratbit.ru

Размер: 2.05 GB | Добавлен: 3 года 9 мес. назад | Торрент скачан:18351 раз
Реклама Дарим 3000 рублей за регистрацию, не упусти свой шанс получить шикарный бонус!!!

01-01-2014 16:38 Бойфренд из будущего Скачать торрент  

Бойфренд из будущего / About Time

Год выпуска: 2013 Страна: Великобритания / Translux, Working Title FilmsЖанр: фантастика, драма, комедия,Продолжительность: 02:03:22Перевод: Дубляж (Лицензия)

Режиссер: Ричард Кёртис

В ролях: Домналл Глисон, Рэйчел МакАдамс, Билл Найи, Том Холландер, Марго Робби, Нив Гачев, Ванесса Кирби, Линдсэй Дункан, Лиза Айкхорн, Катрин Стэдмен,

Описание: В возрасте 21 года Тим Лейк обнаруживает, что он может путешествовать во времени. В ночь после очередного неприятного Нового года отец Тима рассказывает ему, что мужчины в его семье всегда имели способность путешествовать во времени. Тим не может изменить историю, но он может изменить то, что происходит или происходило в его собственной жизни.

Качество: BDRipФормат: AVIВидео кодек: XviDАудио кодек: AC3Видео: 720x304 (2.37:1), 23.976 fps, XviD build 50 ~1925 kbps avg, 0.37 bit/pixelАудио: 48 kHz, AC3 Dolby Digital, 3/2 (L,C,R,l,r) + LFE ch, ~448 kbps

ОбщееПолное имя : G:киноBoyfrEnd.1Z.BuduscheG0.2013.D.BDRip.2100Mb.aviФормат : AVIФормат/Информация : Audio Video InterleaveПрофиль формата : OpenDMLРазмер файла : 2,05 ГбайтПродолжительность : 2 ч. 3 м.Общий поток : 2381 Кбит/секПрограмма кодирования : VirtualDubMod 1.5.10.3 | www.virtualdub-fr.org || (build 2550/release)Библиотека кодирования : VirtualDubMod build 2550/release

ВидеоИдентификатор : 0Формат : MPEG-4 VisualПрофиль формата : Advanced [email protected]Параметр BVOP формата : 2Параметр QPel формата : НетПараметр GMC формата : Без точки переходаПараметр матрицы формата : ВыборочнаяИдентификатор кодека : XVIDИдентификатор кодека/Подсказка : XviDПродолжительность : 2 ч. 3 м.Битрейт : 1920 Кбит/секШирина : 720 пикс.Высота : 304 пикс.Соотношение сторон : 2,35:1Частота кадров : 23,976 кадр/секЦветовое пространство : YUVПодвыборка цветности : 4:2:0Битовая глубина : 8 битТип развёртки : ПрогрессивнаяМетод сжатия : С потерямиБит/(Пиксели*Кадры) : 0.366Размер потока : 1,65 Гбайт (81%)Библиотека кодирования : XviD 1.2.1 (UTC 2008-12-04)

АудиоИдентификатор : 1Формат : AC-3Формат/Информация : Audio Coding 3Расширение режима : CM (complete main)Идентификатор кодека : 2000Продолжительность : 2 ч. 3 м.Вид битрейта : ПостоянныйБитрейт : 448 Кбит/секКанал(ы) : 6 канала(ов)Расположение каналов : Front: L C R, Side: L R, LFEЧастота : 48,0 КГцБитовая глубина : 16 битМетод сжатия : С потерямиРазмер потока : 395 Мбайт (19%)Выравнивание : Разделение по промежуткамПродолжительность промежутка : 42 мс. (1,00 видеокадр)Время предзагрузки промежутка : 500 ms

Скачать Бойфренд из будущего через торрент http://pic.pb.wtf/images/6/zxcp7.jpg Скачать фильм Бойфренд из будущего через торрент бесплантно в хорошем качестве Описание: В возрасте 21 года Тим Лейк обнаруживает, что он может путешествовать во времени. В ночь после очередного неприятного Нового года ... 2014-01-01 16:38 9.7 10 302

Loading...

Loading...

% Раздел Тема Автор DL S | L
Фильмы 2013 [DVDrip, WEB-DLRip, HDrip] [ 2.19 GB ] Бойфренд из будущего / About Time [2013 BDRip-AVC] Dub + Eng + Sub sokol_ok Скачать
Фильмы (DVD фильмы) [ 4.37 GB ] Бойфренд из будущего / About Time DVD5 от New-Team / D / Сжатый DEVI Скачать
Фильмы (DVD фильмы) [ 7.36 GB ] Бойфренд из будущего / About Time [2013 DVD9] R5 voovaz Скачать
Фильмы 2013 [DVDrip, WEB-DLRip, HDrip] [ 1.46 GB ] Бойфренд из будущего / About Time [2013 HDRip ] MihailHD Скачать
Фильмы (Blu-ray, BD-Remux, HDDVD) [ 44.12 GB ] Бойфренд из будущего / About Time [2013 Blu-ray CEE ] Pavlin Скачать
Фильмы 2013 [DVDrip, WEB-DLRip, HDrip] [ 747 MB ] Бойфренд из будущего / About Time [2013 BDRip-AVC] Dub + Sub sokol_ok Скачать
Фильмы [HD 720p, 1080p] (Хороший звук DUB, MVO) [ 10.71 GB ] Бойфренд из будущего / About Time [2013 BDRip 1080p] diletant Скачать

Рекламный пират

02-01-2014 10:16 Бойфренд из будущего Скачать торрент  

Хороший фильм, сюжет интересный.

02-01-2014 10:28 Бойфренд из будущего Скачать торрент  

Эффект бабочки - по описанию...

02-01-2014 18:46 Бойфренд из будущего Скачать торрент  

02-01-2014 19:18 Бойфренд из будущего Скачать торрент  

почитав отзывы и рецензии меня заинтриговало)). Название фильма не внушало сначала) но потом как посмотрел, отношение к фильму стало положительное. Казалось бы сюжет банальный но как актеры сыграли просто классно). Фильм понравился. рекомендую. добрый, легкий, светлый.

02-01-2014 21:01 Бойфренд из будущего Скачать торрент  

akcent писал(а):

Фильм понравился. рекомендую. добрый, легкий, светлый.

полностью согласен для просмотра с девушкой то что нужно!

03-01-2014 00:14 Бойфренд из будущего Скачать торрент  

Отличный фильм, засиделся за просмотром.

03-01-2014 03:09 Бойфренд из будущего Скачать торрент  

Пишу комент сразу после просмотра.Это просто восхитительный фильм, посмотрел на одном дыхании и с космическим удовольствием!!! Всем советую, получите массу положительных эмоций! Игра актеров на высоте, погружаешься в картину полностью, начинаешь переживать каждый эпизод, каждую сцену. Мда, живем, жизнь проходит, зачастую многого не замечаем вокруг, многого не говорим близким, родным, родителям...

03-01-2014 19:41 Бойфренд из будущего Скачать торрент  

Отличный фильм, просто отличный! Я под большим впечатлением после просмотра! Рекомендую всем к просмотру! У меня просто нет слов!

Pекламный агент PB

03-01-2014 21:13 Бойфренд из будущего Скачать торрент  

Великолепное кино! Актерская игра на высоте, интересная идея, и самое главное фильм несет свой посыл. Это творение одно из немногих которое меня сильно впечатлило и заставило задуматься... Смотреть всем!

04-01-2014 06:38 Бойфренд из будущего Скачать торрент  

с бабушкой можно смотреть?)

04-01-2014 11:01 Бойфренд из будущего Скачать торрент  

manhunterдаже с прабабушкой можно

04-01-2014 12:44 Бойфренд из будущего Скачать торрент  

Поначалу скучал, а потом смотрел с удовольствием. Рекомендовано всем возрастам.

04-01-2014 14:17 Бойфренд из будущего Скачать торрент  

04-01-2014 21:05 Бойфренд из будущего Скачать торрент  

04-01-2014 21:33 Бойфренд из будущего Скачать торрент  

Фильм клевый, но я вот так и не понял, как он вернулся так далеко со своей сестрой если у него уже был ребенок, а к отцу уже не мог вернутся из-за рождения ребенка?

05-01-2014 03:09 Бойфренд из будущего Скачать торрент  

Pекламный агент PB

05-01-2014 09:24 Бойфренд из будущего Скачать торрент  

Alex2676 писал(а):

Фильм клевый, но я вот так и не понял, как он вернулся так далеко со своей сестрой если у него уже был ребенок, а к отцу уже не мог вернутся из-за рождения ребенка?

В том-то и дело, что, когда он вернулся со своей сестрой в самое начало, то и ребенок у него потом другой оказался. Поэтому, чтобы ничего не менялось, он и не может больше перемещаться к отцу.

05-01-2014 09:59 Бойфренд из будущего Скачать торрент  

в вкратце "про лузеров - для лузеров"в некоторых моментах фильм вызывал батхёрт, думал таких людей не существует, а нет их походу немало( вы серьезно?)

05-01-2014 10:02 Бойфренд из будущего Скачать торрент  

да и Рэйчел МакАдамс как антиДикаприо с возрастом играет все хуже и хуже

05-01-2014 10:24 Бойфренд из будущего Скачать торрент  

05-01-2014 12:09 Бойфренд из будущего Скачать торрент  

дак есть же такой фильм уже!жена путишественника во времени!!!

05-01-2014 15:50 Бойфренд из будущего Скачать торрент  

С такими коментами грех не посмотреть))

05-01-2014 19:06 Бойфренд из будущего Скачать торрент  

Dimiz07 писал(а):

дак есть же такой фильм уже!жена путишественника во времени!!!

Это совершенно два разных фильма !!!

05-01-2014 22:26 Бойфренд из будущего Скачать торрент  

Отлично !! ) Даже всплакнул чутка ... ))) Благо не из Сентиментальных !

Pекламный агент PB

Дорогой пользователь! Огромная просьба, поблагодарите релизера, оцените раздачу и оставьте свои комментарий, если Вы скачали Бойфренд из будущего через торрент бесплатно! Внесите свою лепту в развитие PiratBit!

Комментировать посты могут только пользователи прошедшие не сложную регистрацию

Бойфренд из будущего через торрент Скачать бесплатно Бойфренд из будущего Бойфренд из будущего скачать торрент Бойфренд из будущего смотреть онлайн Cкачать фильм Бойфренд из будущего бесплатно Бойфренд из будущего скачать торрент в хорошем качестве Бойфренд из будущего смотреть онлайн бесплатно в хорошем качестве

Вы не можете начинать темыВы не можете отвечать на сообщенияВы не можете редактировать свои сообщенияВы не можете удалять свои сообщенияВы не можете голосовать в опросахВы не можете прикреплять файлы к сообщениямВы можете скачивать файлы

Бойфренд из будущего 2013 - скачать бесплатно через торрент в хорошем качестве. Без регистрации

www.kinovit.net

Название: Бойфренд из будущего / About Time (2013) BDRip 720p от GORESEWAGE | 2xDub
Качество видео: BDRip 720p (CtrlHD)
Видео: MPEG-4 AVC Video MPEG-4 AVC Video / 6787 kbps / 1280x534p / 23,976 fps / 2.40:1 / High Profile 4.1
Аудио: DTS / AC3 EnglishDTS / AC3Russian / DTS / 5.1 / 48 kHz / 768 kbps / 24-bit | Dub BD CEEUkrainian / AC3 / 2.0 / 48 kHz / 192 kbps / 16-bit | Dub LineEnglish / DTS / 5.1 / 48 kHz / 1536 kbps / 24-bit | OriginalEnglish / AC3 / 2.0 / 48 kHz / 192 kbps / 16-bit | Commentary by director Richard Curtis & cast members Domhnall Gleeson, Bill Nighy, Vanessa Kirby, Lydia Wilson & Tom Hollander
Скачать

Загрузка начнется в течение 5 сек.

8.31 GB

Название: Бойфренд из будущего / About Time (2013) BDRip 1080p от GORESEWAGE | 2xDub
Качество видео: BDRip 1080p (HDWinG)
Видео: MPEG-4 AVC Video MPEG-4 AVC Video / 11200 kbps / 1920x800p / 23,976 fps / 2.40:1 / High Profile 4.1
Аудио: DTS / AC3 EnglishDTS / AC3Russian / DTS / 5.1 / 48 kHz / 768 kbps / 24-bit | Dub BD CEEUkrainian / AC3 / 2.0 / 48 kHz / 192 kbps / 16-bit | Dub LineEnglish / DTS / 5.1 / 48 kHz / 1536 kbps / 24-bit | OriginalEnglish / AC3 / 2.0 / 48 kHz / 192 kbps / 16-bit | Commentary by director Richard Curtis & cast members Domhnall Gleeson, Bill Nighy, Vanessa Kirby, Lydia Wilson & Tom Hollander
Скачать

Загрузка начнется в течение 5 сек.

12.17 GB

Название: Бойфренд из будущего / About Time (2013) BDRip от MediaClub | КПК
Качество видео: BDRip
Перевод: Дублированный
Видео: MPEG-4 ~ 615 Кбит/с, 320х128
Аудио: Русский (AAC, 2 ch, 165 Кбит/с)
Скачать

Загрузка начнется в течение 5 сек.

543.20 MB

Название: Бойфренд из будущего / About Time (2013) DVD5 от New-Team | D | Сжатый
Качество видео: DVD5 (сжатый)
Перевод: Профессиональный (полное дублирование)
Видео: MPEG2 PAL 16:9 (720x576) VBR ~ 5282.90 kbps avg
Аудио: Русский, английский DD 5.1 (384Kbps)
Скачать

Загрузка начнется в течение 5 сек.

4.37 GB

Название: Бойфренд из будущего / About Time (2013) DVD9 от New-Team | D | Лицензия
Качество видео: DVD9
Перевод: Профессиональный (полное дублирование)
Видео: MPEG2 PAL 16:9 (720x576) VBR ~ 8110.08 kbps avg
Аудио: Русский, английский, польский, чешский, венгерский DD 5.1 (384Kbps)
Скачать

Загрузка начнется в течение 5 сек.

7.36 GB

Название: Бойфренд из будущего / About Time (2013) BDRip от New-Team | D | Лицензия
Качество видео: BDRip |исходник: Blu-ray Disc [EUR] -CHDBits|
Перевод: Профессиональный (полное дублирование) |Лицензия - Blu-ray CEE|
Видео: 656x272 (2,40:1), 23.976 fps, XviD 65 ~707 kbps avg, 0.165 bit/pixel
Аудио: 48 kHz, MPEG Layer 3, 2 ch, 128.00 kbps Constant |Дубляж, Blu-Ray CEE|
Скачать

Загрузка начнется в течение 5 сек.

745.11 MB

Название: Бойфренд из будущего / About Time (2013) BDRip от New-Team | D | Лицензия
Качество видео: BDRip |исходник: Blu-ray Disc [EUR] -CHDBits|
Перевод: Профессиональный (полное дублирование) |Лицензия - Blu-ray CEE|
Видео: 720x304 (2.35:1), 23.976 fps, XviD 65 ~1482 kbps avg, 0.282 bit/pixel
Аудио: 48 kHz, AC3 Dolby Digital, 2/0 (L,R) ch, 192 kbps Constant |Дубляж, Blu-Ray CEE|
Скачать

Загрузка начнется в течение 5 сек.

1.45 GB

Название: Бойфренд из будущего / About Time (2013) BDRip-AVC от HQCLUB | Лицензия
Качество видео: BDRip-AVC (источник: HDClub / Blu-ray Disc CEE / 1080p)
Перевод: Профессиональный (полное дублирование) + Оригинальная звуковая дорожка
Формат видео: MKV
Видео: 1056x440 (2,40:1), 23.976 fps, [email protected], 2pass, ~1633 kbps avg, 0.15 bit/pixel
Аудио: 48 kHz, AC3, 3/2 (L,C,R,l,r) + LFE ch, ~448.00 kbps avg (RUS)48 kHz, AC3, 3/2 (L,C,R,l,r) + LFE ch, ~448.00 kbps avg (ENG)
Скачать

Загрузка начнется в течение 5 сек.

2.18 GB

Название: Бойфренд из будущего / About Time (2013) HDRip от Scarabey | D | Лицензия
Качество видео: HDRip
Перевод: Профессиональный (полное дублирование) - Лицензия
Формат видео: AVI
Видео: 720x304 (2.37:1), 23.976 fps, XviD build 73 ~2063 kbps avg, 0.39 bit/pixel
Аудио: 48 kHz, AC3 Dolby Digital, 3/2 (L,C,R,l,r) + LFE ch, ~448.00 kbps avg
Скачать

Загрузка начнется в течение 5 сек.

2.17 GB

Название: Бойфренд из будущего / About Time (2013) BDRip 720p от Leonardo and Scarabey | Лицензия
Качество видео: BDRip 720p Исходник: Blu-ray
Перевод: Профессиональный (полное дублирование) Лицензия
Формат видео: MKV Видео кодек: MPEG-4 AVC Аудио кодек: AC3
Видео: AVC, 1280x534 (2.40:1) at 23.976 fps, AVC at 2575 kbps avg, 0.154 bit/pixel
Аудио: 48 kHz, AC3 Dolby Digital, 3/2 (L,C,R,l,r) + LFE ch, 384.00 kbps - Russian
Скачать

Загрузка начнется в течение 5 сек.

2.55 GB

Название: Бойфренд из будущего / About Time (2013) BDRip 1080p от Killbrain and Scarabey | Лицензия
Перевод: русский профессиональный (полное дублирование) [Лицензия, BD CEE]
Видео: x264 AVC / [email protected] / 2 pass / 23,976 fps / 1920x800p (2,40:1) / 6,7 Mbps / 0.182
Аудио: AC3 английскаяAC3AC3 / 5.1 ch / 448 kbps / Русский дубляж, BD CEEAC3 / 5.1 ch / 640 kbps / Английский original, BD CEE
Скачать

Загрузка начнется в течение 5 сек.

6.71 GB

Название: Бойфренд из будущего / About Time (2013) BDRip-AVC от New-Team | D | Лицензия
Качество видео: BDRip-AVC [исходник BD-Remux]
Перевод: Профессиональный (полное дублирование) [Лицензия]
Видео: AVC 1768 Кбит/сек, 1056*440 (2,40:1), в 23,976 кадр/сек, AVC
Аудио: AC3 АнглийскийAC3Russian, 384 Кбит/сек, 48,0 КГц, 16 бит, 6 канала(ов), AC-3English, 384 Кбит/сек, 48,0 КГц, 16 бит, 6 канала(ов), AC-3
Скачать

Загрузка начнется в течение 5 сек.

2.19 GB

Название: Бойфренд из будущего / About Time (2013) HDRip от Scarabey | D | Лицензия
Качество видео: HDRip
Перевод: Профессиональный (полное дублирование) - Лицензия
Формат видео: AVI
Видео: 640x272 (2.35:1), 23.976 fps, XviD build 73 ~754 kbps avg, 0.18 bit/pixel
Аудио: 48 kHz, MPEG Layer 3, 2 ch, ~128.00 kbps avg
Скачать

Загрузка начнется в течение 5 сек.

787.17 MB

Название: Бойфренд из будущего / About Time (2013) HDRip от Scarabey | D | Лицензия
Качество видео: HDRip
Перевод: Профессиональный (полное дублирование) - Лицензия
Формат видео: AVI
Видео: 720x304 (2.37:1), 23.976 fps, XviD build 73 ~1477 kbps avg, 0.28 bit/pixel
Аудио: 48 kHz, AC3 Dolby Digital, 2/0 (L,R) ch, ~192.00 kbps avg
Скачать

Загрузка начнется в течение 5 сек.

1.45 GB

Название: Бойфренд из будущего / About Time (2013) BDRip-AVC
Качество видео: BDRip-AVC
Перевод: Дублированный
Видео: x264 CRF, 720x300 (2.40:1), 23,976 fps, AVC, ~663 kbps avg, 0.128 bit/pixel
Аудио: 48 kHz, AAC, 2 ch, ~160.00 kbps avg
Скачать

Загрузка начнется в течение 5 сек.

739.39 MB

Название: Бойфренд из будущего / About Time (2013) BDRip 1080p
Качество видео: BDRip (источник: Blu-ray Disc)
Перевод: Дублированный (лицензия)
Видео: x264 1920x800 (2,40:1), 23.976 fps, 8110 kbps
Аудио: AC-3, 6 ch, 448 kbps (Rus)AC-3, 6 ch, 448 kbps (Eng)
Скачать

Загрузка начнется в течение 5 сек.

7.76 GB

Название: Бойфренд из будущего / About Time (2013) BDRip-AVC от HELLYWOOD | Лицензия
Перевод: Профессиональный (полное дублирование) лицензия
Формат видео: MKV
Видео: х.264, 1056x440 (2,40:1), 23,976 fps, 1637 Кbps, 0.147 bit/pixel
Аудио: 48 kHz, AC3 Dolby Digital, 3/2 (L,C,R,l,r) + LFE ch, 448.00 kbps | RUS48 kHz, AC3 Dolby Digital, 3/2 (L,C,R,l,r) + LFE ch, 448.00 kbps | ENG
Скачать

Загрузка начнется в течение 5 сек.

2.18 GB

Название: Бойфренд из будущего / About Time (2013) BDRip-AVC от MediaClub | Лицензия
Качество видео: BDRip-AVC
Перевод: Дублированный [Лицензия]
Видео: x264 MPEG-4 AVC, 1634 Кбит/с, 1024x426, 23.976 кадр/с
Аудио: Русский, английский (AC3, 6 ch, 448 Кбит/с)
Скачать

Загрузка начнется в течение 5 сек.

2.18 GB

Название: Бойфренд из будущего / About Time (2013) BDRip-AVC от New-Team | D | Лицензия
Качество видео: BDRip-AVC [исходник BD-Remux]
Перевод: Профессиональный (полное дублирование) [Лицензия]
Видео: AVC 782 Кбит/сек, 816*340 (2,40:1), в 23,976 кадр/сек, AVC
Аудио: AAC Russian, 64,0 Кбит/сек, 48,0 КГц / 24,0 КГц, 2 канала(ов), AAC (HE-AAC / LC)
Скачать

Загрузка начнется в течение 5 сек.

747.47 MB

Название: Бойфренд из будущего / About Time (2013) HDRip от -=HD-NET=- | КПК | Лицензия
Качество видео: HDRip | КПК
Перевод: Дублированный [Лицензия]
Видео: х264 MPEG-4, 480 х 200, 23,976 fps, 334 Кбит/с
Аудио: ААС LC, 2 ch, 128 Кбит/с
Скачать

Загрузка начнется в течение 5 сек.

409.01 MB

Название: Бойфренд из будущего / About Time (2013) BDRip-AVC от New-Team | D | Лицензия
Качество видео: BDRip-AVC [исходник BD-Remux]
Перевод: Профессиональный (полное дублирование) [Лицензия]
Видео: AVC 1428 Кбит/сек, 960*400 (2,40:1), в 23,976 кадр/сек, AVC
Аудио: AAC АнглийскийAACRussian, 128 Кбит/сек, 48,0 КГц, 2 канала(ов), AAC (LC)English, 128 Кбит/сек, 48,0 КГц, 2 канала(ов), AAC (LC)
Скачать

Загрузка начнется в течение 5 сек.

1.45 GB

Название: Бойфренд из будущего / About Time (2013) BDRip 720p | Лицензия
Качество видео: BDRip 720p
Перевод: Дублированный [Лицензия]
Формат видео: MKV
Видео: AVC, 1280x534 (2.40:1) at 23.976 fps, AVC at 4172 kbps avg, 0.255 bit/pixel
Аудио: Русский / AC3 / 6ch / 448kbps | ДубляжАнглийский AC3 / 6ch / 448 kbps | Original
Скачать

Загрузка начнется в течение 5 сек.

4.37 GB

Название: Бойфренд из будущего / About Time (2013) BDRip | Лицензия
Качество видео: BDRip
Перевод: Дублированный [Лицензия]
Формат видео: AVI (XviD)
Видео: XviD, 1925 Кбит/с, 720x304
Аудио: AC3, 6 ch, 448 Кбит/с
Скачать

Загрузка начнется в течение 5 сек.

2.05 GB

Название: Бойфренд из будущего / About Time (2013) Blu-Ray Remux 1080p | Лицензия
Качество видео: Blu-Ray Remux (1080p)
Перевод: Дублированный
Видео: MPEG-4 AVC, 30168 Кбит/с, 1920x1080
Аудио: Русский (DTS, 6 ch, 768 Кбит/с), английский (DTS-HD MA, 6 ch, 3718 Кбит/с)
Скачать

Загрузка начнется в течение 5 сек.

29.63 GB

Название: Бойфренд из будущего / About Time (2013) BDRip 1080p | Лицензия
Качество видео: BDRip 1080p
Перевод: Дублированный [Лицензия]
Видео: MPEG-4 AVC, 9518 Кбит/с, 1920x800, 23.976 кадр/с
Аудио: Русский (AC3, 6 ch, 640 Кбит/с), (DTS, 6 ch, 768 Кбит/с), английский (DTS, 6 ch, 1510 Кбит/с)
Скачать

Загрузка начнется в течение 5 сек.

10.71 GB

Название: Бойфренд из будущего / About Time (2013) Blu-Ray 1080p | Лицензия
Качество видео: Blu-Ray (1080p)
Перевод: Дублированный [Лицензия]
Видео: MPEG-4 AVC, 30168 Кбит/с, 1920x1080
Аудио: Русский, португальский, чешский, венгерский, испанский, польский, тайский. турецкий (DTS, 6 ch, 768 Кбит/с), английский (DTS-HD MA, 6 ch, 3718 Кбит/с), (AC3, 2 ch, 192 Кбит/с)
Скачать

Загрузка начнется в течение 5 сек.

44.12 GB

Название: Бойфренд из будущего / About Time (2013) BDRip 720p | Лицензия
Качество видео: BDRip (720p)
Перевод: Дублированный [Лицензия]
Видео: MPEG-4 AVC, 8711 Кбит/с, 1280x536
Аудио: Русский (DTS, 6 ch, 755 Кбит/с), английский (DTS, 6 ch, 1510 Кбит/с)
Скачать

Загрузка начнется в течение 5 сек.

9.65 GB

Название: Бойфренд из будущего / About Time (2013) BDRip 720p | Лицензия
Качество видео: BDRip 720p [WiKi]
Перевод: Дублированное [лицензия]
Формат видео: MKV
Видео: 5642 kb/s, 1280x534
Аудио: Russian: DTS, 768 kb/s (6 ch) / English: DTS, 1510 kb/s (6 ch)
Скачать

Загрузка начнется в течение 5 сек.

6.83 GB

Название: Бойфренд из будущего / About Time (2013) BDRip | Лицензия
Качество видео: BDRip
Перевод: Дублированный [Лицензия]
Формат видео: AVI (XviD)
Видео: 1245 kb/s, 720х304
Аудио: AC3, 448 kb/s (6 ch)
Скачать

Загрузка начнется в течение 5 сек.

1.46 GB

Скачать фильм Бойфренд из будущего через торрент в хорошем качестве бесплатно 1080p

piratbit.ru

Размер: 10.71 GB | Добавлен: 3 года 9 мес. назад | Торрент скачан:1047 раз
Реклама Дарим 3000 рублей за регистрацию, не упусти свой шанс получить шикарный бонус!!!

02-01-2014 12:59 Бойфренд из будущего Скачать торрент  

Бойфренд из будущего / About Time«A new funny film about love. With a bit of time travel» Год выпуска: 2013Страна: Великобритания / Translux, Working Title Films, Пифагор (Студия дубляжа)Жанр: фантастика, драма, комедияПродолжительность: 02:03:22
  • Перевод: Профессиональный (Дубляж)
  • Русские субтитры: есть
  • Оригинальная аудиодорожка: Английская
Режиссер: Ричард Кёртис / Richard CurtisВ ролях: Доналл Глисон, Рэйчел МакАдамс, Билл Найи, Том Холландер, Марго Робби, Нив Гачев, Ванесса Кирби, Линдсэй Дункан, Лиза Айкхорн, Катрин СтэдменОписание: В возрасте 21 года Тим Лейк обнаруживает, что он может путешествовать во времени. В ночь после очередного неприятного Нового года отец Тима рассказывает ему, что мужчины в его семье всегда имели способность путешествовать во времени. Тим не может изменить историю, но он может изменить то, что происходит или происходило в его собственной жизни.
    Тип релиза: BDRip 1080p
  • Контейнер: MKV
  • Видео кодек: h364 | Аудио кодек: DTS, АС-3
  • Видео: 1920x800 at 23.976 fps, ~10000 kbps avg
  • Аудио 1: Russian: 48 kHz, AC3, 3/2 (L,C,R,l,r) + LFE ch, ~640.00 kbps avg
  • Аудио 2: Russian: 48 kHz, DTS, 3/2 (L,C,R,l,r) + LFE ch, ~1510.00 kbps avg
  • Аудио 3: English: 48 kHz, DTS, 3/2 (L,C,R,l,r) + LFE ch, ~1510.00 kbps avg
  • Субтитры: Русские, украинские, английские
  • Чаптеры: 20шт.
ОбщееУникальный идентификатор : 238350200866119702427488392610920758580 (0xB3509433700E15398C17A8CB4A677D34)Полное имя : D:torrenttorAbout.Time.2013.BluRay.1080p.CHD.mkvФормат : MatroskaВерсия формата : Version 2Размер файла : 10,7 ГбайтПродолжительность : 2 ч. 3 м.Общий поток : 12,4 Мбит/секДата кодирования : UTC 2014-01-02 06:30:01Программа кодирования : mkvmerge v5.5.0 ('Healer') built on Apr 24 2012 23:47:03Библиотека кодирования : libebml v1.2.3 + libmatroska v1.3.0

ВидеоИдентификатор : 1Формат : AVCФормат/Информация : Advanced Video CodecПрофиль формата : [email protected]Параметр CABAC формата : ДаПараметр ReFrames формата : 5 кадровИдентификатор кодека : V_MPEG4/ISO/AVCПродолжительность : 2 ч. 3 м.Битрейт : 9518 Кбит/секШирина : 1920 пикселейВысота : 800 пикселейСоотношение сторон : 2,40:1Режим частоты кадров : ПостоянныйЧастота кадров : 23,976 кадра/секЦветовое пространство : YUVСубдискретизация насыщенности : 4:2:0Битовая глубина : 8 битТип развёртки : ПрогрессивнаяБит/(Пиксели*Кадры) : 0.258Размер потока : 7,99 Гбайт (75%)Библиотека кодирования : x264 core 138 r2356 a1d3d17Настройки программы : cabac=1 / ref=5 / deblock=1:-3:-3 / analyse=0x3:0x113 / me=umh / subme=10 / psy=1 / psy_rd=1.00:0.05 / mixed_ref=1 / me_range=32 / chroma_me=1 / trellis=2 / 8x8dct=1 / cqm=0 / deadzone=21,11 / fast_pskip=0 / chroma_qp_offset=-2 / threads=18 / lookahead_threads=1 / sliced_threads=0 / nr=0 / decimate=1 / interlaced=0 / bluray_compat=0 / constrained_intra=0 / bframes=5 / b_pyramid=2 / b_adapt=2 / b_bias=0 / direct=3 / weightb=1 / open_gop=0 / weightp=2 / keyint=250 / keyint_min=23 / scenecut=40 / intra_refresh=0 / rc=2pass / mbtree=0 / bitrate=9518 / ratetol=1.0 / qcomp=0.70 / qpmin=0 / qpmax=69 / qpstep=4 / cplxblur=20.0 / qblur=0.5 / ip_ratio=1.40 / pb_ratio=1.30 / aq=2:1.00Язык : EnglishDefault : ДаForced : Нет

Аудио #1Идентификатор : 2Формат : AC-3Формат/Информация : Audio Coding 3Расширение режима : CM (complete main)Параметр Endianness формата : BigИдентификатор кодека : A_AC3Продолжительность : 2 ч. 3 м.Вид битрейта : ПостоянныйБитрейт : 640 Кбит/секКаналы : 6 каналовРасположение каналов : Front: L C R, Side: L R, LFEЧастота : 48,0 КГцБитовая глубина : 16 битМетод сжатия : С потерямиРазмер потока : 565 Мбайт (5%)Язык : RussianDefault : ДаForced : Да

Аудио #2Идентификатор : 3Формат : DTSФормат/Информация : Digital Theater SystemsРежим : 16Параметр Endianness формата : BigИдентификатор кодека : A_DTSПродолжительность : 2 ч. 3 м.Вид битрейта : ПостоянныйБитрейт : 768 Кбит/секКаналы : 6 каналовРасположение каналов : Front: L C R, Side: L R, LFEЧастота : 48,0 КГцБитовая глубина : 24 битМетод сжатия : С потерямиРазмер потока : 678 Мбайт (6%)Язык : RussianDefault : НетForced : Нет

Аудио #3Идентификатор : 4Формат : DTSФормат/Информация : Digital Theater SystemsРежим : 16Параметр Endianness формата : BigИдентификатор кодека : A_DTSПродолжительность : 2 ч. 3 м.Вид битрейта : ПостоянныйБитрейт : 1509 Кбит/секКаналы : 6 каналовРасположение каналов : Front: L C R, Side: L R, LFEЧастота : 48,0 КГцБитовая глубина : 24 битМетод сжатия : С потерямиРазмер потока : 1,30 Гбайт (12%)Язык : EnglishDefault : НетForced : Нет

Текст #1Идентификатор : 5Формат : UTF-8Идентификатор кодека : S_TEXT/UTF8Идентификатор кодека/Информация : UTF-8 Plain TextЗаголовок : ForcedЯзык : RussianDefault : ДаForced : Да

Текст #2Идентификатор : 6Формат : UTF-8Идентификатор кодека : S_TEXT/UTF8Идентификатор кодека/Информация : UTF-8 Plain TextЗаголовок : FullЯзык : RussianDefault : НетForced : Нет

Текст #3Идентификатор : 7Формат : UTF-8Идентификатор кодека : S_TEXT/UTF8Идентификатор кодека/Информация : UTF-8 Plain TextЗаголовок : FullЯзык : UkrainianDefault : НетForced : Нет

Текст #4Идентификатор : 8Формат : UTF-8Идентификатор кодека : S_TEXT/UTF8Идентификатор кодека/Информация : UTF-8 Plain TextЯзык : EnglishDefault : НетForced : Нет

Меню00:00:00.000 : en:00:00:00.00000:03:58.071 : en:00:03:58.07100:10:11.903 : en:00:10:11.90300:17:26.295 : en:00:17:26.29500:20:38.112 : en:00:20:38.11200:26:04.396 : en:00:26:04.39600:32:44.004 : en:00:32:44.00400:40:26.591 : en:00:40:26.59100:45:17.965 : en:00:45:17.96500:49:43.439 : en:00:49:43.43900:54:50.871 : en:00:54:50.87101:03:44.529 : en:01:03:44.52901:09:29.374 : en:01:09:29.37401:16:28.000 : en:01:16:28.00001:21:35.724 : en:01:21:35.72401:27:24.448 : en:01:27:24.44801:34:52.812 : en:01:34:52.81201:43:48.848 : en:01:43:48.84801:49:32.316 : en:01:49:32.31601:57:03.141 : en:01:57:03.141

Скачать Бойфренд из будущего через торрент http://pic.pb.wtf/images/6/mg8q5.jpg Скачать фильм Бойфренд из будущего через торрент бесплантно в хорошем качестве Описание: В возрасте 21 года Тим Лейк обнаруживает, что он может путешествовать во времени. В ночь после очередного неприятного Нового года ... 2014-01-02 12:59 10 10 28

Loading...

Loading...

% Раздел Тема Автор DL S | L
Фильмы 2013 [DVDrip, WEB-DLRip, HDrip] [ 2.19 GB ] Бойфренд из будущего / About Time [2013 BDRip-AVC] Dub + Eng + Sub sokol_ok Скачать
Фильмы 2013 [DVDrip, WEB-DLRip, HDrip] [ 2.05 GB ] Бойфренд из будущего / About Time [2013 BDRip ] coc900 Скачать
Фильмы (DVD фильмы) [ 4.37 GB ] Бойфренд из будущего / About Time DVD5 от New-Team / D / Сжатый DEVI Скачать
Фильмы (DVD фильмы) [ 7.36 GB ] Бойфренд из будущего / About Time [2013 DVD9] R5 voovaz Скачать
Фильмы 2013 [DVDrip, WEB-DLRip, HDrip] [ 1.46 GB ] Бойфренд из будущего / About Time [2013 HDRip ] MihailHD Скачать
Фильмы (Blu-ray, BD-Remux, HDDVD) [ 44.12 GB ] Бойфренд из будущего / About Time [2013 Blu-ray CEE ] Pavlin Скачать
Фильмы 2013 [DVDrip, WEB-DLRip, HDrip] [ 747 MB ] Бойфренд из будущего / About Time [2013 BDRip-AVC] Dub + Sub sokol_ok Скачать

Рекламный пират

03-01-2014 18:24 Бойфренд из будущего Скачать торрент  

Эта история заставляет задуматься над временем и тем, как мы им пользуемся. Фильм шикарный, все на высоте.Автору за релиз спасибо.

04-01-2014 12:25 Бойфренд из будущего Скачать торрент  

Спасибо буду на раздаче сколько смогу

Дорогой пользователь! Огромная просьба, поблагодарите релизера, оцените раздачу и оставьте свои комментарий, если Вы скачали Бойфренд из будущего через торрент бесплатно! Внесите свою лепту в развитие PiratBit!

Комментировать посты могут только пользователи прошедшие не сложную регистрацию

Бойфренд из будущего через торрент Скачать бесплатно Бойфренд из будущего Бойфренд из будущего скачать торрент Бойфренд из будущего смотреть онлайн Cкачать фильм Бойфренд из будущего бесплатно Бойфренд из будущего скачать торрент в хорошем качестве Бойфренд из будущего смотреть онлайн бесплатно в хорошем качестве

Вы не можете начинать темыВы не можете отвечать на сообщенияВы не можете редактировать свои сообщенияВы не можете удалять свои сообщенияВы не можете голосовать в опросахВы не можете прикреплять файлы к сообщениямВы можете скачивать файлы

Скачать фильм Бойфренд из будущего через торрент в хорошем качестве бесплатно 720p

piratbit.ru

Размер: 9.65 GB | Добавлен: 3 года 9 мес. назад | Торрент скачан:329 раз
Реклама Дарим 3000 рублей за регистрацию, не упусти свой шанс получить шикарный бонус!!!

02-01-2014 12:33 Бойфренд из будущего Скачать торрент  

Бойфренд из будущего / About Time«A new funny film about love. With a bit of time travel» Год выпуска: 2013Страна: Великобритания / Translux, Working Title Films, Пифагор (Студия дубляжа)Жанр: фантастика, драма, комедияПродолжительность: 02:03:22
  • Перевод: Профессиональный (Дубляж)
  • Русские субтитры: нет
  • Оригинальная аудиодорожка: Английская
Режиссер: Ричард Кёртис / Richard CurtisВ ролях: Доналл Глисон, Рэйчел МакАдамс, Билл Найи, Том Холландер, Марго Робби, Нив Гачев, Ванесса Кирби, Линдсэй Дункан, Лиза Айкхорн, Катрин СтэдменОписание: В возрасте 21 года Тим Лейк обнаруживает, что он может путешествовать во времени. В ночь после очередного неприятного Нового года отец Тима рассказывает ему, что мужчины в его семье всегда имели способность путешествовать во времени. Тим не может изменить историю, но он может изменить то, что происходит или происходило в его собственной жизни.
    Тип релиза: BDRip 720p
  • Контейнер: MKV
  • Видео кодек: h364 | Аудио кодек: DTS
  • Видео: 1280x536 at 23.976 fps, ~8700 kbps avg
  • Аудио 1: Russian: 48 kHz, DTS, 3/2 (L,C,R,l,r) + LFE ch, ~755.00 kbps avg
  • Аудио 2: English: 48 kHz, DTS, 3/2 (L,C,R,l,r) + LFE ch, ~1510.00 kbps avg
  • Субтитры: none
ОбщееУникальный идентификатор : 176724416400555094341807542065194881891 (0x84F3E2718AD77E408B8A397713145363)Полное имя : D:torrenttorAbout.Time.2013.BluRay.720p.Rus.Eng.mkvФормат : MatroskaВерсия формата : Version 2Размер файла : 9,65 ГбайтПродолжительность : 2 ч. 3 м.Общий поток : 11,2 Мбит/секДата кодирования : UTC 2014-01-01 16:04:16Программа кодирования : mkvmerge v5.8.0 ('No Sleep / Pillow') built on Sep 2 2012 15:37:04Библиотека кодирования : libebml v1.2.3 + libmatroska v1.3.0

ВидеоИдентификатор : 1Формат : AVCФормат/Информация : Advanced Video CodecПрофиль формата : [email protected]Параметр CABAC формата : ДаПараметр ReFrames формата : 2 кадраИдентификатор кодека : V_MPEG4/ISO/AVCПродолжительность : 2 ч. 3 м.Битрейт : 8699 Кбит/секШирина : 1280 пикселейВысота : 536 пикселейСоотношение сторон : 2,40:1Режим частоты кадров : ПостоянныйЧастота кадров : 23,976 кадра/секЦветовое пространство : YUVСубдискретизация насыщенности : 4:2:0Битовая глубина : 8 битТип развёртки : ПрогрессивнаяБит/(Пиксели*Кадры) : 0.529Размер потока : 7,50 Гбайт (78%)Библиотека кодирования : x264 core 140 r2377+40 929f149 tMod [[email protected] X86_64]Настройки программы : cabac=1 / ref=1 / deblock=1:0:0 / analyse=0x3:0x133 / me=hex / subme=1 / psy=1 / fade_compensate=0.00 / psy_rd=1.00:0.00 / mixed_ref=0 / me_range=16 / chroma_me=1 / trellis=2 / 8x8dct=1 / cqm=0 / deadzone=21,11 / fast_pskip=0 / chroma_qp_offset=0 / threads=12 / lookahead_threads=4 / sliced_threads=0 / nr=0 / decimate=1 / interlaced=0 / bluray_compat=0 / constrained_intra=0 / fgo=0 / bframes=1 / b_pyramid=0 / b_adapt=2 / b_bias=0 / direct=1 / weightb=1 / open_gop=0 / weightp=2 / keyint=240 / keyint_min=23 / scenecut=40 / intra_refresh=0 / rc=crf / mbtree=0 / crf=16.5000 / qcomp=0.60 / qpmin=0:0:0 / qpmax=69:69:69 / qpstep=4 / ip_ratio=1.40 / pb_ratio=1.30 / aq=1:0.80 / aq-sensitivity=10.00 / aq-factor=1.00:1.00:1.00 / aq2=0 / aq3=0Язык : EnglishDefault : ДаForced : Нет

Аудио #1Идентификатор : 2Формат : DTSФормат/Информация : Digital Theater SystemsРежим : 16Параметр Endianness формата : BigИдентификатор кодека : A_DTSПродолжительность : 2 ч. 3 м.Вид битрейта : ПостоянныйБитрейт : 768 Кбит/секКаналы : 6 каналовРасположение каналов : Front: L C R, Side: L R, LFEЧастота : 48,0 КГцБитовая глубина : 24 битМетод сжатия : С потерямиРазмер потока : 678 Мбайт (7%)Язык : RussianDefault : ДаForced : Нет

Аудио #2Идентификатор : 3Формат : DTSФормат/Информация : Digital Theater SystemsРежим : 16Параметр Endianness формата : BigИдентификатор кодека : A_DTSПродолжительность : 2 ч. 3 м.Вид битрейта : ПостоянныйБитрейт : 1509 Кбит/секКаналы : 6 каналовРасположение каналов : Front: L C R, Side: L R, LFEЧастота : 48,0 КГцБитовая глубина : 24 битМетод сжатия : С потерямиРазмер потока : 1,30 Гбайт (13%)Язык : EnglishDefault : НетForced : Нет

Скачать Бойфренд из будущего через торрент http://pic.pb.wtf/images/6/mg8q5.jpg Скачать фильм Бойфренд из будущего через торрент бесплантно в хорошем качестве Описание: В возрасте 21 года Тим Лейк обнаруживает, что он может путешествовать во времени. В ночь после очередного неприятного Нового года ... 2014-01-02 12:33 9.9 10 13

Loading...

Loading...

% Раздел Тема Автор DL S | L
Фильмы 2013 [DVDrip, WEB-DLRip, HDrip] [ 2.19 GB ] Бойфренд из будущего / About Time [2013 BDRip-AVC] Dub + Eng + Sub sokol_ok Скачать
Фильмы 2013 [DVDrip, WEB-DLRip, HDrip] [ 2.05 GB ] Бойфренд из будущего / About Time [2013 BDRip ] coc900 Скачать
Фильмы (DVD фильмы) [ 4.37 GB ] Бойфренд из будущего / About Time DVD5 от New-Team / D / Сжатый DEVI Скачать
Фильмы (DVD фильмы) [ 7.36 GB ] Бойфренд из будущего / About Time [2013 DVD9] R5 voovaz Скачать
Фильмы 2013 [DVDrip, WEB-DLRip, HDrip] [ 1.46 GB ] Бойфренд из будущего / About Time [2013 HDRip ] MihailHD Скачать
Фильмы (Blu-ray, BD-Remux, HDDVD) [ 44.12 GB ] Бойфренд из будущего / About Time [2013 Blu-ray CEE ] Pavlin Скачать
Фильмы 2013 [DVDrip, WEB-DLRip, HDrip] [ 747 MB ] Бойфренд из будущего / About Time [2013 BDRip-AVC] Dub + Sub sokol_ok Скачать

Рекламный пират

02-01-2014 20:48 Бойфренд из будущего Скачать торрент  

Очень хороший и добрый фильм, с удовольствием посмотрели, спасибо раздающему

Дорогой пользователь! Огромная просьба, поблагодарите релизера, оцените раздачу и оставьте свои комментарий, если Вы скачали Бойфренд из будущего через торрент бесплатно! Внесите свою лепту в развитие PiratBit!

Комментировать посты могут только пользователи прошедшие не сложную регистрацию

Бойфренд из будущего через торрент Скачать бесплатно Бойфренд из будущего Бойфренд из будущего скачать торрент Бойфренд из будущего смотреть онлайн Cкачать фильм Бойфренд из будущего бесплатно Бойфренд из будущего скачать торрент в хорошем качестве Бойфренд из будущего смотреть онлайн бесплатно в хорошем качестве

Вы не можете начинать темыВы не можете отвечать на сообщенияВы не можете редактировать свои сообщенияВы не можете удалять свои сообщенияВы не можете голосовать в опросахВы не можете прикреплять файлы к сообщениямВы можете скачивать файлы

Скачать фильм Бойфренд из будущего (2013) через торрент

gig-torrent.net

8 февраля 2016 13:09 Бойфренд из будущего / About Time (2013) BDRip от HQCLUB | Лицензия .torrent   [Информация о файле (нажмите для просмотра)] Перевод: профессиональный (полное дублирование)СЕЕ + оригинал (английский)Субтитры: русские (полные, форсированные), английские (полные, SDH, SDH-COLORED), украинскиеФормат: AVIКачество: BDRip (источник:Видео: 720x304 ((2.37:1), 23,976 fps, XviD build 65 ~1760 kbps avg, 0.34 bit/pixelАудио #1: 48 kHz, AC3 Dolby Digital, 3/2 (L,C,R,l,r) + LFE ch, ~384 kbps (RUS)Аудио #2: 48 kHz, AC3 Dolby Digital, 3/2 (L,C,R,l,r) + LFE ch, ~384 kbps (ENG) 2,18 Gb 263 9
8 февраля 2016 13:09 Бойфренд из будущего / About Time (2013) BDRip от HELLYWOOD | Лицензия .torrent   [Информация о файле (нажмите для просмотра)] Перевод: Профессиональный (полное дублирование) [лицензия] + Оригинальная звуковая дорожкаСубтитры: Русские, английские (Отдельным файлом)Формат: AVIКачество: BDRip (источник: /Blu-ray Disc CEE /1080p) Видео: 720x304 (2.37:1), 23.976 fps, XviD build 65 ~1629 kbps avg, 0.31 bit/pixelАудио #1: 48 kHz, AC3 Dolby Digital, 3/2 (L,C,R,l,r) + LFE ch, 448.00|DUB|Аудио #2: 48 kHz, AC3 Dolby Digital, 3/2 (L,C,R,l,r) + LFE ch, 448.00|ENG| 2,18 Gb 72 4
8 февраля 2016 13:09 Бойфренд из будущего / About Time (2013) BDRip 720p от GORESEWAGE | 2xDub .torrent   [Информация о файле (нажмите для просмотра)] Перевод 1: Профессиональный (дублированный) BD CEEПеревод 2: Профессиональный (дублированный) Line (Ukr)Субтитры: Russian (Forced BD CEE, Full BD CEE), Ukrainian (Full BD CEE), English (Full, SDH, SDH Colored, Commentary), Chinese (Full), Croatian (Full), Czech (Full), Estonian (Full), Greek (Full), Hungarian (Full), Latvian (Full), Lithuanian (Full), Polish (Full), Portuguese (Full BRA), Romanian (Full), Slovenian (Full), Spanish (Full), Turkish (Full)Качество: BDRip 720p(CtrlHD)Контейнер: MKVВидео: MPEG-4 AVC Video / 6787 kbps / 1280x534p / 23,976 fps / 2.40:1 / High Profile 4.1Аудио 1: Russian / DTS / 5.1 / 48 kHz / 768 kbps / 24-bit | Dub BD CEEАудио 2: Ukrainian / AC3 / 2.0 / 48 kHz / 192 kbps / 16-bit | Dub LineАудио 3: English / DTS / 5.1 / 48 kHz / 1536 kbps / 24-bit | OriginalАудио 4: English / AC3 / 2.0 / 48 kHz / 192 kbps / 16-bit | Commentary by director Richard Curtis & cast members Domhnall Gleeson, Bill Nighy, Vanessa Kirby, Lydia Wilson & Tom Hollander 8,31 Gb 28 3
8 февраля 2016 13:09 Бойфренд из будущего / About Time (2013) BDRip 1080p от GORESEWAGE | 2xDub .torrent   [Информация о файле (нажмите для просмотра)] Перевод 1: Профессиональный (дублированный) BD CEEПеревод 2: Профессиональный (дублированный) Line (Ukr)Субтитры: Russian (Forced BD CEE, Full BD CEE), Ukrainian (Full BD CEE), English (Full, SDH, SDH Colored, Commentary), Chinese (Full), Croatian (Full), Czech (Full), Estonian (Full), Greek (Full), Hungarian (Full), Latvian (Full), Lithuanian (Full), Polish (Full), Portuguese (Full BRA), Romanian (Full), Slovenian (Full), Spanish (Full), Turkish (Full)Качество: BDRip 1080p(HDWinG)Контейнер: MKVВидео: MPEG-4 AVC Video / 11200 kbps / 1920x800p / 23,976 fps / 2.40:1 / High Profile 4.1Аудио 1: Russian / DTS / 5.1 / 48 kHz / 768 kbps / 24-bit | Dub BD CEEАудио 2: Ukrainian / AC3 / 2.0 / 48 kHz / 192 kbps / 16-bit | Dub LineАудио 3: English / DTS / 5.1 / 48 kHz / 1536 kbps / 24-bit | OriginalАудио 4: English / AC3 / 2.0 / 48 kHz / 192 kbps / 16-bit | Commentary by director Richard Curtis & cast members Domhnall Gleeson, Bill Nighy, Vanessa Kirby, Lydia Wilson & Tom Hollander 12,17 Gb 52 5
8 февраля 2016 13:09 Бойфренд из будущего / About Time (2013) BDRip от MediaClub | КПК .torrent   [Информация о файле (нажмите для просмотра)] Перевод: ДублированныйКодек: MPEG-4Качество: BDRipВидео: ~ 615 Кбит/с, 320х128Звук: Русский (AAC, 2 ch, 165 Кбит/с) 543,2 Mb 16 1
8 февраля 2016 13:09 Бойфренд из будущего / About Time (2013) DVD5 от New-Team | D | Сжатый .torrent   [Информация о файле (нажмите для просмотра)] Перевод: Профессиональный (полное дублирование)Кодек: MPEG2Качество: DVD5 (сжатый)Видео: PAL 16:9 (720x576) VBR ~ 5282.90 kbps avgЗвук: Русский, английский DD 5.1 (384Kbps)Субтитры: Русские, английские, украинские, латышские, литовские, эстонские, польские, чешские, венгерские, греческие, болгарские, хорватские, словенские, румынские, иврит, китайский 4,37 Gb 7 4
8 февраля 2016 13:09 Бойфренд из будущего / About Time (2013) DVD9 от New-Team | D | Лицензия .torrent   [Информация о файле (нажмите для просмотра)] Перевод: Профессиональный (полное дублирование)Кодек: MPEG2Качество: DVD9Видео: PAL 16:9 (720x576) VBR ~ 8110.08 kbps avgЗвук: Русский, английский, польский, чешский, венгерский DD 5.1 (384Kbps)Субтитры: Русские, английские, украинские, латышские, литовские, эстонские, польские, чешские, венгерские, греческие, болгарские, хорватские, словенские, румынские, иврит, китайский 7,36 Gb 7 1
8 февраля 2016 13:09 Бойфренд из будущего / About Time (2013) BDRip от New-Team | D | Лицензия .torrent   [Информация о файле (нажмите для просмотра)] Перевод: Профессиональный (полное дублирование)|Лицензия - Blu-ray CEE|Видео: 656x272 (2,40:1), 23.976 fps, XviD 65 ~707 kbps avg, 0.165 bit/pixelАудио: 48 kHz, MPEG Layer 3, 2 ch, 128.00 kbps Constant |Дубляж, 745,11 Mb 53 3
8 февраля 2016 13:09 Бойфренд из будущего / About Time (2013) BDRip от New-Team | D | Лицензия .torrent   [Информация о файле (нажмите для просмотра)] Перевод: Профессиональный (полное дублирование)|Лицензия - Blu-ray CEE|Видео: 720x304 (2.35:1), 23.976 fps, XviD 65 ~1482 kbps avg, 0.282 bit/pixelАудио: 48 kHz, AC3 Dolby Digital, 2/0 (L,R) ch, 192 kbps Constant |Дубляж, 1,45 Gb 60 1
8 февраля 2016 13:09 Бойфренд из будущего / About Time (2013) BDRip-AVC от HQCLUB | Лицензия .torrent   [Информация о файле (нажмите для просмотра)] Перевод: Профессиональный (полное дублирование) + Оригинальная звуковая дорожкаСубтитры: Русские (форсированные, полные) BD CEE, украинские (полные) BD CEE, английские (обычные, SDH, SDH-COLORED)(*.srt, отключаемые)Формат: MKVКачество: BDRip-AVC (источник:Видео: 1056x440 (2,40:1), 23.976 fps, [email protected], 2pass, ~1633 kbps avg, 0.15 bit/pixelАудио #1: 48 kHz, AC3, 3/2 (L,C,R,l,r) + LFE ch, ~448.00 kbps avg (RUS)Аудио #2: 48 kHz, AC3, 3/2 (L,C,R,l,r) + LFE ch, ~448.00 kbps avg (ENG)Видео: Идентификатор : 1 Формат : AVC Формат/Информация : Advanced Video Codec Профиль формата : [email protected] Параметр CABAC формата : Да Параметр ReFrames формата : 10 кадров Идентификатор кодека : V_MPEG4/ISO/AVC Продолжительность : 2 ч. 3 м. Битрейт : 1633 Кбит/сек Ширина : 1056 пикселей Высота : 440 пикселей Соотношение сторон : 2,40:1 Режим частоты кадров : Постоянный Частота кадров : 23,976 кадра/сек Цветовое пространство : YUV Субдискретизация насыщенности : 4:2:0 Битовая глубина : 8 бит Тип развёртки : Прогрессивная Бит/(Пиксели*Кадры) : 0.147 Размер потока : 1,37 Гбайт (63%) Заголовок : Бойфренд из будущего / About Time (2013) BDRip-AVC by MOSFET | HQCLUB.NET Библиотека кодирования : x264 core 138 r2358 9e941d1 Настройки программы : cabac=1 / ref=10 / deblock=1:-2:-1 / analyse=0x3:0x113 / me=esa / subme=10 / psy=1 / psy_rd=1.00:0.00 / mixed_ref=1 / me_range=64 / chroma_me=1 / trellis=2 / 8x8dct=1 / cqm=0 / deadzone=21,11 / fast_pskip=0 / chroma_qp_offset=-2 / threads=12 / lookahead_threads=3 / sliced_threads=0 / nr=0 / decimate=1 / interlaced=0 / bluray_compat=0 / constrained_intra=0 / bframes=13 / b_pyramid=2 / b_adapt=2 / b_bias=0 / direct=3 / weightb=1 / open_gop=0 / weightp=2 / keyint=240 / keyint_min=23 / scenecut=40 / intra_refresh=0 / rc_lookahead=50 / rc=2pass / mbtree=1 / bitrate=1633 / ratetol=1.0 / qcomp=0.70 / qpmin=0 / qpmax=69 / qpstep=4 / cplxblur=20.0 / qblur=0.5 / vbv_maxrate=50000 / vbv_bufsize=62500 / nal_hrd=none / ip_ratio=1.40 / aq=1:0.80 Язык : English Default : Да Forced : НетАудио #1: Идентификатор : 2 Формат : AC-3 Формат/Информация : Audio Coding 3 Расширение режима : CM (complete main) Параметр Endianness формата : Big Идентификатор кодека : A_AC3 Продолжительность : 2 ч. 3 м. Вид битрейта : Постоянный Битрейт : 448 Кбит/сек Каналы : 6 каналов Расположение каналов : Front: L C R, Side: L R, LFE Частота : 48,0 КГц Битовая глубина : 16 бит Метод сжатия : С потерями Размер потока : 395 Мбайт (18%) Заголовок : Профессиональный (полное дублирование) Blu-ray CEE Язык : Russian Default : Да Forced : НетАудио #2: Идентификатор : 3 Формат : AC-3 Формат/Информация : Audio Coding 3 Расширение режима : CM (complete main) Параметр Endianness формата : Big Идентификатор кодека : A_AC3 Продолжительность : 2 ч. 3 м. Вид битрейта : Постоянный Битрейт : 448 Кбит/сек Каналы : 6 каналов Расположение каналов : Front: L C R, Side: L R, LFE Частота : 48,0 КГц Битовая глубина : 16 бит Метод сжатия : С потерями Размер потока : 395 Мбайт (18%) Заголовок : Оригинальная звуковая дорожка Язык : English Default : Нет Forced : Нет 2,18 Gb 153 4
8 февраля 2016 13:09 Бойфренд из будущего / About Time (2013) BDRip 720p от Leonardo and Scarabey | Лицензия .torrent   [Информация о файле (нажмите для просмотра)] Перевод: Профессиональный (полное дублирование) ЛицензияФормат: MKVВидео кодек: MPEG-4 AVC Аудио кодек: AC3Видео: 1280x534 (2.40:1) at 23.976 fps, AVC at 2575 kbps avg, 0.154 bit/pixelАудио: 48 kHz, AC3 Dolby Digital, 3/2 (L,C,R,l,r) + LFE ch, 384.00 kbps - RussianСубтитры: Русские, английские 2,55 Gb 81 6
8 февраля 2016 13:09 Бойфренд из будущего / About Time (2013) HDRip от Scarabey | D | Лицензия .torrent   [Информация о файле (нажмите для просмотра)] Перевод: Профессиональный (полное дублирование) - Лицензия Качество: HDRipФормат: AVIВидео: 720x304 (2.37:1), 23.976 fps, XviD build 73 ~2063 kbps avg, 0.39 bit/pixelАудио: 48 kHz, AC3 Dolby Digital, 3/2 (L,C,R,l,r) + LFE ch, ~448.00 kbps avg 2,17 Gb 28 3
8 февраля 2016 13:09 Бойфренд из будущего / About Time (2013) BDRip-AVC от New-Team | D | Лицензия .torrent   [Информация о файле (нажмите для просмотра)] Перевод: Профессиональный (полное дублирование) [Лицензия]Видео: 1768 Кбит/сек, 1056*440 (2,40:1), в 23,976 кадр/сек, AVCАудио #1: Russian, 384 Кбит/сек, 48,0 КГц, 16 бит, 6 канала(ов), AC-3Аудио #2: English, 384 Кбит/сек, 48,0 КГц, 16 бит, 6 канала(ов), AC-3Видео: Идентификатор : 1 Формат : AVC Формат/Информация : Advanced Video Codec Профиль формата : [email protected] Параметр CABAC формата : Да Параметр ReFrames формата : 11 кадры Идентификатор кодека : V_MPEG4/ISO/AVC Продолжительность : 2 ч. 3 м. Битрейт : 1768 Кбит/сек Ширина : 1056 пикс. Высота : 440 пикс. Соотношение сторон : 2,40:1 Частота кадров : 23,976 кадр/сек Цветовое пространство : YUV Подвыборка цветности : 4:2:0 Битовая глубина : 8 бит Тип развёртки : Прогрессивная Бит/(Пиксели*Кадры) : 0.159 Размер потока : 1,48 Гбайт (68%) Библиотека кодирования : x264 core 138 r2358 9e941d1 Настройки программы : cabac=1 / ref=11 / deblock=1:-3:-2 / analyse=0x3:0x133 / me=umh / subme=11 / psy=1 / psy_rd=1.00:0.10 / mixed_ref=1 / me_range=48 / chroma_me=1 / trellis=2 / 8x8dct=1 / cqm=0 / deadzone=21,11 / fast_pskip=0 / chroma_qp_offset=-3 / threads=6 / lookahead_threads=1 / sliced_threads=0 / nr=0 / decimate=0 / interlaced=0 / bluray_compat=0 / constrained_intra=0 / bframes=11 / b_pyramid=2 / b_adapt=2 / b_bias=0 / direct=3 / weightb=1 / open_gop=0 / weightp=2 / keyint=240 / keyint_min=23 / scenecut=40 / intra_refresh=0 / rc_lookahead=80 / rc=2pass / mbtree=0 / bitrate=1768 / ratetol=1.0 / qcomp=0.65 / qpmin=0 / qpmax=69 / qpstep=4 / cplxblur=20.0 / qblur=0.5 / vbv_maxrate=30000 / vbv_bufsize=40000 / nal_hrd=none / ip_ratio=1.40 / pb_ratio=1.30 / aq=2:0.90Аудио #1: Идентификатор : 2 Формат : AC-3 Формат/Информация : Audio Coding 3 Расширение режима : CM (complete main) Идентификатор кодека : A_AC3 Продолжительность : 2 ч. 3 м. Вид битрейта : Постоянный Битрейт : 384 Кбит/сек Канал(ы) : 6 канала(ов) Расположение каналов : Front: L C R, Side: L R, LFE Частота : 48,0 КГц Битовая глубина : 16 бит Метод сжатия : С потерями Размер потока : 339 Мбайт (15%) Заголовок : AC3 5.1 @ 384 kbps - Dub License Язык : RussianАудио #2: Идентификатор : 3 Формат : AC-3 Формат/Информация : Audio Coding 3 Расширение режима : CM (complete main) Идентификатор кодека : A_AC3 Продолжительность : 2 ч. 3 м. Вид битрейта : Постоянный Битрейт : 384 Кбит/сек Канал(ы) : 6 канала(ов) Расположение каналов : Front: L C R, Side: L R, LFE Частота : 48,0 КГц Битовая глубина : 16 бит Метод сжатия : С потерями Размер потока : 339 Мбайт (15%) Заголовок : AC3 5.1 @ 384 kbps Язык : English 2,19 Gb 14 3
8 февраля 2016 13:09 Бойфренд из будущего / About Time (2013) BDRip 1080p от Killbrain and Scarabey | Лицензия .torrent   [Информация о файле (нажмите для просмотра)] Перевод: русский профессиональный (полное дублирование)[Лицензия, BD CEE]Контейнер: MKVВидео: AVC / [email protected] /2 pass / 23,976 fps / 1920x800p (2,40:1) / 6,7 Mbps / 0.182Аудио 1: AC3 / 5.1 ch / 448 kbps / Русский дубляж, BD CEEАудио 2: AC3 / 5.1 ch / 640 kbps / Английский original, BD CEEСубтитры: [softsub SRT]Видео: Идентификатор : 1 Формат : AVC Формат/Информация : Advanced Video Codec Профиль формата : [email protected] Параметр CABAC формата : Да Параметр ReFrames формата : 4 кадра Идентификатор кодека : V_MPEG4/ISO/AVC Продолжительность : 2 ч. 3 м. Битрейт : 6700 Кбит/сек Ширина : 1920 пикселей Высота : 800 пикселей Соотношение сторон : 2,40:1 Режим частоты кадров : Постоянный Частота кадров : 23,976 кадра/сек Цветовое пространство : YUV Субдискретизация насыщенности : 4:2:0 Битовая глубина : 8 бит Тип развёртки : Прогрессивная Бит/(Пиксели*Кадры) : 0.182 Размер потока : 5,64 Гбайт (84%) Заголовок : About Time (2013) Библиотека кодирования : x264 core 138 r2358 9e941d1 Настройки программы : cabac=1 / ref=4 / deblock=1:-3:-3 / analyse=0x3:0x113 / me=umh / subme=10 / psy=1 / psy_rd=1.00:0.15 / mixed_ref=1 / me_range=32 / chroma_me=1 / trellis=2 / 8x8dct=1 / cqm=0 / deadzone=21,11 / fast_pskip=0 / chroma_qp_offset=-3 / threads=3 / lookahead_threads=1 / sliced_threads=0 / nr=0 / decimate=0 / interlaced=0 / bluray_compat=0 / constrained_intra=0 / bframes=6 / b_pyramid=2 / b_adapt=2 / b_bias=0 / direct=3 / weightb=1 / open_gop=0 / weightp=2 / keyint=240 / keyint_min=24 / scenecut=40 / intra_refresh=0 / rc_lookahead=60 / rc=2pass / mbtree=0 / bitrate=6700 / ratetol=1.0 / qcomp=0.65 / qpmin=0 / qpmax=69 / qpstep=4 / cplxblur=20.0 / qblur=0.5 / vbv_maxrate=40000 / vbv_bufsize=30000 / nal_hrd=none / ip_ratio=1.40 / pb_ratio=1.30 / aq=1:0.80 Язык : English Default : Да Forced : НетАудио #1: Идентификатор : 2 Формат : AC-3 Формат/Информация : Audio Coding 3 Расширение режима : CM (complete main) Параметр Endianness формата : Big Идентификатор кодека : A_AC3 Продолжительность : 2 ч. 3 м. Вид битрейта : Постоянный Битрейт : 448 Кбит/сек Каналы : 6 каналов Расположение каналов : Front: L C R, Side: L R, LFE Частота : 48,0 КГц Битовая глубина : 16 бит Метод сжатия : С потерями Размер потока : 395 Мбайт (6%) Заголовок : AC3 / 5.1 ch / 448 kbps / Русский дубляж, BD CEE Язык : Russian Default : Да Forced : НетАудио #2: Идентификатор : 3 Формат : AC-3 Формат/Информация : Audio Coding 3 Расширение режима : CM (complete main) Параметр Endianness формата : Big Идентификатор кодека : A_AC3 Продолжительность : 2 ч. 3 м. Вид битрейта : Постоянный Битрейт : 640 Кбит/сек Каналы : 6 каналов Расположение каналов : Front: L C R, Side: L R, LFE Частота : 48,0 КГц Битовая глубина : 16 бит Метод сжатия : С потерями Размер потока : 565 Мбайт (8%) Заголовок : AC3 / 5.1 ch / 640 kbps / Английский original, BD CEE Язык : English Default : Нет Forced : Нет 6,71 Gb 27 4
8 февраля 2016 13:09 Бойфренд из будущего / About Time (2013) HDRip от Scarabey | D | Лицензия .torrent   [Информация о файле (нажмите для просмотра)] Перевод: Профессиональный (полное дублирование) - Лицензия Качество: HDRipФормат: AVIВидео: 720x304 (2.37:1), 23.976 fps, XviD build 73 ~1477 kbps avg, 0.28 bit/pixelАудио: 48 kHz, AC3 Dolby Digital, 2/0 (L,R) ch, ~192.00 kbps avg 1,45 Gb 948 31
8 февраля 2016 13:09 Бойфренд из будущего / About Time (2013) HDRip от Scarabey | D | Лицензия .torrent   [Информация о файле (нажмите для просмотра)] Перевод: Профессиональный (полное дублирование) - Лицензия Качество: HDRipФормат: AVIВидео: 640x272 (2.35:1), 23.976 fps, XviD build 73 ~754 kbps avg, 0.18 bit/pixelАудио: 48 kHz, MPEG Layer 3, 2 ch, ~128.00 kbps avg 787,17 Mb 39 4
8 февраля 2016 13:09 Бойфренд из будущего / About Time (2013) BDRip 1080p .torrent   [Информация о файле (нажмите для просмотра)] Перевод: Дублированный (лицензия)Кодек: x264Качество: BDRip (источник: Blu-ray Disc)Видео: 1920x800 (2,40:1), 23.976 fps, 8110 kbpsАудио #1: AC-3, 6 ch, 448 kbps (Rus)Аудио #2: AC-3, 6 ch, 448 kbps (Eng)Субтитры: Русские (форс,полные), АнглийскиеВидео: Идентификатор : 1 Формат : AVC Формат/Информация : Advanced Video Codec Профиль формата : [email protected] Параметр CABAC формата : Да Параметр ReFrames формата : 5 кадров Идентификатор кодека : V_MPEG4/ISO/AVC Продолжительность : 2 ч. 3 м. Битрейт : 8110 Кбит/сек Ширина : 1920 пикселей Высота : 800 пикселей Соотношение сторон : 2,40:1 Режим частоты кадров : Постоянный Частота кадров : 23,976 кадра/сек Цветовое пространство : YUV Субдискретизация насыщенности : 4:2:0 Битовая глубина : 8 бит Тип развёртки : Прогрессивная Бит/(Пиксели*Кадры) : 0.220 Размер потока : 6,83 Гбайт (88%) Заголовок : Release by AlexKa Библиотека кодирования : x264 core 140 r2377 1ca7bb9 Настройки программы : cabac=1 / ref=5 / deblock=1:-3:-3 / analyse=0x3:0x133 / me=umh / subme=11 / psy=1 / psy_rd=1.00:0.00 / mixed_ref=1 / me_range=32 / chroma_me=1 / trellis=2 / 8x8dct=1 / cqm=0 / deadzone=21,11 / fast_pskip=0 / chroma_qp_offset=-2 / threads=12 / lookahead_threads=2 / sliced_threads=0 / nr=0 / decimate=0 / interlaced=0 / bluray_compat=0 / constrained_intra=0 / bframes=7 / b_pyramid=2 / b_adapt=2 / b_bias=0 / direct=3 / weightb=1 / open_gop=0 / weightp=2 / keyint=240 / keyint_min=23 / scenecut=40 / intra_refresh=0 / rc=2pass / mbtree=0 / bitrate=8110 / ratetol=1.0 / qcomp=0.60 / qpmin=0 / qpmax=69 / qpstep=4 / cplxblur=20.0 / qblur=0.5 / ip_ratio=1.40 / pb_ratio=1.30 / aq=1:0.70 Язык : EnglishАудио #1: Идентификатор : 2 Формат : AC-3 Формат/Информация : Audio Coding 3 Расширение режима : CM (complete main) Параметр Endianness формата : Big Идентификатор кодека : A_AC3 Продолжительность : 2 ч. 3 м. Вид битрейта : Постоянный Битрейт : 448 Кбит/сек Каналы : 6 каналов Расположение каналов : Front: L C R, Side: L R, LFE Частота : 48,0 КГц Битовая глубина : 16 бит Метод сжатия : С потерями Размер потока : 395 Мбайт (5%) Заголовок : Rus Язык : RussianАудио #2: Идентификатор : 3 Формат : AC-3 Формат/Информация : Audio Coding 3 Расширение режима : CM (complete main) Параметр Endianness формата : Big Идентификатор кодека : A_AC3 Продолжительность : 2 ч. 3 м. Вид битрейта : Постоянный Битрейт : 448 Кбит/сек Каналы : 6 каналов Расположение каналов : Front: L C R, Side: L R, LFE Частота : 48,0 КГц Битовая глубина : 16 бит Метод сжатия : С потерями Размер потока : 395 Мбайт (5%) Заголовок : Eng Язык : English 7,76 Gb 66 3
8 февраля 2016 13:09 Бойфренд из будущего / About Time (2013) BDRip-AVC от New-Team | D | Лицензия .torrent   [Информация о файле (нажмите для просмотра)] Перевод: Профессиональный (полное дублирование) [Лицензия]Видео: 782 Кбит/сек, 816*340 (2,40:1), в 23,976 кадр/сек, AVCАудио: Russian, 64,0 Кбит/сек, 48,0 КГц / 24,0 КГц, 2 канала(ов), AAC (HE-AAC / LC)Видео: Идентификатор : 1 Формат : AVC Формат/Информация : Advanced Video Codec Профиль формата : [email protected] Параметр CABAC формата : Да Параметр ReFrames формата : 13 кадры Идентификатор кодека : V_MPEG4/ISO/AVC Продолжительность : 2 ч. 3 м. Номинальный битрейт : 782 Кбит/сек Ширина : 816 пикс. Высота : 340 пикс. Соотношение сторон : 2,40:1 Частота кадров : 23,976 кадр/сек Цветовое пространство : YUV Подвыборка цветности : 4:2:0 Битовая глубина : 8 бит Тип развёртки : Прогрессивная Бит/(Пиксели*Кадры) : 0.118 Библиотека кодирования : x264 core 138 r2358 9e941d1 Настройки программы : cabac=1 / ref=13 / deblock=1:-1:-1 / analyse=0x3:0x133 / me=umh / subme=10 / psy=1 / psy_rd=1.00:0.10 / mixed_ref=1 / me_range=48 / chroma_me=1 / trellis=2 / 8x8dct=1 / cqm=0 / deadzone=21,11 / fast_pskip=0 / chroma_qp_offset=-3 / threads=6 / lookahead_threads=1 / sliced_threads=0 / nr=0 / decimate=0 / interlaced=0 / bluray_compat=0 / constrained_intra=0 / bframes=14 / b_pyramid=2 / b_adapt=2 / b_bias=0 / direct=3 / weightb=1 / open_gop=0 / weightp=2 / keyint=240 / keyint_min=23 / scenecut=40 / intra_refresh=0 / rc_lookahead=80 / rc=2pass / mbtree=0 / bitrate=782 / ratetol=1.0 / qcomp=0.65 / qpmin=0 / qpmax=69 / qpstep=4 / cplxblur=20.0 / qblur=0.5 / vbv_maxrate=20000 / vbv_bufsize=25000 / nal_hrd=none / ip_ratio=1.40 / pb_ratio=1.30 / aq=2:1.00Аудио: Идентификатор : 2 Формат : AAC Формат/Информация : Advanced Audio Codec Профиль формата : HE-AAC / LC Идентификатор кодека : A_AAC Продолжительность : 2 ч. 3 м. Канал(ы) : 2 канала(ов) Расположение каналов : Front: L R Частота : 48,0 КГц / 24,0 КГц Метод сжатия : С потерями Задержка видео : 31 мс. Заголовок : AAC 2.0 @ 64 kbps Язык : Russian 747,47 Mb 27 4
8 февраля 2016 13:09 Бойфренд из будущего / About Time (2013) BDRip-AVC от HELLYWOOD | Лицензия .torrent   [Информация о файле (нажмите для просмотра)] Перевод: Профессиональный (полное дублирование)Субтитры: Русские, английскиеКачество: BDRip-AVC [BDRemux]Формат: MKVВидео: х.264, 1056x440 (2,40:1), 23,976 fps, 1637 Кbps, 0.147 bit/pixelАудио#1: 48 kHz, AC3 Dolby Digital, 3/2 (L,C,R,l,r) + LFE ch, 448.00 kbps |RUSАудио#2: 48 kHz, AC3 Dolby Digital, 3/2 (L,C,R,l,r) + LFE ch, 448.00 kbps |ENG 2,18 Gb 13 4
8 февраля 2016 13:09 Бойфренд из будущего / About Time (2013) BDRip-AVC от New-Team | D | Лицензия .torrent   [Информация о файле (нажмите для просмотра)] Перевод: Профессиональный (полное дублирование) [Лицензия]Видео: 1428 Кбит/сек, 960*400 (2,40:1), в 23,976 кадр/сек, AVCАудио #1: Russian, 128 Кбит/сек, 48,0 КГц, 2 канала(ов), AAC (LC)Аудио #2: English, 128 Кбит/сек, 48,0 КГц, 2 канала(ов), AAC (LC)Видео: Идентификатор : 1 Формат : AVC Формат/Информация : Advanced Video Codec Профиль формата : [email protected] Параметр CABAC формата : Да Параметр ReFrames формата : 10 кадры Идентификатор кодека : V_MPEG4/ISO/AVC Продолжительность : 2 ч. 3 м. Номинальный битрейт : 1428 Кбит/сек Ширина : 960 пикс. Высота : 400 пикс. Соотношение сторон : 2,40:1 Частота кадров : 23,976 кадр/сек Цветовое пространство : YUV Подвыборка цветности : 4:2:0 Битовая глубина : 8 бит Тип развёртки : Прогрессивная Бит/(Пиксели*Кадры) : 0.155 Библиотека кодирования : x264 core 138 r2358 9e941d1 Настройки программы : cabac=1 / ref=10 / deblock=1:-3:-2 / analyse=0x3:0x133 / me=umh / subme=11 / psy=1 / psy_rd=1.00:0.10 / mixed_ref=1 / me_range=48 / chroma_me=1 / trellis=2 / 8x8dct=1 / cqm=0 / deadzone=21,11 / fast_pskip=0 / chroma_qp_offset=-3 / threads=6 / lookahead_threads=1 / sliced_threads=0 / nr=0 / decimate=0 / interlaced=0 / bluray_compat=0 / constrained_intra=0 / bframes=11 / b_pyramid=2 / b_adapt=2 / b_bias=0 / direct=3 / weightb=1 / open_gop=0 / weightp=2 / keyint=240 / keyint_min=23 / scenecut=40 / intra_refresh=0 / rc_lookahead=80 / rc=2pass / mbtree=1 / bitrate=1428 / ratetol=1.0 / qcomp=0.65 / qpmin=0 / qpmax=69 / qpstep=4 / cplxblur=20.0 / qblur=0.5 / vbv_maxrate=30000 / vbv_bufsize=40000 / nal_hrd=none / ip_ratio=1.40 / aq=2:0.90Аудио #1: Идентификатор : 2 Формат : AAC Формат/Информация : Advanced Audio Codec Профиль формата : LC Идентификатор кодека : A_AAC Продолжительность : 2 ч. 3 м. Канал(ы) : 2 канала(ов) Расположение каналов : Front: L R Частота : 48,0 КГц Метод сжатия : С потерями Задержка видео : 9 мс. Заголовок : AAC 2.0 @ 128 kbps - Dub License Язык : RussianАудио #2: Идентификатор : 3 Формат : AAC Формат/Информация : Advanced Audio Codec Профиль формата : LC Идентификатор кодека : A_AAC Продолжительность : 2 ч. 3 м. Канал(ы) : 2 канала(ов) Расположение каналов : Front: L R Частота : 48,0 КГц Метод сжатия : С потерями Задержка видео : 9 мс. Заголовок : AAC 2.0 @ 128 kbps Язык : English 1,45 Gb 35 5
8 февраля 2016 13:09 Бойфренд из будущего / About Time (2013) HDRip от -=HD-NET=- | КПК | Лицензия .torrent   [Информация о файле (нажмите для просмотра)] Кодек: х264Качество: HDRip | КПКВидео: MPEG-4, 480 х 200, 23,976 fps, 334 Кбит/сАудио: ААС LC, 2 ch, 128 Кбит/с 409,01 Mb 41 1
8 февраля 2016 13:09 Бойфренд из будущего / About Time (2013) BDRip 720p | Лицензия .torrent   [Информация о файле (нажмите для просмотра)] Перевод: Дублированный [Лицензия]Качество: BDRip 720pФормат: MKVВидео: AVC, 1280x534 (2.40:1) at 23.976 fps, AVC at 4172 kbps avg, 0.255 bit/pixelАудио 1: Русский / AC3 / 6ch / 448kbps | ДубляжАудио 2: Английский AC3 / 6ch / 448 kbps | OriginalСубтитры: Русские, Английские 4,37 Gb 122 6
8 февраля 2016 13:08 Бойфренд из будущего / About Time (2013) BDRip 1080p | Лицензия .torrent   [Информация о файле (нажмите для просмотра)] Качество: BDRip 1080pВидео: MPEG-4 AVC, 9518 Кбит/с, 1920x800, 23.976 кадр/сАудио: Русский (AC3, 6 ch, 640 Кбит/с), (DTS, 6 ch, 768 Кбит/с), английский (DTS, 6 ch, 1510 Кбит/с)Перевод: Дублированный[Лицензия]Субтитры: Русские, украинские, английские 10,71 Gb 71 8
8 февраля 2016 13:08 Бойфренд из будущего / About Time (2013) Blu-Ray Remux 1080p | Лицензия .torrent   [Информация о файле (нажмите для просмотра)] Качество: Blu-Ray Remux (1080p)Видео: MPEG-4 AVC, 30168 Кбит/с, 1920x1080Аудио: Русский (DTS, 6 ch, 768 Кбит/с), английский (DTS-HD MA, 6 ch, 3718 Кбит/с)Перевод: ДублированныйСубтитры: Русские, английские 29,63 Gb 1 1

Смотрите также