Бесконечная история скачать торрент в хорошем качестве


Скачать фильм Бесконечная история (1984) через торрент

gig-torrent.net

22 марта 2016 13:28 Бесконечная История / Die Unendliche Geschichte (1984) HDRip от Scarabey | P .torrent   [Информация о файле (нажмите для просмотра)] Перевод: Профессиональный (многоголосый, закадровый)Видео: 720x304 (2.37:1), 23.976 fps, XviD build 50 ~1808 kbps avg, 0.34 bit/pixelАудио: 48 kHz, AC3 Dolby Digital, 3/2 (L,C,R,l,r) + LFE ch, ~384 kbps 1,44 Gb 19 1
22 марта 2016 13:28 Бесконечная История / The Neverending Story (1984) HDRip от Scarabey | P .torrent   [Информация о файле (нажмите для просмотра)] Перевод: Профессиональный (многоголосый, закадровый)Видео: 688x288 (2.39:1), 23.976 fps, XviD build 73 ~971 kbps avg, 0.20 bit/pixelАудио: 48 kHz, MPEG Layer 3, 2 ch, ~128.00 kbps avg 745,33 Mb 10 2
22 марта 2016 13:28 Бесконечная история / The NeverEnding Story (1984) HDRip от New-Team | P .torrent   [Информация о файле (нажмите для просмотра)] Перевод: Профессиональный (многоголосый, закадровый)Субтитры: нетКачество: HDRip [BDRip 720p]Формат: AVIВидео: 720x304 (2.37:1), 23.976 fps, XviD build 73 ~1834 kbps avg, 0.35 bit/pixelАудио: 48 kHz, AC3 Dolby Digital, 3/2 (L,C,R,l,r) + LFE ch, ~384 kbps 1,46 Gb 25 5
22 марта 2016 13:28 Бесконечная история / The NeverEnding Story (1984) HDRip от New-Team | P .torrent   [Информация о файле (нажмите для просмотра)] Перевод: Профессиональный (многоголосый, закадровый)Субтитры: нетКачество: HDRip [BDRip 720p]Формат: AVIВидео: 688x288 (2.39:1), 23.976 fps, XviD build 73 ~971 kbps avg, 0.20 bit/pixelАудио: 48 kHz, MPEG Layer 3, 2 ch, ~128.00 kbps avg 745,22 Mb 8 8
22 марта 2016 13:27 Бесконечная история / The NeverEnding Story (1984) BDRip 1080p .torrent   [Информация о файле (нажмите для просмотра)] Перевод: Профессиональный (многоголосый закадровый)Кодек: x264Качество: BDRip (источник: BD Remux)Видео: 1920x808 (2,40:1), 23.976 fps, 9586 kbpsАудио: AC-3, 6 ch, 384 kbps (Rus) MVOСубтитры: РусскиеВидео: Идентификатор : 1 Формат : AVC Формат/Информация : Advanced Video Codec Профиль формата : [email protected] Параметр CABAC формата : Да Параметр ReFrames формата : 5 кадров Идентификатор кодека : V_MPEG4/ISO/AVC Продолжительность : 1 ч. 33 м. Битрейт : 9586 Кбит/сек Ширина : 1920 пикселей Высота : 808 пикселей Соотношение сторон : 2,40:1 Режим частоты кадров : Постоянный Частота кадров : 23,976 кадра/сек Цветовое пространство : YUV Субдискретизация насыщенности : 4:2:0 Битовая глубина : 8 бит Тип развёртки : Прогрессивная Бит/(Пиксели*Кадры) : 0.258 Размер потока : 6,29 Гбайт (94%) Библиотека кодирования : x264 core 128 r2216M 198a7ea Настройки программы : cabac=1 / ref=5 / deblock=1:0:0 / analyse=0x3:0x133 / me=umh / subme=10 / psy=1 / psy_rd=1.00:0.00 / mixed_ref=1 / me_range=32 / chroma_me=1 / trellis=2 / 8x8dct=1 / cqm=0 / deadzone=21,11 / fast_pskip=1 / chroma_qp_offset=-2 / threads=4 / lookahead_threads=1 / sliced_threads=0 / nr=0 / decimate=1 / interlaced=0 / bluray_compat=0 / constrained_intra=0 / bframes=8 / b_pyramid=2 / b_adapt=2 / b_bias=0 / direct=3 / weightb=1 / open_gop=0 / weightp=2 / keyint=240 / keyint_min=23 / scenecut=40 / intra_refresh=0 / rc=crf / mbtree=0 / crf=20.0 / qcomp=0.60 / qpmin=10 / qpmax=69 / qpstep=4 / ip_ratio=1.40 / pb_ratio=1.30 / aq=1:1.00 Язык : English Default : Да Forced : НетАудио: Идентификатор : 2 Формат : AC-3 Формат/Информация : Audio Coding 3 Расширение режима : CM (complete main) Параметр Endianness формата : Big Идентификатор кодека : A_AC3 Продолжительность : 1 ч. 33 м. Вид битрейта : Постоянный Битрейт : 384 Кбит/сек Каналы : 6 каналов Расположение каналов : Front: L C R, Side: L R, LFE Частота : 48,0 КГц Битовая глубина : 16 бит Метод сжатия : С потерями Размер потока : 258 Мбайт (4%) Заголовок : MVO AC3 5.1 384 kbps Язык : Russian Default : Да Forced : Нет 6,67 Gb 7 4
22 марта 2016 13:27 Бесконечная история / The NeverEnding Story (1984) BDRip 720p .torrent   [Информация о файле (нажмите для просмотра)] Перевод: Профессиональный (многоголосый, закадровый), Авторский закадровый (Jakob Bellmann)Субтитры: на 10-ти языках включая 2 русских варианта переводаКачество: BDRip 720pВидео: AVC 1280x534, 23,97fps, 5967 Кбит/секВидео: Идентификатор : 1 Формат : AVC Формат/Информация : Advanced Video Codec Профиль формата : [email protected] Параметр CABAC формата : Да Параметр ReFrames формата : 5 кадров Идентификатор кодека : V_MPEG4/ISO/AVC Продолжительность : 1 ч. 34 м. Битрейт : 5967 Кбит/сек Ширина : 1280 пикселей Высота : 534 пикселя Соотношение сторон : 2,40:1 Режим частоты кадров : Постоянный Частота кадров : 23,976 кадра/сек Цветовое пространство : YUV Субдискретизация насыщенности : 4:2:0 Битовая глубина : 8 бит Тип развёртки : Прогрессивная Бит/(Пиксели*Кадры) : 0.364 Размер потока : 3,80 Гбайт (63%) Заголовок : The.NeverEnding.Story.1984.720p.BluRay.x264.Rus.by.CClassic Библиотека кодирования : x264 core 59 r851M e11ef38 Настройки программы : cabac=1 / ref=5 / deblock=1:-3:-3 / analyse=0x3:0x133 / me=umh / subme=7 / me-prepass=0 / brdo=1 / mixed_ref=1 / me_range=16 / chroma_me=1 / trellis=0 / 8x8dct=1 / cqm=2 / deadzone=14,9 / chroma_qp_offset=0 / threads=6 / nr=0 / decimate=1 / mbaff=0 / fgo=4 / bframes=3 / b_pyramid=1 / b_adapt=1 / b_bias=0 / direct=1 / wpredb=1 / bime=1 / keyint=250 / keyint_min=25 / scenecut=40(pre) / rc=2pass / bitrate=5967 / ratetol=1.0 / rceq='blurCplx^(1-qComp)' / qcomp=1.00 / qpmin=10 / qpmax=51 / qpstep=4 / cplxblur=20.0 / qblur=0.5 / ip_ratio=1.40 / pb_ratio=1.20 / aq=2:0.90 Язык : English Default : Да Forced : НетАудио #1: Идентификатор : 2 Формат : AC-3 Формат/Информация : Audio Coding 3 Расширение режима : CM (complete main) Параметр Endianness формата : Big Идентификатор кодека : A_AC3 Продолжительность : 1 ч. 34 м. Вид битрейта : Постоянный Битрейт : 384 Кбит/сек Каналы : 6 каналов Расположение каналов : Front: L C R, Side: L R, LFE Частота : 48,0 КГц Битовая глубина : 16 бит Метод сжатия : С потерями Задержка видео : 1 с. 120 мс. Размер потока : 258 Мбайт (4%) Заголовок : Rus: AC3 5.1, 384Kbps - Профессиональный (Многоголосый, закадровый) Язык : Russian Default : Да Forced : НетАудио #2: Идентификатор : 3 Формат : AC-3 Формат/Информация : Audio Coding 3 Расширение режима : CM (complete main) Параметр Endianness формата : Big Идентификатор кодека : A_AC3 Продолжительность : 1 ч. 34 м. Вид битрейта : Постоянный Битрейт : 640 Кбит/сек Каналы : 6 каналов Расположение каналов : Front: L C R, Side: L R, LFE Частота : 48,0 КГц Битовая глубина : 16 бит Метод сжатия : С потерями Размер потока : 431 Мбайт (7%) Заголовок : Rus: AC3 5.1, 640Kbps - Авторский (закадровый, Jakob Bellmann) Язык : Russian Default : Нет Forced : НетАудио #3: Идентификатор : 4 Формат : DTS Формат/Информация : Digital Theater Systems Режим : 16 Параметр Endianness формата : Big Идентификатор кодека : A_DTS Продолжительность : 1 ч. 34 м. Вид битрейта : Постоянный Битрейт : 1510 Кбит/сек Каналы : 6 каналов Расположение каналов : Front: L C R, Side: L R, LFE Частота : 48,0 КГц Битовая глубина : 24 бит Метод сжатия : С потерями Размер потока : 1016 Мбайт (17%) Заголовок : Rus: DTS 5.1, 1536kbps - Профессиональный (Многоголосый, закадровый) Язык : Russian Default : Нет Forced : НетАудио #4: Идентификатор : 5 Формат : AC-3 Формат/Информация : Audio Coding 3 Расширение режима : CM (complete main) Параметр Endianness формата : Big Идентификатор кодека : A_AC3 Продолжительность : 1 ч. 34 м. Вид битрейта : Постоянный Битрейт : 640 Кбит/сек Каналы : 6 каналов Расположение каналов : Front: L C R, Side: L R, LFE Частота : 48,0 КГц Битовая глубина : 16 бит Метод сжатия : С потерями Размер потока : 431 Мбайт (7%) Заголовок : Eng: AC3 5.1, 640Kbps - Original Язык : English Default : Нет Forced : Нет 6 Gb 5 1
22 марта 2016 13:27 Бесконечная история / Die Unendliche Geschichte / The Neverending Story (1984) BDRip от HQCLUB .torrent   [Информация о файле (нажмите для просмотра)] Перевод: Профессиональный (многоголосый, закадровый) +Профессиональный (полное дублирование) Киностудия имени М. Горького (со вставками многоголосого перевода)Субтитры: Русские, русские (VladTE), английские (внешние, srt*)Формат: AVIКачество: BDRip (источникTatar-Remux /Blu-ray disc/ 1080p)Видео: 720x304 (2.37:1), 23.976 fps, XviD build 50 ~1754 kbps avg, 0.33 bit/pixelЗвук #1: 48 kHz, AC3 Dolby Digital, 3/2 (L,C,R,l,r) + LFE ch, 448.00 kbps avg (RUS, MVO)Звук #2: 48 kHz, AC3 Dolby Digital, 2/0 (L,R) ch, 192 kbps avg (RUS, DUB KINOSTUDIA IM GORKOGO)(отдельно, http)Звук #3: 48 kHz, AC3 Dolby Digital, 3/2 (L,C,R,l,r) + LFE ch, 448.00 kbps avg (RUS, AVO BELMAN)(отдельно, http)Звук #4: 48 kHz, AC3 Dolby Digital, 2/0 (L,R) ch, 192 kbps avg (RUS, AVO GORCHAKOV)(отдельно, http)Звук #5: 48 kHz, AC3 Dolby Digital, 2/0 (L,R) ch, 192 kbps avg (RUS, AVO LIBERGAL)(отдельно, http)Звук #6: 48 kHz, AC3 Dolby Digital, 3/2 (L,C,R,l,r) + LFE ch, 448.00 kbps avg (ENG)(отдельно, http) 1,45 Gb 4 4
22 марта 2016 13:27 Бесконечная история / Neverending story (1984) BDRip 720p от HQ-ViDEO .torrent   [Информация о файле (нажмите для просмотра)] Субтитры: Русские, Английские. 4,37 Gb 4 1
22 марта 2016 13:27 Бесконечная история / Neverending story (1984) BDRip от HQ-ViDEO .torrent   1,46 Gb 16 2

rutor.org :: Бесконечная история / The NeverEnding Story (1984) BDRip 1080p ::: Скачать торрент

main-rutor.org

Информация о фильмеНазвание: Бесконечная историяОригинальное название: The NeverEnding StoryГод выхода: 1984Жанр: фэнтези, драма, приключенияРежиссер: Вольфганг ПетерсенВ ролях: Бэррет Оливер, Джералд МакРэйни, Драм Гаррет, Дэррил Кукси, Николас Гилберт, Томас Хилл, Дип Рой, Tilo Prückner, Моусес Ганн, Ной Хэтэуэй

О фильме: Убегая от школьных хулиганов, 10-летний Бастиан спрятался в старой книжной лавке, где нашел таинственную книгу, изукрашенную орнаментом. Открыв ее, Бастиан попал в призрачный фантастический мир бегающих улиток, летающих собак, бескрылых Драконов Удачи, проказливых эльфов и ходячей каменоломни по имени Камнекус. Но волшебной стране Фантазии и ее правительнице, Девочке-Императрице, угрожает страшная напасть под названием Ничто, порожденная «несбывшимися мечтами». Спасти Фантазию могут лишь юный воин Атрейю и сила воображения необыкновенного мечтателя Бастиана...

Страна: США, Германия (ФРГ)Продолжительность: 01:33:57Перевод: Профессиональный (многоголосый закадровый)

ФайлКодек: x264Качество: BDRip (источник: BD Remux)Видео: 1920x808 (2,40:1), 23.976 fps, 9586 kbps Аудио: AC-3, 6 ch, 384 kbps (Rus) MVOСубтитры: Русские

Скриншоты

MI

Общее Уникальный идентификатор : 226017024659512871461472485705560198766 (0xAA094BAAB1349E46B14996C70AD18E6E) Полное имя : F:Бесконечная история.1984.The Neverending Story.mkv Формат : Matroska Версия формата : Version 2 Размер файла : 6,67 Гбайт Продолжительность : 1 ч. 33 м. Общий поток : 10,2 Мбит/сек Название фильма : Бесконечная история.1984.The Neverending Story Дата кодирования : UTC 2013-09-05 17:03:27 Программа кодирования : mkvmerge v5.8.0 ('No Sleep / Pillow') built on Sep 2 2012 15:37:04 Библиотека кодирования : libebml v1.2.3 + libmatroska v1.3.0

Видео Идентификатор : 1 Формат : AVC Формат/Информация : Advanced Video Codec Профиль формата : [email protected] Параметр CABAC формата : Да Параметр ReFrames формата : 5 кадров Идентификатор кодека : V_MPEG4/ISO/AVC Продолжительность : 1 ч. 33 м. Битрейт : 9586 Кбит/сек Ширина : 1920 пикселей Высота : 808 пикселей Соотношение сторон : 2,40:1 Режим частоты кадров : Постоянный Частота кадров : 23,976 кадра/сек Цветовое пространство : YUV Субдискретизация насыщенности : 4:2:0 Битовая глубина : 8 бит Тип развёртки : Прогрессивная Бит/(Пиксели*Кадры) : 0.258 Размер потока : 6,29 Гбайт (94%) Библиотека кодирования : x264 core 128 r2216M 198a7ea Настройки программы : cabac=1 / ref=5 / deblock=1:0:0 / analyse=0x3:0x133 / me=umh / subme=10 / psy=1 / psy_rd=1.00:0.00 / mixed_ref=1 / me_range=32 / chroma_me=1 / trellis=2 / 8x8dct=1 / cqm=0 / deadzone=21,11 / fast_pskip=1 / chroma_qp_offset=-2 / threads=4 / lookahead_threads=1 / sliced_threads=0 / nr=0 / decimate=1 / interlaced=0 / bluray_compat=0 / constrained_intra=0 / bframes=8 / b_pyramid=2 / b_adapt=2 / b_bias=0 / direct=3 / weightb=1 / open_gop=0 / weightp=2 / keyint=240 / keyint_min=23 / scenecut=40 / intra_refresh=0 / rc=crf / mbtree=0 / crf=20.0 / qcomp=0.60 / qpmin=10 / qpmax=69 / qpstep=4 / ip_ratio=1.40 / pb_ratio=1.30 / aq=1:1.00 Язык : English Default : Да Forced : Нет

Аудио Идентификатор : 2 Формат : AC-3 Формат/Информация : Audio Coding 3 Расширение режима : CM (complete main) Параметр Endianness формата : Big Идентификатор кодека : A_AC3 Продолжительность : 1 ч. 33 м. Вид битрейта : Постоянный Битрейт : 384 Кбит/сек Каналы : 6 каналов Расположение каналов : Front: L C R, Side: L R, LFE Частота : 48,0 КГц Битовая глубина : 16 бит Метод сжатия : С потерями Размер потока : 258 Мбайт (4%) Заголовок : MVO AC3 5.1 384 kbps Язык : Russian Default : Да Forced : Нет

Текст Идентификатор : 3 Формат : UTF-8 Идентификатор кодека : S_TEXT/UTF8 Идентификатор кодека/Информация : UTF-8 Plain Text Язык : Russian Default : Нет Forced : Нет

Меню 00:00:00.000 : en:00:00:00.000 00:02:06.543 : en:00:02:06.543 00:10:36.803 : en:00:10:36.803 00:12:30.583 : en:00:12:30.583 00:19:10.232 : en:00:19:10.232 00:23:00.713 : en:00:23:00.713 00:27:39.658 : en:00:27:39.658 00:30:27.951 : en:00:30:27.951 00:36:20.970 : en:00:36:20.970 00:40:14.162 : en:00:40:14.162 00:47:17.084 : en:00:47:17.084 00:50:26.315 : en:00:50:26.315 00:56:48.822 : en:00:56:48.822 00:59:52.589 : en:00:59:52.589 01:07:04.354 : en:01:07:04.354 01:10:27.557 : en:01:10:27.557 01:16:01.223 : en:01:16:01.223 01:18:53.187 : en:01:18:53.187 01:23:55.239 : en:01:23:55.239 01:31:08.797 : en:01:31:08.797

x264

frame I:1000 Avg QP:18.10 size:124001 frame P:25169 Avg QP:18.57 size: 75342 frame B:108977 Avg QP:20.90 size: 44733

Бесконечная история 1984 - скачать бесплатно через торрент в хорошем качестве. Без регистрации

www.kinovit.net

Название: Бесконечная История / The Neverending Story (1984) HDRip от Scarabey | P
Качество видео: HDRip
Перевод: Профессиональный (многоголосый, закадровый)
Видео: 688x288 (2.39:1), 23.976 fps, XviD build 73 ~971 kbps avg, 0.20 bit/pixel
Аудио: 48 kHz, MPEG Layer 3, 2 ch, ~128.00 kbps avg
Скачать

Загрузка начнется в течение 5 сек.

745.33 MB

Название: Бесконечная история / The NeverEnding Story (1984) HDRip от New-Team | P
Качество видео: HDRip [BDRip 720p]
Перевод: Профессиональный (многоголосый, закадровый)
Формат видео: AVI
Видео: XviD 720x304 (2.37:1), 23.976 fps, XviD build 73 ~1834 kbps avg, 0.35 bit/pixel
Аудио: AC3 48 kHz, AC3 Dolby Digital, 3/2 (L,C,R,l,r) + LFE ch, ~384 kbps
Скачать

Загрузка начнется в течение 5 сек.

1.46 GB

Название: Бесконечная история / The NeverEnding Story (1984) HDRip от New-Team | P
Качество видео: HDRip [BDRip 720p]
Перевод: Профессиональный (многоголосый, закадровый)
Формат видео: AVI
Видео: XviD 688x288 (2.39:1), 23.976 fps, XviD build 73 ~971 kbps avg, 0.20 bit/pixel
Аудио: MP3 48 kHz, MPEG Layer 3, 2 ch, ~128.00 kbps avg
Скачать

Загрузка начнется в течение 5 сек.

745.22 MB

Название: Бесконечная история / The Neverending Story (1984) HDRip | P
Качество видео: HDRip
Перевод: Профессиональный (многоголосый, закадровый)
Формат видео: avi
Видео: XviD, 688x288, 23.976fps, 977kbps
Аудио: MPEG Layer 3, 48000Hz, 128kbps, stereo
Скачать

Загрузка начнется в течение 5 сек.

742.43 MB

Название: Бесконечная история / The NeverEnding Story (1984) BDRip 1080p
Качество видео: BDRip (источник: BD Remux)
Перевод: Профессиональный (многоголосый закадровый)
Видео: x264 1920x808 (2,40:1), 23.976 fps, 9586 kbps
Аудио: AC-3, 6 ch, 384 kbps (Rus) MVO
Скачать

Загрузка начнется в течение 5 сек.

6.67 GB

Название: Бесконечная история / The NeverEnding Story (1984) BDRip 720p
Качество видео: BDRip 720p
Перевод: Профессиональный (многоголосый, закадровый), Авторский закадровый (Jakob Bellmann)
Видео: x.264 AVC 1280x534, 23,97fps, 5967 Кбит/сек
Аудио: AC3 AC3Русский: AC3 5.1, 384kbps - Профессиональный (Многоголосый закадровый)Русский: AC3 5.1, 640kbps - Авторский закадровый (Jakob Bellmann)Русский: DTS-HD, 1536kbps - Профессиональный (Многоголосый закадровый)Английский: AC3 5.1, 640kbps - Оригинал Blu-ray CEE
Скачать

Загрузка начнется в течение 5 сек.

6.00 GB

Бесконечная история / The Neverending Story / Трилогия [1984 DVDRip () ] скачать через торрент

piratbit.ru

Размер: 3.51 GB | Добавлен: 5 лет 5 мес. назад | Торрент скачан:164 раза
Реклама Дарим 3000 рублей за регистрацию, не упусти свой шанс получить шикарный бонус!!!

30-04-2012 20:26 Бесконечная история Скачать торрент  

Бесконечная история / The Neverending Story / Трилогия Бесконечная история / The Neverending Story / Трилогия

Год выпуска: 1984Страна: СШАЖанр: фэнтези, драма, приключения, семейныйПродолжительность: 102 мин. / 01:42Перевод: Профессиональный (многоголосый) (Лицензия)Тип релиза: Лицензия

Режиссер: Вольфганг ПетерсенПродюссер: Марк Дэймон, Бернд Айхингер, Дитер ГайсслерСценарий: Боб Истон, Вольфганг Петерсен, Херман Вайгель

Бюджет: $27 000 000

рекомендуется присутствие родителейМировой рейтинг IMDB 7.40 (43 336)

В ролях: Баррет Оливер, Джералд МакРэйни, Драм Гаррет, Дэррил Кукси, Николас Гилберт, Томас Хилл, Дип Рой, Тило Прюкнер, Моузес Ганн, Ноа Хэтауэй, Александра Назарова, Артур Нищенкин, Игорь Ясулович, Иннокентий Иванов, Мария Виноградова

Описание: Убегая от школьных хулиганов, 10-летний Бастиан спрятался в старой книжной лавке, где нашел таинственную книгу, изукрашенную орнаментом. Открыв ее, Бастиан попал в призрачный фантастический мир бегающих улиток, летающих собак, бескрылых Драконов Удачи, проказливых эльфов и ходячей каменоломни по имени Камнекус.Но волшебной стране Фантазии и ее правительнице, Девочке-Императрице, угрожает страшная напасть под названием Ничто, порожденная «несбывшимися мечтами». Спасти Фантазию могут лишь юный воин Атрейю и сила воображения необыкновенного мечтателя Бастиана...

Доп. информация: Бесконечная история 1,2.3Бесконечная история - The Neverending Story.aviБесконечная история 2 - Новая глава.aviБесконечная история 3 - Спасение (Побег из) Фантазии - The Neverending Story III - Escape from Fantasia.avi

Качество: DVDRipФормат: AVIВидео кодек: XviDАудио кодек: AC3Видео: 720x320 (2.37:1), 25 fps, XviD MPEG-4 ~1746 kbps avg, 0.32 bit/pixelАудио: 48 kHz, AC3 Dolby Digital, 3/2 (L,C,R,l,r) + LFE ch, ~384.00 kbps avg

Бесконечная история 2: Новая глава / The Neverending Story II: The Next Chapter

Год выпуска: 1990Страна: Германия, СШАЖанр: фэнтези, драма, приключения, семейныйПродолжительность: 01:31:49Перевод: Профессиональный (многоголосый) (Лицензия)Тип релиза: Лицензия

Режиссер: Джордж МиллерПродюссер: Дитер Гайсслер, Тим Хэмптон, Харольд ТиченорСценарий: Михаэль Энде, Карин Ховард

Бюджет: $36 000 000

рекомендуется присутствие родителей

В ролях: Джонатан Брэндис, Кларисса Берт, Кенни Моррисон, Джон Уэсли Шипп, Александра Джонс

Описание: В этой картине Бастиан должен будет спасти страну Фантазию от злой колдуньи и обрести ту храбрость, которой ему так не хватает в реальной жизни.В невероятных приключениях к нашему герою снова присоединятся старые друзья — мальчик-воин Атрю, Белый Дракон Счастья и Камнекус. Также Вас ждёт встреча с новыми персонажами: птицей Нимбли, Камнекусом-младшим, робогигантами и драконом Смергом. Добро пожаловать в сказочный мир!

Доп. информация: Бесконечная история 1,2.3Бесконечная история - The Neverending Story.aviБесконечная история 2 - Новая глава.aviБесконечная история 3 - Спасение (Побег из) Фантазии - The Neverending Story III - Escape from Fantasia.avi

Качество: DVDRipФормат: AVIВидео кодек: DivXАудио кодек: AC3Видео: 704x304 (2.32:1), 29.970 fps, DivX Codec 5.2.1 build 1338 ~1751 kbps avg, 0.27 bit/pixelАудио: 48 kHz, AC3 Dolby Digital, 2/0 (L,R) ch, ~384.00 kbps avg

Бесконечная история 3: Спасение (Побег из) Фантазии / The Neverending Story III: Escape from Fantasia

Год выпуска: 1994Страна: Германия, СШАЖанр: фэнтези, драма, приключения, семейныйПродолжительность: 95 мин. / 01:35Перевод: Профессиональный (одноголосый)

Режиссер: Питер МакДональдПродюссер: Хайнц Бибо, Дитер Гайсслер, Тим Хэмптон, Клаус Кэлер,Харольд ТиченорСценарий: Джефф Либерман, Михаэль Энде, Карин Ховард

Бюджет: $17 000 000

рекомендуется присутствие родителей

В ролях: Джейсон Джеймс Рихтер, Мелоди Кэй, Джек Блэк, Кэрол Финн, Райан Боллман, Фредди Джонс, Джули Кокс, Мойя Брэйди, Тони Робинсон и др.

Описание: Спустя некоторое время после второй части, главный герой снова попадает в историю. Убегая от хулиганов в школе, в которую только перевёлся, Бастиан забегает в школьную библиотеку, где находит книгу «Бесконечная история», с помощью которой перемещается в страну Фантазию. Но все бы ничего, но хулиганы случайно находят книгу и поняв в чем дело, пытаются помешать Бастиану вернуться обратно в наш мир, а так же приводят страну Фантазию к катастрофическому разрушению. Бастиан при помощи своих старых друзей пытается спасти страну Фантазию от школьных хулиганов.

Доп. информация: Бесконечная история 1,2.3Бесконечная история - The Neverending Story.aviБесконечная история 2 - Новая глава.aviБесконечная история 3 - Спасение (Побег из) Фантазии - The Neverending Story III - Escape from Fantasia.avi

Качество: DVDRipФормат: AVIВидео кодек: DivXАудио кодек: MP3 Видео: 720х480, 25 fps, 1021 kbpsАудио: MPEG Layer-3, 160 kBit/s, 48000 Hz, Stereo

Скачать Бесконечная история через торрент http://s002.youpic.su/pictures/1335902400/4f9ba4cfe46923d2f02568cc934a07d7.jpg Скачать фильм Бесконечная история через торрент бесплантно в хорошем качестве Описание: Убегая от школьных хулиганов, 10-летний Бастиан спрятался в старой книжной лавке, где нашел таинственную книгу, изукрашенную ... 2012-04-30 20:26 10 10 10

Loading...

Loading...

Последний раз редактировалось: AloneHunterr (2012-05-02 11:54), всего редактировалось 8 раз(а)

Рекламный пират

30-04-2012 20:59 Бесконечная история Скачать торрент  

ух спасибо)) фильм детства, ща скачаю еще разок пересмотрю))

30-04-2012 22:08 Бесконечная история Скачать торрент  

ещё бы скорости

30-04-2012 22:14 Бесконечная история Скачать торрент  

Очередной раз посмотрю, нравится эта сказка!!!

01-05-2012 05:44 Бесконечная история Скачать торрент  

Чего то последние дни трекер начал барахлить, то голосование отключат, то теперь отключили возможность скачать торрент. Может переезжать надумали?

01-05-2012 07:03 Бесконечная история Скачать торрент  

прекрасная сказка детства.

16-02-2013 18:40 Бесконечная история Скачать торрент  

спасибо)) фильм детства,

Дорогой пользователь! Огромная просьба, поблагодарите релизера, оцените раздачу и оставьте свои комментарий, если Вы скачали Бесконечная история через торрент бесплатно! Внесите свою лепту в развитие PiratBit!

Комментировать посты могут только пользователи прошедшие не сложную регистрацию

Бесконечная история через торрент Скачать бесплатно Бесконечная история Бесконечная история скачать торрент Бесконечная история смотреть онлайн Cкачать фильм Бесконечная история бесплатно Бесконечная история скачать торрент в хорошем качестве Бесконечная история смотреть онлайн бесплатно в хорошем качестве

Вы не можете начинать темыВы не можете отвечать на сообщенияВы не можете редактировать свои сообщенияВы не можете удалять свои сообщенияВы не можете голосовать в опросахВы не можете прикреплять файлы к сообщениямВы можете скачивать файлы


Смотрите также