Ангар 18 скачать торрент в хорошем качестве


Скачать фильм Ангар 18 (1980) через торрент

11 марта 2016 08:47 Ангар 18 / Hangar 18 (1980) HDRip-AVC от New-Team .torrent   [Информация о файле (нажмите для просмотра)] Перевод: Профессиональный (дублированный) - Советский дубляж (со вставками двухголосого закадрового)Качество: HDRip-AVC [Исходник BDRip 1080p]Формат: MKVВидео: 768x432 (16:9), 23.976 fps, h364 ~ 1 003 Kbps, 0.126 bit/pixelАудио: 48 KHz / 24 KHz, AAC HE-AAC / LC, 2/0 (L,R) ch, ~64 kbps 745,26 Mb 10 3 11 марта 2016 08:47 Ангар 18 / Hangar 18 (1980) BDRemux 1080p от New-Team | D, P2, A .torrent   [Информация о файле (нажмите для просмотра)] Перевод: Качество: BDRemux 1080p / Blu-ray 1080pФормат: MKVВидео: 1920x1080, MPEG-4 AVC Video 26984 kbps 1080p / 23,976 fps / 16:9 / High Profile 4.1Аудио 1: 48 kHz, Dolby AC3, 2 ch, 192 kbps,русский дублированныйАудио 2: 48 kHz, Dolby AC3, 2 ch, 192 kbps,русский двухгоголосыйАудио 3: 48 kHz, Dolby AC3, 2 ch, 192 kbps,русский авторскийАудио 4: DTS-HD Master Audio English 869 kbps 1.0 / 48 kHz / 869 kbps / 16-bit (DTS Core: 1.0 / 48 kHz / 768 kbps / 16-bit), английскийАудио 5: 48 kHz, Dolby AC3, 2 ch, 192 kbps, английскийВидео: Идентификатор : 1 Формат : AVC Формат/Информация : Advanced Video Codec Профиль формата : [email protected] Параметр CABAC формата : Да Параметр ReFrames формата : 4 кадра Параметр GOP формата : M=3, N=24 Идентификатор кодека : V_MPEG4/ISO/AVC Продолжительность : 1 ч. 37 м. Вид битрейта : Переменный Максимальный битрейт : 33,5 Мбит/сек Ширина : 1920 пикселей Высота : 1080 пикселей Соотношение сторон : 16:9 Режим частоты кадров : Постоянный Частота кадров : 23,976 кадра/сек Стандарт вещания : NTSC Цветовое пространство : YUV Субдискретизация насыщенности : 4:2:0 Битовая глубина : 8 бит Тип развёртки : Прогрессивная Язык : English Default : Да Forced : Нет Основные цвета : BT.709 Характеристики трансфера : BT.709 Коэффициенты матрицы : BT.709Аудио #1: Идентификатор : 2 Формат : AC-3 Формат/Информация : Audio Coding 3 Расширение режима : CM (complete main) Параметр Endianness формата : Big Идентификатор кодека : A_AC3 Продолжительность : 1 ч. 37 м. Вид битрейта : Постоянный Битрейт : 192 Кбит/сек Каналы : 2 канала Расположение каналов : Front: L R Частота : 48,0 КГц Битовая глубина : 16 бит Метод сжатия : С потерями Размер потока : 134 Мбайт (1%) Заголовок : DUB Язык : Russian Default : Да Forced : НетАудио #2: Идентификатор : 3 Формат : AC-3 Формат/Информация : Audio Coding 3 Расширение режима : CM (complete main) Параметр Endianness формата : Big Идентификатор кодека : A_AC3 Продолжительность : 1 ч. 37 м. Вид битрейта : Постоянный Битрейт : 192 Кбит/сек Каналы : 2 канала Расположение каналов : Front: L R Частота : 48,0 КГц Битовая глубина : 16 бит Метод сжатия : С потерями Размер потока : 134 Мбайт (1%) Заголовок : DVO NTV+ Язык : Russian Default : Нет Forced : НетАудио #3: Идентификатор : 4 Формат : AC-3 Формат/Информация : Audio Coding 3 Расширение режима : CM (complete main) Параметр Endianness формата : Big Идентификатор кодека : A_AC3 Продолжительность : 1 ч. 37 м. Вид битрейта : Постоянный Битрейт : 192 Кбит/сек Каналы : 2 канала Расположение каналов : Front: L R Частота : 48,0 КГц Битовая глубина : 16 бит Метод сжатия : С потерями Размер потока : 134 Мбайт (1%) Заголовок : AVO Serbin Язык : Russian Default : Нет Forced : НетАудио #4: Идентификатор : 5 Формат : DTS Формат/Информация : Digital Theater Systems Профиль формата : MA / Core Режим : 16 Параметр Endianness формата : Big Идентификатор кодека : A_DTS Продолжительность : 1 ч. 37 м. Вид битрейта : Переменный Битрейт : Неизвестно / 768 Кбит/сек Каналы : 1 канал Расположение каналов : Front: C Частота : 48,0 КГц Битовая глубина : 16 бит Метод сжатия : Без потерь / Lossy Язык : English Default : Нет Forced : НетАудио #5: Идентификатор : 6 Формат : AC-3 Формат/Информация : Audio Coding 3 Расширение режима : CM (complete main) Параметр Endianness формата : Big Идентификатор кодека : A_AC3 Продолжительность : 1 ч. 37 м. Вид битрейта : Постоянный Битрейт : 192 Кбит/сек Каналы : 2 канала Расположение каналов : Front: L R Частота : 48,0 КГц Битовая глубина : 16 бит Метод сжатия : С потерями Размер потока : 134 Мбайт (1%) Язык : English Default : Нет Forced : Нет 19,49 Gb 9 4 11 марта 2016 08:47 Ангар 18 / Hangar 18 (1980) BDRip 1080p от New-Team | D, P2, A .torrent   [Информация о файле (нажмите для просмотра)] Перевод: Качество: BDRip 1080p / Blu-ray 1080pФормат: MKVВидео: 1920x1080 (16:9), 23.976 fps, h364 ~ 10,6 Мбит/сек avg, 0.213 bit/pixelАудио 1: 48 kHz, Dolby AC3, 2 ch, 192 kbps,русский дублированныйАудио 2: 48 kHz, Dolby AC3, 2 ch, 192 kbps,русский двухгоголосыйАудио 3: 48 kHz, Dolby AC3, 2 ch, 192 kbps,русский авторскийАудио 4: 48 kHz, DTS, 1 ch, 768 kbps, английский (оригинал с Blu-ray диска)Аудио 5: 48 kHz, Dolby AC3, 2 ch, 192 kbps, английскийВидео: Идентификатор : 1 Формат : AVC Формат/Информация : Advanced Video Codec Профиль формата : [email protected] Параметр CABAC формата : Да Параметр ReFrames формата : 4 кадра Идентификатор кодека : V_MPEG4/ISO/AVC Продолжительность : 1 ч. 37 м. Битрейт : 10,6 Мбит/сек Ширина : 1920 пикселей Высота : 1080 пикселей Соотношение сторон : 16:9 Режим частоты кадров : Постоянный Частота кадров : 23,976 кадра/сек Цветовое пространство : YUV Субдискретизация насыщенности : 4:2:0 Битовая глубина : 8 бит Тип развёртки : Прогрессивная Бит/(Пиксели*Кадры) : 0.213 Размер потока : 7,04 Гбайт (85%) Библиотека кодирования : x264 core 138 r2356 a1d3d17 Настройки программы : cabac=1 / ref=4 / deblock=1:-3:-3 / analyse=0x3:0x113 / me=umh / subme=10 / psy=1 / psy_rd=1.00:0.05 / mixed_ref=1 / me_range=32 / chroma_me=1 / trellis=2 / 8x8dct=1 / cqm=0 / deadzone=21,11 / fast_pskip=0 / chroma_qp_offset=-3 / threads=9 / lookahead_threads=1 / sliced_threads=0 / nr=0 / decimate=0 / interlaced=0 / bluray_compat=0 / constrained_intra=0 / bframes=8 / b_pyramid=2 / b_adapt=2 / b_bias=0 / direct=3 / weightb=1 / open_gop=0 / weightp=2 / keyint=240 / keyint_min=24 / scenecut=40 / intra_refresh=0 / rc_lookahead=40 / rc=2pass / mbtree=1 / bitrate=10572 / ratetol=1.0 / qcomp=0.60 / qpmin=0 / qpmax=69 / qpstep=4 / cplxblur=20.0 / qblur=0.5 / ip_ratio=1.40 / aq=1:1.00 Язык : English Default : Да Forced : НетАудио #1: Идентификатор : 2 Формат : AC-3 Формат/Информация : Audio Coding 3 Расширение режима : CM (complete main) Параметр Endianness формата : Big Идентификатор кодека : A_AC3 Продолжительность : 1 ч. 37 м. Вид битрейта : Постоянный Битрейт : 192 Кбит/сек Каналы : 2 канала Расположение каналов : Front: L R Частота : 48,0 КГц Битовая глубина : 16 бит Метод сжатия : С потерями Размер потока : 134 Мбайт (2%) Заголовок : Dub Язык : Russian Default : Да Forced : НетАудио #2: Идентификатор : 3 Формат : AC-3 Формат/Информация : Audio Coding 3 Расширение режима : CM (complete main) Параметр Endianness формата : Big Идентификатор кодека : A_AC3 Продолжительность : 1 ч. 37 м. Вид битрейта : Постоянный Битрейт : 192 Кбит/сек Каналы : 2 канала Расположение каналов : Front: L R Частота : 48,0 КГц Битовая глубина : 16 бит Метод сжатия : С потерями Размер потока : 134 Мбайт (2%) Заголовок : DVO NTV+ Язык : Russian Default : Нет Forced : НетАудио #3: Идентификатор : 4 Формат : AC-3 Формат/Информация : Audio Coding 3 Расширение режима : CM (complete main) Параметр Endianness формата : Big Идентификатор кодека : A_AC3 Продолжительность : 1 ч. 37 м. Вид битрейта : Постоянный Битрейт : 192 Кбит/сек Каналы : 2 канала Расположение каналов : Front: L R Частота : 48,0 КГц Битовая глубина : 16 бит Метод сжатия : С потерями Размер потока : 134 Мбайт (2%) Заголовок : AVO (Serbin) Язык : Russian Default : Нет Forced : НетАудио #4: Идентификатор : 5 Формат : DTS Формат/Информация : Digital Theater Systems Режим : 16 Параметр Endianness формата : Big Идентификатор кодека : A_DTS Продолжительность : 1 ч. 37 м. Вид битрейта : Постоянный Битрейт : 768 Кбит/сек Каналы : 1 канал Расположение каналов : Front: C Частота : 48,0 КГц Битовая глубина : 16 бит Метод сжатия : С потерями Размер потока : 536 Мбайт (6%) Заголовок : Original Язык : English Default : Нет Forced : НетАудио #5: Идентификатор : 6 Формат : AC-3 Формат/Информация : Audio Coding 3 Расширение режима : CM (complete main) Параметр Endianness формата : Big Идентификатор кодека : A_AC3 Продолжительность : 1 ч. 37 м. Вид битрейта : Постоянный Битрейт : 192 Кбит/сек Каналы : 2 канала Расположение каналов : Front: L R Частота : 48,0 КГц Битовая глубина : 16 бит Метод сжатия : С потерями Размер потока : 134 Мбайт (2%) Язык : English Default : Нет Forced : Нет 8,25 Gb 18 5 11 марта 2016 08:47 Ангар 18 / Hangar 18 (1980) BDRip 720p от New-Team | D, P2, A .torrent   [Информация о файле (нажмите для просмотра)] Перевод: Качество: BDRip 720p / Blu-ray 1080pФормат: MKVВидео: 1280x720 (16:9), 23.976 fps, h364 ~ 5253 kbps avg, 0.238 bit/pixelАудио 1: 48 kHz, Dolby AC3, 2 ch, 192 kbps,русский дублированныйАудио 2: 48 kHz, Dolby AC3, 2 ch, 192 kbps,русский двухгоголосыйАудио 3: 48 kHz, Dolby AC3, 2 ch, 192 kbps,русский авторскийАудио 4: 48 kHz, DTS, 1 ch, 768 kbps, английский (оригинал с Blu-ray)Аудио 5: 48 kHz, Dolby AC3, 2 ch, 192 kbps, английскийВидео: Идентификатор : 1 Формат : AVC Формат/Информация : Advanced Video Codec Профиль формата : [email protected] Параметр CABAC формата : Да Параметр ReFrames формата : 4 кадра Идентификатор кодека : V_MPEG4/ISO/AVC Продолжительность : 1 ч. 37 м. Битрейт : 5253 Кбит/сек Ширина : 1280 пикселей Высота : 720 пикселей Соотношение сторон : 16:9 Режим частоты кадров : Постоянный Частота кадров : 23,976 кадра/сек Цветовое пространство : YUV Субдискретизация насыщенности : 4:2:0 Битовая глубина : 8 бит Тип развёртки : Прогрессивная Бит/(Пиксели*Кадры) : 0.238 Размер потока : 3,49 Гбайт (75%) Библиотека кодирования : x264 core 138 r2356 a1d3d17 Настройки программы : cabac=1 / ref=4 / deblock=1:-3:-3 / analyse=0x3:0x133 / me=umh / subme=10 / psy=1 / psy_rd=1.00:0.05 / mixed_ref=1 / me_range=32 / chroma_me=1 / trellis=2 / 8x8dct=1 / cqm=0 / deadzone=21,11 / fast_pskip=0 / chroma_qp_offset=-3 / threads=6 / lookahead_threads=1 / sliced_threads=0 / nr=0 / decimate=0 / interlaced=0 / bluray_compat=0 / constrained_intra=0 / bframes=8 / b_pyramid=2 / b_adapt=2 / b_bias=0 / direct=3 / weightb=1 / open_gop=0 / weightp=2 / keyint=240 / keyint_min=24 / scenecut=40 / intra_refresh=0 / rc=2pass / mbtree=0 / bitrate=5253 / ratetol=1.0 / qcomp=0.60 / qpmin=0 / qpmax=69 / qpstep=4 / cplxblur=20.0 / qblur=0.5 / ip_ratio=1.40 / pb_ratio=1.30 / aq=1:1.00 Язык : English Default : Да Forced : НетАудио #1: Идентификатор : 2 Формат : AC-3 Формат/Информация : Audio Coding 3 Расширение режима : CM (complete main) Параметр Endianness формата : Big Идентификатор кодека : A_AC3 Продолжительность : 1 ч. 37 м. Вид битрейта : Постоянный Битрейт : 192 Кбит/сек Каналы : 2 канала Расположение каналов : Front: L R Частота : 48,0 КГц Битовая глубина : 16 бит Метод сжатия : С потерями Размер потока : 134 Мбайт (3%) Заголовок : Dub Язык : Russian Default : Да Forced : НетАудио #2: Идентификатор : 3 Формат : AC-3 Формат/Информация : Audio Coding 3 Расширение режима : CM (complete main) Параметр Endianness формата : Big Идентификатор кодека : A_AC3 Продолжительность : 1 ч. 37 м. Вид битрейта : Постоянный Битрейт : 192 Кбит/сек Каналы : 2 канала Расположение каналов : Front: L R Частота : 48,0 КГц Битовая глубина : 16 бит Метод сжатия : С потерями Размер потока : 134 Мбайт (3%) Заголовок : DVO NTV+ Язык : Russian Default : Нет Forced : НетАудио #3: Идентификатор : 4 Формат : AC-3 Формат/Информация : Audio Coding 3 Расширение режима : CM (complete main) Параметр Endianness формата : Big Идентификатор кодека : A_AC3 Продолжительность : 1 ч. 37 м. Вид битрейта : Постоянный Битрейт : 192 Кбит/сек Каналы : 2 канала Расположение каналов : Front: L R Частота : 48,0 КГц Битовая глубина : 16 бит Метод сжатия : С потерями Размер потока : 134 Мбайт (3%) Заголовок : AVO (Serbin) Язык : Russian Default : Нет Forced : НетАудио #4: Идентификатор : 5 Формат : DTS Формат/Информация : Digital Theater Systems Режим : 16 Параметр Endianness формата : Big Идентификатор кодека : A_DTS Продолжительность : 1 ч. 37 м. Вид битрейта : Постоянный Битрейт : 768 Кбит/сек Каналы : 1 канал Расположение каналов : Front: C Частота : 48,0 КГц Битовая глубина : 16 бит Метод сжатия : С потерями Размер потока : 536 Мбайт (11%) Заголовок : Original Язык : English Default : Нет Forced : НетАудио #5: Идентификатор : 6 Формат : AC-3 Формат/Информация : Audio Coding 3 Расширение режима : CM (complete main) Параметр Endianness формата : Big Идентификатор кодека : A_AC3 Продолжительность : 1 ч. 37 м. Вид битрейта : Постоянный Битрейт : 192 Кбит/сек Каналы : 2 канала Расположение каналов : Front: L R Частота : 48,0 КГц Битовая глубина : 16 бит Метод сжатия : С потерями Размер потока : 134 Мбайт (3%) Язык : English Default : Нет Forced : Нет 4,62 Gb 6 5 11 марта 2016 08:47 Ангар 18 / Hangar 18 (1980) BDRip-AVC от New-Team | D, P2, A .torrent   [Информация о файле (нажмите для просмотра)] Перевод: Качество: BDRip-AVC / Blu-ray 1080pФормат: MKVВидео: 1024x576 (16:9), 23.976 fps, h364 ~ 2410 kbps avg, 0.170 bit/pixelАудио 1: 48 kHz, Dolby AC3, 2 ch, 192 kbps,русский дублированныйАудио 2: 48 kHz, Dolby AC3, 2 ch, 192 kbps,русский двухгоголосыйАудио 3: 48 kHz, Dolby AC3, 2 ch, 192 kbps,русский авторскийАудио 4: 48 kHz, Dolby AC3, 2 ch, 192 kbps, английскийВидео: Идентификатор : 1 Формат : AVC Формат/Информация : Advanced Video Codec Профиль формата : [email protected] Параметр CABAC формата : Да Параметр ReFrames формата : 6 кадров Идентификатор кодека : V_MPEG4/ISO/AVC Продолжительность : 1 ч. 37 м. Битрейт : 2410 Кбит/сек Ширина : 1024 пикселя Высота : 576 пикселей Соотношение сторон : 16:9 Режим частоты кадров : Постоянный Частота кадров : 23,976 кадра/сек Цветовое пространство : YUV Субдискретизация насыщенности : 4:2:0 Битовая глубина : 8 бит Тип развёртки : Прогрессивная Бит/(Пиксели*Кадры) : 0.170 Размер потока : 1,60 Гбайт (74%) Библиотека кодирования : x264 core 138 r2356 a1d3d17 Настройки программы : cabac=1 / ref=6 / deblock=1:-2:-1 / analyse=0x3:0x113 / me=umh / subme=10 / psy=1 / psy_rd=1.00:0.05 / mixed_ref=1 / me_range=32 / chroma_me=1 / trellis=2 / 8x8dct=1 / cqm=0 / deadzone=21,11 / fast_pskip=0 / chroma_qp_offset=-3 / threads=9 / lookahead_threads=1 / sliced_threads=0 / nr=0 / decimate=0 / interlaced=0 / bluray_compat=0 / constrained_intra=0 / bframes=8 / b_pyramid=2 / b_adapt=2 / b_bias=0 / direct=3 / weightb=1 / open_gop=0 / weightp=2 / keyint=250 / keyint_min=25 / scenecut=40 / intra_refresh=0 / rc=2pass / mbtree=0 / bitrate=2410 / ratetol=1.0 / qcomp=0.60 / qpmin=0 / qpmax=69 / qpstep=4 / cplxblur=20.0 / qblur=0.5 / ip_ratio=1.40 / pb_ratio=1.30 / aq=1:1.00 Язык : English Default : Да Forced : НетАудио #1: Идентификатор : 2 Формат : AC-3 Формат/Информация : Audio Coding 3 Расширение режима : CM (complete main) Параметр Endianness формата : Big Идентификатор кодека : A_AC3 Продолжительность : 1 ч. 37 м. Вид битрейта : Постоянный Битрейт : 192 Кбит/сек Каналы : 2 канала Расположение каналов : Front: L R Частота : 48,0 КГц Битовая глубина : 16 бит Метод сжатия : С потерями Размер потока : 134 Мбайт (6%) Заголовок : DUB Язык : Russian Default : Да Forced : НетАудио #2: Идентификатор : 3 Формат : AC-3 Формат/Информация : Audio Coding 3 Расширение режима : CM (complete main) Параметр Endianness формата : Big Идентификатор кодека : A_AC3 Продолжительность : 1 ч. 37 м. Вид битрейта : Постоянный Битрейт : 192 Кбит/сек Каналы : 2 канала Расположение каналов : Front: L R Частота : 48,0 КГц Битовая глубина : 16 бит Метод сжатия : С потерями Размер потока : 134 Мбайт (6%) Заголовок : DVO NTV+ Язык : Russian Default : Нет Forced : НетАудио #3: Идентификатор : 4 Формат : AC-3 Формат/Информация : Audio Coding 3 Расширение режима : CM (complete main) Параметр Endianness формата : Big Идентификатор кодека : A_AC3 Продолжительность : 1 ч. 37 м. Вид битрейта : Постоянный Битрейт : 192 Кбит/сек Каналы : 2 канала Расположение каналов : Front: L R Частота : 48,0 КГц Битовая глубина : 16 бит Метод сжатия : С потерями Размер потока : 134 Мбайт (6%) Заголовок : AVO (Serbin) Язык : Russian Default : Нет Forced : НетАудио #4: Идентификатор : 5 Формат : AC-3 Формат/Информация : Audio Coding 3 Расширение режима : CM (complete main) Параметр Endianness формата : Big Идентификатор кодека : A_AC3 Продолжительность : 1 ч. 37 м. Вид битрейта : Постоянный Битрейт : 192 Кбит/сек Каналы : 2 канала Расположение каналов : Front: L R Частота : 48,0 КГц Битовая глубина : 16 бит Метод сжатия : С потерями Размер потока : 134 Мбайт (6%) Язык : English Default : Нет Forced : Нет 2,17 Gb 11 4 11 марта 2016 08:47 Ангар 18 / Hangar 18 (1980) BDRip-AVC от New-Team | D .torrent   [Информация о файле (нажмите для просмотра)] Перевод: Профессиональный (дублированный) - Советский дубляж (со вставками двухголосого закадрового)Качество: BDRip-AVC / Blu-ray 1080pФормат: MKVВидео: 992x558 (16:9), 23.976 fps, h364 ~ 1944 kbps avg, 0.146 bit/pixelАудио: 48 kHz, Dolby AC3, 2 ch, 192 kbps,русскийВидео: Идентификатор : 1 Формат : AVC Формат/Информация : Advanced Video Codec Профиль формата : [email protected] Параметр CABAC формата : Да Параметр ReFrames формата : 6 кадров Идентификатор кодека : V_MPEG4/ISO/AVC Продолжительность : 1 ч. 37 м. Битрейт : 1944 Кбит/сек Ширина : 992 пикселя Высота : 558 пикселей Соотношение сторон : 16:9 Режим частоты кадров : Постоянный Частота кадров : 23,976 кадра/сек Цветовое пространство : YUV Субдискретизация насыщенности : 4:2:0 Битовая глубина : 8 бит Тип развёртки : Прогрессивная Бит/(Пиксели*Кадры) : 0.146 Размер потока : 1,30 Гбайт (89%) Библиотека кодирования : x264 core 138 r2356 a1d3d17 Настройки программы : cabac=1 / ref=6 / deblock=1:-2:-1 / analyse=0x3:0x113 / me=umh / subme=10 / psy=1 / psy_rd=1.00:0.05 / mixed_ref=1 / me_range=32 / chroma_me=1 / trellis=2 / 8x8dct=1 / cqm=0 / deadzone=21,11 / fast_pskip=0 / chroma_qp_offset=-3 / threads=9 / lookahead_threads=1 / sliced_threads=0 / nr=0 / decimate=0 / interlaced=0 / bluray_compat=0 / constrained_intra=0 / bframes=8 / b_pyramid=2 / b_adapt=2 / b_bias=0 / direct=3 / weightb=1 / open_gop=0 / weightp=2 / keyint=250 / keyint_min=25 / scenecut=40 / intra_refresh=0 / rc=2pass / mbtree=0 / bitrate=1944 / ratetol=1.0 / qcomp=0.60 / qpmin=0 / qpmax=69 / qpstep=4 / cplxblur=20.0 / qblur=0.5 / ip_ratio=1.40 / pb_ratio=1.30 / aq=1:1.00 Язык : English Default : Да Forced : НетАудио: Идентификатор : 2 Формат : AC-3 Формат/Информация : Audio Coding 3 Расширение режима : CM (complete main) Параметр Endianness формата : Big Идентификатор кодека : A_AC3 Продолжительность : 1 ч. 37 м. Вид битрейта : Постоянный Битрейт : 192 Кбит/сек Каналы : 2 канала Расположение каналов : Front: L R Частота : 48,0 КГц Битовая глубина : 16 бит Метод сжатия : С потерями Размер потока : 134 Мбайт (9%) Язык : Russian Default : Да Forced : Нет 1,46 Gb 5 2 11 марта 2016 08:47 Ангар 18 / Hangar 18 (1980) DVDRip от New-Team | D, P2, A .torrent   [Информация о файле (нажмите для просмотра)] Перевод: Качество: BDRip / Blu-ray 1080pФормат: AVIВидео: 720x400 (16:9), 23.976 fps, XviD ~ 2399 kbps avg, 0.347 bit/pixelАудио 1: 48 kHz, Dolby AC3, 2 ch, 192 kbps,русский дублированныйАудио 2: 48 kHz, Dolby AC3, 2 ch, 192 kbps,русский двухгоголосыйАудио 3: 48 kHz, Dolby AC3, 2 ch, 192 kbps,русский авторскийАудио 4: 48 kHz, Dolby AC3, 2 ch, 192 kbps, английскийВидео: Идентификатор : 0 Формат : MPEG-4 Visual Профиль формата : Advanced [email protected] Параметр BVOP формата : 1 Параметр QPel формата : Нет Параметр GMC формата : Без точки перехода Параметр матрицы формата : Выборочная Идентификатор кодека : XVID Идентификатор кодека/Подсказка : XviD Продолжительность : 1 ч. 37 м. Битрейт : 2399 Кбит/сек Ширина : 720 пикселей Высота : 400 пикселей Соотношение сторон : 16:9 Частота кадров : 23,976 кадра/сек Цветовое пространство : YUV Субдискретизация насыщенности : 4:2:0 Битовая глубина : 8 бит Тип развёртки : Прогрессивная Метод сжатия : С потерями Бит/(Пиксели*Кадры) : 0.347 Размер потока : 1,63 Гбайт (75%) Библиотека кодирования : XviD 73Аудио #1: Идентификатор : 1 Формат : AC-3 Формат/Информация : Audio Coding 3 Расширение режима : CM (complete main) Параметр Endianness формата : Big Идентификатор кодека : 2000 Продолжительность : 1 ч. 37 м. Вид битрейта : Постоянный Битрейт : 192 Кбит/сек Каналы : 2 канала Расположение каналов : Front: L R Частота : 48,0 КГц Битовая глубина : 16 бит Метод сжатия : С потерями Размер потока : 134 Мбайт (6%) Выравнивание : Разделение по промежуткам Продолжительность промежутка : 42 мс. (1,00 видеокадр) Время предзагрузки промежутка : 500 мс.Аудио #2: Идентификатор : 2 Формат : AC-3 Формат/Информация : Audio Coding 3 Расширение режима : CM (complete main) Параметр Endianness формата : Big Идентификатор кодека : 2000 Продолжительность : 1 ч. 37 м. Вид битрейта : Постоянный Битрейт : 192 Кбит/сек Каналы : 2 канала Расположение каналов : Front: L R Частота : 48,0 КГц Битовая глубина : 16 бит Метод сжатия : С потерями Размер потока : 134 Мбайт (6%) Выравнивание : Разделение по промежуткам Продолжительность промежутка : 42 мс. (1,00 видеокадр) Время предзагрузки промежутка : 500 мс.Аудио #3: Идентификатор : 3 Формат : AC-3 Формат/Информация : Audio Coding 3 Расширение режима : CM (complete main) Параметр Endianness формата : Big Идентификатор кодека : 2000 Продолжительность : 1 ч. 37 м. Вид битрейта : Постоянный Битрейт : 192 Кбит/сек Каналы : 2 канала Расположение каналов : Front: L R Частота : 48,0 КГц Битовая глубина : 16 бит Метод сжатия : С потерями Размер потока : 134 Мбайт (6%) Выравнивание : Разделение по промежуткам Продолжительность промежутка : 42 мс. (1,00 видеокадр) Время предзагрузки промежутка : 500 мс.Аудио #4: Идентификатор : 4 Формат : AC-3 Формат/Информация : Audio Coding 3 Расширение режима : CM (complete main) Параметр Endianness формата : Big Идентификатор кодека : 2000 Продолжительность : 1 ч. 37 м. Вид битрейта : Постоянный Битрейт : 192 Кбит/сек Каналы : 2 канала Расположение каналов : Front: L R Частота : 48,0 КГц Битовая глубина : 16 бит Метод сжатия : С потерями Размер потока : 134 Мбайт (6%) Выравнивание : Разделение по промежуткам Продолжительность промежутка : 42 мс. (1,00 видеокадр) Время предзагрузки промежутка : 500 мс. 2,18 Gb 8 5 11 марта 2016 08:47 Ангар 18 / Hangar 18 (1980) DVDRip от New-Team | D .torrent   [Информация о файле (нажмите для просмотра)] Перевод: Профессиональный (дублированный) - Советский дубляж (со вставками двухголосого закадрового)Качество: BDRip / Blu-ray 1080pФормат: AVIВидео: 656x368 (16:9), 23.976 fps, XviD ~ 931 kbps avg, 0.161 bit/pixelАудио: 48 kHz, МР3, 2 ch, 128 kbps,русский дублированныйВидео: Идентификатор : 0 Формат : MPEG-4 Visual Профиль формата : Advanced [email protected] Параметр BVOP формата : 1 Параметр QPel формата : Нет Параметр GMC формата : Без точки перехода Параметр матрицы формата : Выборочная Идентификатор кодека : XVID Идентификатор кодека/Подсказка : XviD Продолжительность : 1 ч. 37 м. Битрейт : 931 Кбит/сек Ширина : 656 пикселей Высота : 368 пикселей Соотношение сторон : 16:9 Частота кадров : 23,976 кадра/сек Цветовое пространство : YUV Субдискретизация насыщенности : 4:2:0 Битовая глубина : 8 бит Тип развёртки : Прогрессивная Метод сжатия : С потерями Бит/(Пиксели*Кадры) : 0.161 Размер потока : 649 Мбайт (87%) Библиотека кодирования : XviD 73Аудио: Идентификатор : 1 Формат : MPEG Audio Версия формата : Version 1 Профиль формата : Layer 3 Режим : Joint stereo Расширение режима : MS Stereo Идентификатор кодека : 55 Идентификатор кодека/Подсказка : MP3 Продолжительность : 1 ч. 37 м. Вид битрейта : Постоянный Битрейт : 128 Кбит/сек Каналы : 2 канала Частота : 48,0 КГц Метод сжатия : С потерями Размер потока : 89,3 Мбайт (12%) Выравнивание : Соединение по промежуткам Продолжительность промежутка : 42 мс. (1,00 видеокадр) Время предзагрузки промежутка : 504 мс. 744,75 Mb 4 3 11 марта 2016 08:47 Ангар 18 / Hangar 18 (1980) BDRip от New-Team | D .torrent   [Информация о файле (нажмите для просмотра)] Перевод: Профессиональный (дублированный) - Советский дубляж (со вставками двухголосого закадрового)Качество: BDRip / Blu-ray 1080pФормат: AVIВидео: 720x400 (16:9), 23.976 fps, XviD ~ 1937 kbps avg, 0.281 bit/pixelАудио: 48 kHz, Dolby AC3, 2 ch, 192 kbps,русский дублированныйВидео: Идентификатор : 0 Формат : MPEG-4 Visual Профиль формата : Advanced [email protected] Параметр BVOP формата : 1 Параметр QPel формата : Нет Параметр GMC формата : Без точки перехода Параметр матрицы формата : Выборочная Идентификатор кодека : XVID Идентификатор кодека/Подсказка : XviD Продолжительность : 1 ч. 37 м. Битрейт : 1937 Кбит/сек Ширина : 720 пикселей Высота : 400 пикселей Соотношение сторон : 16:9 Частота кадров : 23,976 кадра/сек Цветовое пространство : YUV Субдискретизация насыщенности : 4:2:0 Битовая глубина : 8 бит Тип развёртки : Прогрессивная Метод сжатия : С потерями Бит/(Пиксели*Кадры) : 0.281 Размер потока : 1,32 Гбайт (91%) Библиотека кодирования : XviD 73Аудио: Идентификатор : 1 Формат : AC-3 Формат/Информация : Audio Coding 3 Расширение режима : CM (complete main) Параметр Endianness формата : Big Идентификатор кодека : 2000 Продолжительность : 1 ч. 37 м. Вид битрейта : Постоянный Битрейт : 192 Кбит/сек Каналы : 2 канала Расположение каналов : Front: L R Частота : 48,0 КГц Битовая глубина : 16 бит Метод сжатия : С потерями Размер потока : 134 Мбайт (9%) Выравнивание : Разделение по промежуткам Продолжительность промежутка : 42 мс. (1,00 видеокадр) Время предзагрузки промежутка : 500 мс. 1,46 Gb 15 4 11 марта 2016 08:47 Ангар 18 / Hangar 18 (1980) SATRip | НТВ .torrent   [Информация о файле (нажмите для просмотра)] Перевод: Профессиональный (двухголосый закадровый) НТВ+Кодек: XviDКачество: SATRipВидео: XviD, 720x528, 25 fps, 2019KbpsЗвук: MPEG Audio Layer 3 48000Hz stereo 128Kbps 1,4 Gb 1 4 11 марта 2016 08:47 Ангар 18 / Hangar 18 (1980) SATRip-AVC .torrent   [Информация о файле (нажмите для просмотра)] Перевод: Советский дубляжКодек: h364Качество: SATRipВидео: 592 x 400,25 fps,V_MPEG4/ISO/AVC,970 Kbps,0.164 bit/pixelЗвук: AC3 44100Hz stereo 2822Kbps 703,7 Mb 2 1 11 марта 2016 08:47 Ангар 18 / Hangar 18 (1980) SATRip .torrent   [Информация о файле (нажмите для просмотра)] Перевод: Советский дубляжКодек: XviDКачество: Sat RipВидео: 600x456 (1.32:1), 25 fps, XviD MPEG-4 ~1011 kbps avg, 0.15 bit/pixelЗвук: 48 kHz, MPEG Layer 3, 2 ch, ~128.00 kbps avg 694,31 Mb 3 4

gig-torrent.net

Ангар 18 1980 - скачать бесплатно через торрент в хорошем качестве. Без регистрации

Название: Ангар 18 / Hangar 18 (1980) HDRip-AVC от New-Team
Качество видео: HDRip-AVC [Исходник BDRip 1080p]
Перевод: Профессиональный (дублированный) - Советский дубляж (со вставками двухголосого закадрового)
Формат видео: MKV
Видео: H.264 768x432 (16:9), 23.976 fps, h364 ~ 1 003 Kbps, 0.126 bit/pixel
Аудио: AAC 48 KHz / 24 KHz, AAC HE-AAC / LC, 2/0 (L,R) ch, ~64 kbps
Скачать

Загрузка начнется в течение 5 сек.

745.26 MB

Название: Ангар 18 / Hangar 18 (1980) BDRemux 1080p от New-Team | D, P2, A
Качество видео: BDRemux 1080p / Blu-ray 1080p
Перевод: Профессиональный (дублированный) - Советский дубляж (со вставками двухголосого закадрового)
Формат видео: MKV
Видео: 1920x1080, MPEG-4 AVC Video 26984 kbps 1080p / 23,976 fps / 16:9 / High Profile 4.1
Аудио: английский48 kHz, Dolby AC3, 2 ch, 192 kbps, русский дублированный48 kHz, Dolby AC3, 2 ch, 192 kbps, русский двухгоголосый48 kHz, Dolby AC3, 2 ch, 192 kbps, русский авторскийDTS-HD Master Audio English 869 kbps 1.0 / 48 kHz / 869 kbps / 16-bit (DTS Core: 1.0 / 48 kHz / 768 kbps / 16-bit), английский48 kHz, Dolby AC3, 2 ch, 192 kbps, английский
Скачать

Загрузка начнется в течение 5 сек.

19.49 GB

Название: Ангар 18 / Hangar 18 (1980) BDRip 1080p от New-Team | D, P2, A
Качество видео: BDRip 1080p / Blu-ray 1080p
Перевод: Профессиональный (дублированный) - Советский дубляж (со вставками двухголосого закадрового)
Формат видео: MKV
Видео: 1920x1080 (16:9), 23.976 fps, h364 ~ 8032 kbps avg, 0.162 bit/pixel
Аудио: английский48 kHz, Dolby AC3, 2 ch, 192 kbps, русский дублированный48 kHz, Dolby AC3, 2 ch, 192 kbps, русский двухгоголосый48 kHz, Dolby AC3, 2 ch, 192 kbps, русский авторский48 kHz, DTS, 1 ch, 768 kbps, английский48 kHz, Dolby AC3, 2 ch, 192 kbps, английский
Скачать

Загрузка начнется в течение 5 сек.

6.52 GB

Название: Ангар 18 / Hangar 18 (1980) BDRip-AVC от New-Team | D, P2, A
Качество видео: BDRip-AVC / Blu-ray 1080p
Перевод: Профессиональный (дублированный) - Советский дубляж (со вставками двухголосого закадрового)
Формат видео: MKV
Видео: 1024x576 (16:9), 23.976 fps, h364 ~ 2410 kbps avg, 0.170 bit/pixel
Аудио: английский48 kHz, Dolby AC3, 2 ch, 192 kbps, русский дублированный48 kHz, Dolby AC3, 2 ch, 192 kbps, русский двухгоголосый48 kHz, Dolby AC3, 2 ch, 192 kbps, русский авторский48 kHz, Dolby AC3, 2 ch, 192 kbps, английский
Скачать

Загрузка начнется в течение 5 сек.

2.17 GB

Название: Ангар 18 / Hangar 18 (1980) BDRip 720p от New-Team | D, P2, A
Качество видео: BDRip 720p / Blu-ray 1080p
Перевод: Профессиональный (дублированный) - Советский дубляж (со вставками двухголосого закадрового)
Формат видео: MKV
Видео: 1280x720 (16:9), 23.976 fps, h364 ~ 4874 kbps avg, 0.221 bit/pixel
Аудио: английский48 kHz, Dolby AC3, 2 ch, 192 kbps, русский дублированный48 kHz, Dolby AC3, 2 ch, 192 kbps, русский двухгоголосый48 kHz, Dolby AC3, 2 ch, 192 kbps, русский авторский48 kHz, DTS, 1 ch, 768 kbps, английский48 kHz, Dolby AC3, 2 ch, 192 kbps, английский
Скачать

Загрузка начнется в течение 5 сек.

4.37 GB

Название: Ангар 18 / Hangar 18 (1980) BDRip-AVC от New-Team | D
Качество видео: BDRip-AVC / Blu-ray 1080p
Перевод: Профессиональный (дублированный) - Советский дубляж (со вставками двухголосого закадрового)
Формат видео: MKV
Видео: 992x558 (16:9), 23.976 fps, h364 ~ 1944 kbps avg, 0.146 bit/pixel
Аудио: 48 kHz, Dolby AC3, 2 ch, 192 kbps, русский
Скачать

Загрузка начнется в течение 5 сек.

1.46 GB

Название: Ангар 18 / Hangar 18 (1980) DVDRip от New-Team | D
Качество видео: BDRip / Blu-ray 1080p
Перевод: Профессиональный (дублированный) - Советский дубляж (со вставками двухголосого закадрового)
Формат видео: AVI
Видео: 720x400 (16:9), 23.976 fps, XviD ~ 2399 kbps avg, 0.347 bit/pixel
Аудио: английский48 kHz, Dolby AC3, 2 ch, 192 kbps, русский дублированный48 kHz, Dolby AC3, 2 ch, 192 kbps, русский двухгоголосый48 kHz, Dolby AC3, 2 ch, 192 kbps, русский авторский48 kHz, Dolby AC3, 2 ch, 192 kbps, английский
Скачать

Загрузка начнется в течение 5 сек.

2.18 GB

Название: Ангар 18 / Hangar 18 (1980) BDRip от New-Team | D
Качество видео: BDRip / Blu-ray 1080p
Перевод: Профессиональный (дублированный) - Советский дубляж (со вставками двухголосого закадрового)
Формат видео: AVI
Видео: 720x400 (16:9), 23.976 fps, XviD ~ 1937 kbps avg, 0.281 bit/pixel
Аудио: 48 kHz, Dolby AC3, 2 ch, 192 kbps, русский дублированный
Скачать

Загрузка начнется в течение 5 сек.

1.46 GB

Название: Ангар 18 / Hangar 18 (1980) DVDRip от New-Team | D
Качество видео: BDRip / Blu-ray 1080p
Перевод: Профессиональный (дублированный) - Советский дубляж (со вставками двухголосого закадрового)
Формат видео: AVI
Видео: 656x368 (16:9), 23.976 fps, XviD ~ 931 kbps avg, 0.161 bit/pixel
Аудио: 48 kHz, МР3, 2 ch, 128 kbps, русский дублированный
Скачать

Загрузка начнется в течение 5 сек.

744.75 MB

Название: Ангар 18 / Hangar 18 (1980) SATRip | НТВ+
Качество видео: SATRip
Перевод: Профессиональный (двухголосый закадровый) НТВ+
Видео: XviD XviD, 720x528, 25 fps, 2019Kbps
Аудио: MPEG Audio Layer 3 48000Hz stereo 128Kbps
Скачать

Загрузка начнется в течение 5 сек.

1.40 GB

Название: Ангар 18 / Hangar 18 (1980) SATRip-AVC
Качество видео: SATRip
Перевод: Советский дубляж
Видео: h364 592 x 400,25 fps,V_MPEG4/ISO/AVC,970 Kbps,0.164 bit/pixel
Аудио: AC3 44100Hz stereo 2822Kbps
Скачать

Загрузка начнется в течение 5 сек.

703.70 MB

www.kinovit.net

Скачать фильм Ангар 18 через торрент в хорошем качестве бесплатно 1080p by keeper.52

ОбщееФормат : MatroskaВерсия формата : Version 4 / Version 2Размер файла : 19,5 ГбайтПродолжительность : 1 ч. 37 м.Режим общего битрейта : ПеременныйОбщий поток : 28,6 Мбит/секДата кодирования : UTC 2014-02-14 20:52:12Программа кодирования : mkvmerge v6.7.0 ('Back to the Ground') 64bit built on Jan 8 2014 15:10:52Библиотека кодирования : libebml v1.3.0 + libmatroska v1.4.1

ВидеоИдентификатор : 1Формат : AVCФормат/Информация : Advanced Video CodecПрофиль формата : [email protected]Параметр CABAC формата : ДаПараметр ReFrames формата : 4 кадраПараметр GOP формата : M=3, N=24Идентификатор кодека : V_MPEG4/ISO/AVCПродолжительность : 1 ч. 37 м.Вид битрейта : ПеременныйМаксимальный битрейт : 33,5 Мбит/секШирина : 1920 пикселейВысота : 1080 пикселейСоотношение сторон : 16:9Режим частоты кадров : ПостоянныйЧастота кадров : 23,976 кадра/секСтандарт вещания : NTSCЦветовое пространство : YUVСубдискретизация насыщенности : 4:2:0Битовая глубина : 8 битТип развёртки : ПрогрессивнаяЯзык : EnglishDefault : ДаForced : НетОсновные цвета : BT.709Характеристики трансфера : BT.709Коэффициенты матрицы : BT.709

Аудио #1Идентификатор : 2Формат : AC-3Формат/Информация : Audio Coding 3Расширение режима : CM (complete main)Параметр Endianness формата : BigИдентификатор кодека : A_AC3Продолжительность : 1 ч. 37 м.Вид битрейта : ПостоянныйБитрейт : 192 Кбит/секКаналы : 2 каналаРасположение каналов : Front: L RЧастота : 48,0 КГцБитовая глубина : 16 битМетод сжатия : С потерямиРазмер потока : 134 Мбайт (1%)Заголовок : DUBЯзык : RussianDefault : ДаForced : Нет

Аудио #2Идентификатор : 3Формат : AC-3Формат/Информация : Audio Coding 3Расширение режима : CM (complete main)Параметр Endianness формата : BigИдентификатор кодека : A_AC3Продолжительность : 1 ч. 37 м.Вид битрейта : ПостоянныйБитрейт : 192 Кбит/секКаналы : 2 каналаРасположение каналов : Front: L RЧастота : 48,0 КГцБитовая глубина : 16 битМетод сжатия : С потерямиРазмер потока : 134 Мбайт (1%)Заголовок : DVO NTV+Язык : RussianDefault : НетForced : Нет

Аудио #3Идентификатор : 4Формат : AC-3Формат/Информация : Audio Coding 3Расширение режима : CM (complete main)Параметр Endianness формата : BigИдентификатор кодека : A_AC3Продолжительность : 1 ч. 37 м.Вид битрейта : ПостоянныйБитрейт : 192 Кбит/секКаналы : 2 каналаРасположение каналов : Front: L RЧастота : 48,0 КГцБитовая глубина : 16 битМетод сжатия : С потерямиРазмер потока : 134 Мбайт (1%)Заголовок : AVO SerbinЯзык : RussianDefault : НетForced : Нет

Аудио #4Идентификатор : 5Формат : DTSФормат/Информация : Digital Theater SystemsПрофиль формата : MA / CoreРежим : 16Параметр Endianness формата : BigИдентификатор кодека : A_DTSПродолжительность : 1 ч. 37 м.Вид битрейта : ПеременныйБитрейт : Неизвестно / 768 Кбит/секКаналы : 1 каналРасположение каналов : Front: CЧастота : 48,0 КГцБитовая глубина : 16 битМетод сжатия : Без потерь / LossyЯзык : EnglishDefault : НетForced : Нет

Аудио #5Идентификатор : 6Формат : AC-3Формат/Информация : Audio Coding 3Расширение режима : CM (complete main)Параметр Endianness формата : BigИдентификатор кодека : A_AC3Продолжительность : 1 ч. 37 м.Вид битрейта : ПостоянныйБитрейт : 192 Кбит/секКаналы : 2 каналаРасположение каналов : Front: L RЧастота : 48,0 КГцБитовая глубина : 16 битМетод сжатия : С потерямиРазмер потока : 134 Мбайт (1%)Язык : EnglishDefault : НетForced : Нет

Меню00:00:00.000 : en:00:00:00.00000:09:18.475 : en:00:09:18.47500:22:47.199 : en:00:22:47.19900:36:22.555 : en:00:36:22.55500:45:44.408 : en:00:45:44.40801:00:58.780 : en:01:00:58.78001:10:01.406 : en:01:10:01.40601:17:40.739 : en:01:17:40.739

piratbit.ru

Скачать фильм Ангар 18 через торрент в хорошем качестве бесплатно BDRip-AVC by keeper.52

ОбщееФормат : MatroskaВерсия формата : Version 4 / Version 2Размер файла : 1,46 ГбайтПродолжительность : 1 ч. 37 м.Общий поток : 2137 Кбит/секДата кодирования : UTC 2014-02-15 18:34:07Программа кодирования : mkvmerge v6.7.0 ('Back to the Ground') 64bit built on Jan 8 2014 15:10:52Библиотека кодирования : libebml v1.3.0 + libmatroska v1.4.1

ВидеоИдентификатор : 1Формат : AVCФормат/Информация : Advanced Video CodecПрофиль формата : [email protected]Параметр CABAC формата : ДаПараметр ReFrames формата : 6 кадровИдентификатор кодека : V_MPEG4/ISO/AVCПродолжительность : 1 ч. 37 м.Битрейт : 1944 Кбит/секШирина : 992 пикселяВысота : 558 пикселейСоотношение сторон : 16:9Режим частоты кадров : ПостоянныйЧастота кадров : 23,976 кадра/секЦветовое пространство : YUVСубдискретизация насыщенности : 4:2:0Битовая глубина : 8 битТип развёртки : ПрогрессивнаяБит/(Пиксели*Кадры) : 0.146Размер потока : 1,30 Гбайт (89%)Библиотека кодирования : x264 core 138 r2356 a1d3d17Настройки программы : cabac=1 / ref=6 / deblock=1:-2:-1 / analyse=0x3:0x113 / me=umh / subme=10 / psy=1 / psy_rd=1.00:0.05 / mixed_ref=1 / me_range=32 / chroma_me=1 / trellis=2 / 8x8dct=1 / cqm=0 / deadzone=21,11 / fast_pskip=0 / chroma_qp_offset=-3 / threads=9 / lookahead_threads=1 / sliced_threads=0 / nr=0 / decimate=0 / interlaced=0 / bluray_compat=0 / constrained_intra=0 / bframes=8 / b_pyramid=2 / b_adapt=2 / b_bias=0 / direct=3 / weightb=1 / open_gop=0 / weightp=2 / keyint=250 / keyint_min=25 / scenecut=40 / intra_refresh=0 / rc=2pass / mbtree=0 / bitrate=1944 / ratetol=1.0 / qcomp=0.60 / qpmin=0 / qpmax=69 / qpstep=4 / cplxblur=20.0 / qblur=0.5 / ip_ratio=1.40 / pb_ratio=1.30 / aq=1:1.00Язык : EnglishDefault : ДаForced : Нет

АудиоИдентификатор : 2Формат : AC-3Формат/Информация : Audio Coding 3Расширение режима : CM (complete main)Параметр Endianness формата : BigИдентификатор кодека : A_AC3Продолжительность : 1 ч. 37 м.Вид битрейта : ПостоянныйБитрейт : 192 Кбит/секКаналы : 2 каналаРасположение каналов : Front: L RЧастота : 48,0 КГцБитовая глубина : 16 битМетод сжатия : С потерямиРазмер потока : 134 Мбайт (9%)Язык : RussianDefault : ДаForced : Нет

Меню00:00:00.000 : en:00:00:00.00000:09:18.475 : en:00:09:18.47500:22:47.199 : en:00:22:47.19900:36:22.555 : en:00:36:22.55500:45:44.408 : en:00:45:44.40801:00:58.780 : en:01:00:58.78001:10:01.406 : en:01:10:01.40601:17:40.739 : en:01:17:40.739

piratbit.ru

Скачать фильм Ангар 18 через торрент в хорошем качестве бесплатно 720p by keeper.52

ОбщееФормат : MatroskaВерсия формата : Version 4 / Version 2Размер файла : 4,62 ГбайтПродолжительность : 1 ч. 37 м.Общий поток : 6790 Кбит/секДата кодирования : UTC 2014-02-19 06:58:31Программа кодирования : mkvmerge v6.7.0 ('Back to the Ground') 64bit built on Jan 8 2014 15:10:52Библиотека кодирования : libebml v1.3.0 + libmatroska v1.4.1

ВидеоИдентификатор : 1Формат : AVCФормат/Информация : Advanced Video CodecПрофиль формата : [email protected]Параметр CABAC формата : ДаПараметр ReFrames формата : 4 кадраИдентификатор кодека : V_MPEG4/ISO/AVCПродолжительность : 1 ч. 37 м.Битрейт : 5253 Кбит/секШирина : 1280 пикселейВысота : 720 пикселейСоотношение сторон : 16:9Режим частоты кадров : ПостоянныйЧастота кадров : 23,976 кадра/секЦветовое пространство : YUVСубдискретизация насыщенности : 4:2:0Битовая глубина : 8 битТип развёртки : ПрогрессивнаяБит/(Пиксели*Кадры) : 0.238Размер потока : 3,49 Гбайт (75%)Библиотека кодирования : x264 core 138 r2356 a1d3d17Настройки программы : cabac=1 / ref=4 / deblock=1:-3:-3 / analyse=0x3:0x133 / me=umh / subme=10 / psy=1 / psy_rd=1.00:0.05 / mixed_ref=1 / me_range=32 / chroma_me=1 / trellis=2 / 8x8dct=1 / cqm=0 / deadzone=21,11 / fast_pskip=0 / chroma_qp_offset=-3 / threads=6 / lookahead_threads=1 / sliced_threads=0 / nr=0 / decimate=0 / interlaced=0 / bluray_compat=0 / constrained_intra=0 / bframes=8 / b_pyramid=2 / b_adapt=2 / b_bias=0 / direct=3 / weightb=1 / open_gop=0 / weightp=2 / keyint=240 / keyint_min=24 / scenecut=40 / intra_refresh=0 / rc=2pass / mbtree=0 / bitrate=5253 / ratetol=1.0 / qcomp=0.60 / qpmin=0 / qpmax=69 / qpstep=4 / cplxblur=20.0 / qblur=0.5 / ip_ratio=1.40 / pb_ratio=1.30 / aq=1:1.00Язык : EnglishDefault : ДаForced : Нет

Аудио #1Идентификатор : 2Формат : AC-3Формат/Информация : Audio Coding 3Расширение режима : CM (complete main)Параметр Endianness формата : BigИдентификатор кодека : A_AC3Продолжительность : 1 ч. 37 м.Вид битрейта : ПостоянныйБитрейт : 192 Кбит/секКаналы : 2 каналаРасположение каналов : Front: L RЧастота : 48,0 КГцБитовая глубина : 16 битМетод сжатия : С потерямиРазмер потока : 134 Мбайт (3%)Заголовок : DubЯзык : RussianDefault : ДаForced : Нет

Аудио #2Идентификатор : 3Формат : AC-3Формат/Информация : Audio Coding 3Расширение режима : CM (complete main)Параметр Endianness формата : BigИдентификатор кодека : A_AC3Продолжительность : 1 ч. 37 м.Вид битрейта : ПостоянныйБитрейт : 192 Кбит/секКаналы : 2 каналаРасположение каналов : Front: L RЧастота : 48,0 КГцБитовая глубина : 16 битМетод сжатия : С потерямиРазмер потока : 134 Мбайт (3%)Заголовок : DVO NTV+Язык : RussianDefault : НетForced : Нет

Аудио #3Идентификатор : 4Формат : AC-3Формат/Информация : Audio Coding 3Расширение режима : CM (complete main)Параметр Endianness формата : BigИдентификатор кодека : A_AC3Продолжительность : 1 ч. 37 м.Вид битрейта : ПостоянныйБитрейт : 192 Кбит/секКаналы : 2 каналаРасположение каналов : Front: L RЧастота : 48,0 КГцБитовая глубина : 16 битМетод сжатия : С потерямиРазмер потока : 134 Мбайт (3%)Заголовок : AVO (Serbin)Язык : RussianDefault : НетForced : Нет

Аудио #4Идентификатор : 5Формат : DTSФормат/Информация : Digital Theater SystemsРежим : 16Параметр Endianness формата : BigИдентификатор кодека : A_DTSПродолжительность : 1 ч. 37 м.Вид битрейта : ПостоянныйБитрейт : 768 Кбит/секКаналы : 1 каналРасположение каналов : Front: CЧастота : 48,0 КГцБитовая глубина : 16 битМетод сжатия : С потерямиРазмер потока : 536 Мбайт (11%)Заголовок : OriginalЯзык : EnglishDefault : НетForced : Нет

Аудио #5Идентификатор : 6Формат : AC-3Формат/Информация : Audio Coding 3Расширение режима : CM (complete main)Параметр Endianness формата : BigИдентификатор кодека : A_AC3Продолжительность : 1 ч. 37 м.Вид битрейта : ПостоянныйБитрейт : 192 Кбит/секКаналы : 2 каналаРасположение каналов : Front: L RЧастота : 48,0 КГцБитовая глубина : 16 битМетод сжатия : С потерямиРазмер потока : 134 Мбайт (3%)Язык : EnglishDefault : НетForced : Нет

Меню00:00:00.000 : en:00:00:00.00000:09:18.475 : en:00:09:18.47500:22:47.199 : en:00:22:47.19900:36:22.555 : en:00:36:22.55500:45:44.408 : en:00:45:44.40801:00:58.780 : en:01:00:58.78001:10:01.406 : en:01:10:01.40601:17:40.739 : en:01:17:40.739

piratbit.ru

Скачать фильм Ангар 18 через торрент в хорошем качестве бесплатно 1080p by keeper.52

ОбщееФормат : MatroskaВерсия формата : Version 4 / Version 2Размер файла : 8,25 ГбайтПродолжительность : 1 ч. 37 м.Общий поток : 12,1 Мбит/секДата кодирования : UTC 2014-02-19 07:02:37Программа кодирования : mkvmerge v6.7.0 ('Back to the Ground') 64bit built on Jan 8 2014 15:10:52Библиотека кодирования : libebml v1.3.0 + libmatroska v1.4.1

ВидеоИдентификатор : 1Формат : AVCФормат/Информация : Advanced Video CodecПрофиль формата : [email protected]Параметр CABAC формата : ДаПараметр ReFrames формата : 4 кадраИдентификатор кодека : V_MPEG4/ISO/AVCПродолжительность : 1 ч. 37 м.Битрейт : 10,6 Мбит/секШирина : 1920 пикселейВысота : 1080 пикселейСоотношение сторон : 16:9Режим частоты кадров : ПостоянныйЧастота кадров : 23,976 кадра/секЦветовое пространство : YUVСубдискретизация насыщенности : 4:2:0Битовая глубина : 8 битТип развёртки : ПрогрессивнаяБит/(Пиксели*Кадры) : 0.213Размер потока : 7,04 Гбайт (85%)Библиотека кодирования : x264 core 138 r2356 a1d3d17Настройки программы : cabac=1 / ref=4 / deblock=1:-3:-3 / analyse=0x3:0x113 / me=umh / subme=10 / psy=1 / psy_rd=1.00:0.05 / mixed_ref=1 / me_range=32 / chroma_me=1 / trellis=2 / 8x8dct=1 / cqm=0 / deadzone=21,11 / fast_pskip=0 / chroma_qp_offset=-3 / threads=9 / lookahead_threads=1 / sliced_threads=0 / nr=0 / decimate=0 / interlaced=0 / bluray_compat=0 / constrained_intra=0 / bframes=8 / b_pyramid=2 / b_adapt=2 / b_bias=0 / direct=3 / weightb=1 / open_gop=0 / weightp=2 / keyint=240 / keyint_min=24 / scenecut=40 / intra_refresh=0 / rc_lookahead=40 / rc=2pass / mbtree=1 / bitrate=10572 / ratetol=1.0 / qcomp=0.60 / qpmin=0 / qpmax=69 / qpstep=4 / cplxblur=20.0 / qblur=0.5 / ip_ratio=1.40 / aq=1:1.00Язык : EnglishDefault : ДаForced : Нет

Аудио #1Идентификатор : 2Формат : AC-3Формат/Информация : Audio Coding 3Расширение режима : CM (complete main)Параметр Endianness формата : BigИдентификатор кодека : A_AC3Продолжительность : 1 ч. 37 м.Вид битрейта : ПостоянныйБитрейт : 192 Кбит/секКаналы : 2 каналаРасположение каналов : Front: L RЧастота : 48,0 КГцБитовая глубина : 16 битМетод сжатия : С потерямиРазмер потока : 134 Мбайт (2%)Заголовок : DubЯзык : RussianDefault : ДаForced : Нет

Аудио #2Идентификатор : 3Формат : AC-3Формат/Информация : Audio Coding 3Расширение режима : CM (complete main)Параметр Endianness формата : BigИдентификатор кодека : A_AC3Продолжительность : 1 ч. 37 м.Вид битрейта : ПостоянныйБитрейт : 192 Кбит/секКаналы : 2 каналаРасположение каналов : Front: L RЧастота : 48,0 КГцБитовая глубина : 16 битМетод сжатия : С потерямиРазмер потока : 134 Мбайт (2%)Заголовок : DVO NTV+Язык : RussianDefault : НетForced : Нет

Аудио #3Идентификатор : 4Формат : AC-3Формат/Информация : Audio Coding 3Расширение режима : CM (complete main)Параметр Endianness формата : BigИдентификатор кодека : A_AC3Продолжительность : 1 ч. 37 м.Вид битрейта : ПостоянныйБитрейт : 192 Кбит/секКаналы : 2 каналаРасположение каналов : Front: L RЧастота : 48,0 КГцБитовая глубина : 16 битМетод сжатия : С потерямиРазмер потока : 134 Мбайт (2%)Заголовок : AVO (Serbin)Язык : RussianDefault : НетForced : Нет

Аудио #4Идентификатор : 5Формат : DTSФормат/Информация : Digital Theater SystemsРежим : 16Параметр Endianness формата : BigИдентификатор кодека : A_DTSПродолжительность : 1 ч. 37 м.Вид битрейта : ПостоянныйБитрейт : 768 Кбит/секКаналы : 1 каналРасположение каналов : Front: CЧастота : 48,0 КГцБитовая глубина : 16 битМетод сжатия : С потерямиРазмер потока : 536 Мбайт (6%)Заголовок : OriginalЯзык : EnglishDefault : НетForced : Нет

Аудио #5Идентификатор : 6Формат : AC-3Формат/Информация : Audio Coding 3Расширение режима : CM (complete main)Параметр Endianness формата : BigИдентификатор кодека : A_AC3Продолжительность : 1 ч. 37 м.Вид битрейта : ПостоянныйБитрейт : 192 Кбит/секКаналы : 2 каналаРасположение каналов : Front: L RЧастота : 48,0 КГцБитовая глубина : 16 битМетод сжатия : С потерямиРазмер потока : 134 Мбайт (2%)Язык : EnglishDefault : НетForced : Нет

Меню00:00:00.000 : en:00:00:00.00000:09:18.475 : en:00:09:18.47500:22:47.199 : en:00:22:47.19900:36:22.555 : en:00:36:22.55500:45:44.408 : en:00:45:44.40801:00:58.780 : en:01:00:58.78001:10:01.406 : en:01:10:01.40601:17:40.739 : en:01:17:40.739

piratbit.ru

Скачать фильм Ангар 18 через торрент в хорошем качестве бесплатно BDRip by keeper.52

Раздают: 1 [ 0 KB/s ]
Размер: 1.46 GB | Добавлен: 1 год 7 мес. назад | Торрент скачан:41 раз
Реклама Дарим 3000 рублей за регистрацию, не упусти свой шанс получить шикарный бонус!!!

22-03-2016 05:44 Ангар 18 Скачать торрент  

Ангар 18 / Hangar 18«It started with an accident in space . . . and led to the terrifying secret in . . . HANGAR 18» Страна: США / Sunn Classic Pictures Inc.Жанр: фантастика, боевик, триллер, биографияГод выпуска: 1980Продолжительность: 01:37:30

Перевод: Профессиональный (дублированный) - Советский дубляж (со вставками двухголосого закадрового)

Cубтитры: нетОригинальная аудиодорожка: нет

Режиссер: Джеймс Л. Конуэй / James L. Conway

В ролях: Гари Коллинз, Роберт Вон, Джеймс Хэмптон, Филип Эбботт, Джозеф Кампанелла, Памела Беллвуд, Том Хэллик, Стивен Китс, Уильям Шэллерт, Дэррен МакГэвин...

Роли дублировали: Игорь Окрепилов, Александр Демьяненко, Вячеслав Захаров, Юрий Дедович, Владимир Татосов...

Описание: Во время запуска спутника с космического челнока NASA происходит катастрофа, в результате которой погибает один из астронавтов. Как потом выясняется, причиной взрыва становится столкновение спутника с НЛО. Неопознанный объект совершает аварийную посадку на Земле и попадает в руки спецслужб правительства. Небольшая группа военных и политиков, опасающихся ненужной и рискованной шумихи вокруг этого ЧП накануне президентских выборов, делают все, чтобы сохранить происшествие в тайне. Вернувшихся на землю астронавтов изолируют, а НЛО отправляют для исследований на военную базу и прячут в ангаре под №18. Но друзья погибшего астронавта пытаются узнать правду о загадочном объекте, встреченном на орбите, и не хотят сидеть сложа руки, и предпринимают собственное и весьма рискованное расследование...В 80-х годах этот фильм демонстрировался в кинотеатрах по всему СССР и снискал большую популярность у зрителей.

Качество: BDRip / Blu-ray 1080pФормат: AVI

Видео: 720x400 (16:9), 23.976 fps, XviD ~ 1937 kbps avg, 0.281 bit/pixelАудио: 48 kHz, Dolby AC3, 2 ch, 192 kbps, русский дублированный

Раздача от:

ОбщееПолное имя : Angar.18.1980.D.BDRip.1.46GB_[New-Team]_by_avproh.aviФормат : AVIФормат/Информация : Audio Video InterleaveРазмер файла : 1,46 ГбайтПродолжительность : 1 ч. 37 м.Общий поток : 2139 Кбит/секПрограмма кодирования : VirtualDubModRus 1.5.10.2 (build 2542/release)Библиотека кодирования : VirtualDubMod build 2542/release

ВидеоИдентификатор : 0Формат : MPEG-4 VisualПрофиль формата : Advanced [email protected]Параметр BVOP формата : 1Параметр QPel формата : НетПараметр GMC формата : Без точки переходаПараметр матрицы формата : ВыборочнаяИдентификатор кодека : XVIDИдентификатор кодека/Подсказка : XviDПродолжительность : 1 ч. 37 м.Битрейт : 1937 Кбит/секШирина : 720 пикселейВысота : 400 пикселейСоотношение сторон : 16:9Частота кадров : 23,976 кадра/секЦветовое пространство : YUVСубдискретизация насыщенности : 4:2:0Битовая глубина : 8 битТип развёртки : ПрогрессивнаяМетод сжатия : С потерямиБит/(Пиксели*Кадры) : 0.281Размер потока : 1,32 Гбайт (91%)Библиотека кодирования : XviD 73

АудиоИдентификатор : 1Формат : AC-3Формат/Информация : Audio Coding 3Расширение режима : CM (complete main)Параметр Endianness формата : BigИдентификатор кодека : 2000Продолжительность : 1 ч. 37 м.Вид битрейта : ПостоянныйБитрейт : 192 Кбит/секКаналы : 2 каналаРасположение каналов : Front: L RЧастота : 48,0 КГцБитовая глубина : 16 битМетод сжатия : С потерямиРазмер потока : 134 Мбайт (9%)Выравнивание : Разделение по промежуткамПродолжительность промежутка : 42 мс. (1,00 видеокадр)Время предзагрузки промежутка : 500 мс.

Скачать Ангар 18 через торрент http://i59.fastpic.ru/big/2014/0215/59/d38b0f8645c2018e356a02573be42159.png Скачать фильм Ангар 18 через торрент бесплантно в хорошем качестве Описание: Во время запуска спутника с космического челнока NASA происходит катастрофа, в результате которой погибает один из астронавтов. ... 2016-03-22 06:20 10 10 3

Loading...

Loading...

Рекламный пират

Дорогой пользователь! Огромная просьба, поблагодарите релизера, оцените раздачу и оставьте свои комментарий, если Вы скачали Ангар 18 через торрент бесплатно! Внесите свою лепту в развитие PiratBit!

Комментировать посты могут только пользователи прошедшие не сложную регистрацию

Ангар 18 через торрент Скачать бесплатно Ангар 18 Ангар 18 скачать торрент Ангар 18 смотреть онлайн Cкачать фильм Ангар 18 бесплатно Ангар 18 скачать торрент в хорошем качестве Ангар 18 смотреть онлайн бесплатно в хорошем качестве

Вы не можете начинать темыВы не можете отвечать на сообщенияВы не можете редактировать свои сообщенияВы не можете удалять свои сообщенияВы не можете голосовать в опросахВы не можете прикреплять файлы к сообщениямВы можете скачивать файлы

piratbit.ru


Смотрите также